  0
SECTION
  2
HEADER
  9
$ACADVER
  1
AC1018
  9
$ACADMAINTVER
 70
     0
  9
$DWGCODEPAGE
  3
ANSI_1252
  9
$INSBASE
 10
0.0
 20
0.0
 30
0.0
  9
$EXTMIN
 10
367.274330163835
 20
-29.1550506699423
 30
0.0
  9
$EXTMAX
 10
481.834030863908
 20
60.48695689143428
 30
0.0
  9
$LIMMIN
 10
0.0
 20
0.0
  9
$LIMMAX
 10
12.0
 20
9.0
  9
$ORTHOMODE
 70
     0
  9
$REGENMODE
 70
     1
  9
$FILLMODE
 70
     1
  9
$QTEXTMODE
 70
     0
  9
$MIRRTEXT
 70
     1
  9
$LTSCALE
 40
1.0
  9
$ATTMODE
 70
     1
  9
$TEXTSIZE
 40
0.2
  9
$TRACEWID
 40
0.05
  9
$TEXTSTYLE
  7
Standard
  9
$CLAYER
  8
0
  9
$CELTYPE
  6
ByLayer
  9
$CECOLOR
 62
   256
  9
$CELTSCALE
 40
1.0
  9
$DISPSILH
 70
     0
  9
$DIMSCALE
 40
1.0
  9
$DIMASZ
 40
0.18
  9
$DIMEXO
 40
0.0625
  9
$DIMDLI
 40
0.38
  9
$DIMRND
 40
0.0
  9
$DIMDLE
 40
0.0
  9
$DIMEXE
 40
0.18
  9
$DIMTP
 40
0.0
  9
$DIMTM
 40
0.0
  9
$DIMTXT
 40
0.18
  9
$DIMCEN
 40
0.09
  9
$DIMTSZ
 40
0.0
  9
$DIMTOL
 70
     0
  9
$DIMLIM
 70
     0
  9
$DIMTIH
 70
     1
  9
$DIMTOH
 70
     1
  9
$DIMSE1
 70
     0
  9
$DIMSE2
 70
     0
  9
$DIMTAD
 70
     0
  9
$DIMZIN
 70
     0
  9
$DIMBLK
  1

  9
$DIMASO
 70
     1
  9
$DIMSHO
 70
     1
  9
$DIMPOST
  1

  9
$DIMAPOST
  1

  9
$DIMALT
 70
     0
  9
$DIMALTD
 70
     2
  9
$DIMALTF
 40
25.4
  9
$DIMLFAC
 40
1.0
  9
$DIMTOFL
 70
     0
  9
$DIMTVP
 40
0.0
  9
$DIMTIX
 70
     0
  9
$DIMSOXD
 70
     0
  9
$DIMSAH
 70
     0
  9
$DIMBLK1
  1

  9
$DIMBLK2
  1

  9
$DIMSTYLE
  2
Standard
  9
$DIMCLRD
 70
     0
  9
$DIMCLRE
 70
     0
  9
$DIMCLRT
 70
     0
  9
$DIMTFAC
 40
1.0
  9
$DIMGAP
 40
0.09
  9
$DIMJUST
 70
     0
  9
$DIMSD1
 70
     0
  9
$DIMSD2
 70
     0
  9
$DIMTOLJ
 70
     1
  9
$DIMTZIN
 70
     0
  9
$DIMALTZ
 70
     0
  9
$DIMALTTZ
 70
     0
  9
$DIMUPT
 70
     0
  9
$DIMDEC
 70
     4
  9
$DIMTDEC
 70
     4
  9
$DIMALTU
 70
     2
  9
$DIMALTTD
 70
     2
  9
$DIMTXSTY
  7
Standard
  9
$DIMAUNIT
 70
     0
  9
$DIMADEC
 70
     0
  9
$DIMALTRND
 40
0.0
  9
$DIMAZIN
 70
     0
  9
$DIMDSEP
 70
    46
  9
$DIMATFIT
 70
     3
  9
$DIMFRAC
 70
     0
  9
$DIMLDRBLK
  1

  9
$DIMLUNIT
 70
     2
  9
$DIMLWD
 70
    -2
  9
$DIMLWE
 70
    -2
  9
$DIMTMOVE
 70
     0
  9
$LUNITS
 70
     2
  9
$LUPREC
 70
     4
  9
$SKETCHINC
 40
0.1
  9
$FILLETRAD
 40
0.5
  9
$AUNITS
 70
     0
  9
$AUPREC
 70
     0
  9
$MENU
  1
.
  9
$ELEVATION
 40
0.0
  9
$PELEVATION
 40
0.0
  9
$THICKNESS
 40
0.0
  9
$LIMCHECK
 70
     0
  9
$CHAMFERA
 40
0.5
  9
$CHAMFERB
 40
0.5
  9
$CHAMFERC
 40
1.0
  9
$CHAMFERD
 40
0.0
  9
$SKPOLY
 70
     0
  9
$TDCREATE
 40
2454897.379306273
  9
$TDUCREATE
 40
2454897.337639607
  9
$TDUPDATE
 40
2454897.379306285
  9
$TDUUPDATE
 40
2454897.337639618
  9
$TDINDWG
 40
0.0000000116
  9
$TDUSRTIMER
 40
0.0000000116
  9
$USRTIMER
 70
     1
  9
$ANGBASE
 50
0.0
  9
$ANGDIR
 70
     0
  9
$PDMODE
 70
     0
  9
$PDSIZE
 40
0.0
  9
$PLINEWID
 40
0.0
  9
$SPLFRAME
 70
     0
  9
$SPLINETYPE
 70
     6
  9
$SPLINESEGS
 70
     8
  9
$HANDSEED
  5
1BE
  9
$SURFTAB1
 70
     6
  9
$SURFTAB2
 70
     6
  9
$SURFTYPE
 70
     6
  9
$SURFU
 70
     6
  9
$SURFV
 70
     6
  9
$UCSBASE
  2

  9
$UCSNAME
  2

  9
$UCSORG
 10
0.0
 20
0.0
 30
0.0
  9
$UCSXDIR
 10
1.0
 20
0.0
 30
0.0
  9
$UCSYDIR
 10
0.0
 20
1.0
 30
0.0
  9
$UCSORTHOREF
  2

  9
$UCSORTHOVIEW
 70
     0
  9
$UCSORGTOP
 10
0.0
 20
0.0
 30
0.0
  9
$UCSORGBOTTOM
 10
0.0
 20
0.0
 30
0.0
  9
$UCSORGLEFT
 10
0.0
 20
0.0
 30
0.0
  9
$UCSORGRIGHT
 10
0.0
 20
0.0
 30
0.0
  9
$UCSORGFRONT
 10
0.0
 20
0.0
 30
0.0
  9
$UCSORGBACK
 10
0.0
 20
0.0
 30
0.0
  9
$PUCSBASE
  2

  9
$PUCSNAME
  2

  9
$PUCSORG
 10
0.0
 20
0.0
 30
0.0
  9
$PUCSXDIR
 10
1.0
 20
0.0
 30
0.0
  9
$PUCSYDIR
 10
0.0
 20
1.0
 30
0.0
  9
$PUCSORTHOREF
  2

  9
$PUCSORTHOVIEW
 70
     0
  9
$PUCSORGTOP
 10
0.0
 20
0.0
 30
0.0
  9
$PUCSORGBOTTOM
 10
0.0
 20
0.0
 30
0.0
  9
$PUCSORGLEFT
 10
0.0
 20
0.0
 30
0.0
  9
$PUCSORGRIGHT
 10
0.0
 20
0.0
 30
0.0
  9
$PUCSORGFRONT
 10
0.0
 20
0.0
 30
0.0
  9
$PUCSORGBACK
 10
0.0
 20
0.0
 30
0.0
  9
$USERI1
 70
     0
  9
$USERI2
 70
     0
  9
$USERI3
 70
     0
  9
$USERI4
 70
     0
  9
$USERI5
 70
     0
  9
$USERR1
 40
14.5
  9
$USERR2
 40
0.0
  9
$USERR3
 40
0.0
  9
$USERR4
 40
0.0
  9
$USERR5
 40
0.0
  9
$WORLDVIEW
 70
     1
  9
$SHADEDGE
 70
     3
  9
$SHADEDIF
 70
    70
  9
$TILEMODE
 70
     1
  9
$MAXACTVP
 70
    64
  9
$PINSBASE
 10
0.0
 20
0.0
 30
0.0
  9
$PLIMCHECK
 70
     0
  9
$PEXTMIN
 10
1.00000000000000E+20
 20
1.00000000000000E+20
 30
1.00000000000000E+20
  9
$PEXTMAX
 10
-1.00000000000000E+20
 20
-1.00000000000000E+20
 30
-1.00000000000000E+20
  9
$PLIMMIN
 10
0.0
 20
0.0
  9
$PLIMMAX
 10
12.0
 20
9.0
  9
$UNITMODE
 70
     0
  9
$VISRETAIN
 70
     1
  9
$PLINEGEN
 70
     0
  9
$PSLTSCALE
 70
     1
  9
$TREEDEPTH
 70
  3020
  9
$CMLSTYLE
  2
Standard
  9
$CMLJUST
 70
     0
  9
$CMLSCALE
 40
1.0
  9
$PROXYGRAPHICS
 70
     1
  9
$MEASUREMENT
 70
     1
  9
$CELWEIGHT
370
    -1
  9
$ENDCAPS
280
     0
  9
$JOINSTYLE
280
     0
  9
$LWDISPLAY
290
     0
  9
$INSUNITS
 70
     1
  9
$HYPERLINKBASE
  1

  9
$STYLESHEET
  1

  9
$XEDIT
290
     1
  9
$CEPSNTYPE
380
     0
  9
$PSTYLEMODE
290
     1
  9
$FINGERPRINTGUID
  2
{3275B80C-1B24-4F3A-862E-F22EC5A059E9}
  9
$VERSIONGUID
  2
{FAEB1C32-E019-11D5-929B-00C0DF256EC4}
  9
$EXTNAMES
290
     1
  9
$PSVPSCALE
 40
0.0
  9
$OLESTARTUP
290
     0
  9
$SORTENTS
280
   127
  9
$INDEXCTL
280
     0
  9
$HIDETEXT
280
     1
  9
$XCLIPFRAME
290
     0
  9
$HALOGAP
280
     0
  9
$OBSCOLOR
 70
   257
  9
$OBSLTYPE
280
     0
  9
$INTERSECTIONDISPLAY
280
     0
  9
$INTERSECTIONCOLOR
 70
   257
  9
$DIMASSOC
280
     2
  9
$PROJECTNAME
  1

  0
ENDSEC
  0
SECTION
  2
CLASSES
  0
CLASS
  1
ACDBDICTIONARYWDFLT
  2
AcDbDictionaryWithDefault
  3
ObjectDBX Classes
 90
        0
 91
        3
280
     0
281
     0
  0
CLASS
  1

  2
exOdDbCircle
  3

 90
        0
 91
        3
280
     0
281
     1
  0
CLASS
  1

  2
exOdDbSpline
  3

 90
        0
 91
        3
280
     0
281
     1
  0
ENDSEC
  0
SECTION
  2
TABLES
  0
TABLE
  2
VPORT
  5
8
330
0
100
AcDbSymbolTable
 70
     1
  0
VPORT
  5
29
330
8
100
AcDbSymbolTableRecord
100
AcDbViewportTableRecord
  2
*Active
 70
     0
 10
0.0
 20
0.0
 11
1.0
 21
1.0
 12
424.5541805138715
 22
15.66595311074599
 13
0.0
 23
0.0
 14
0.5
 24
0.5
 15
0.5
 25
0.5
 16
0.0
 26
0.0
 36
1.0
 17
0.0
 27
0.0
 37
0.0
 40
98.60620831751426
 41
1.60267857142857
 42
50.0
 43
0.0
 44
0.0
 50
0.0
 51
0.0
 71
     0
 72
   100
 73
     1
 74
     3
 75
     0
 76
     0
 77
     0
 78
     0
281
     0
 65
     1
110
0.0
120
0.0
130
0.0
111
1.0
121
0.0
131
0.0
112
0.0
122
1.0
132
0.0
 79
     0
146
0.0
  0
ENDTAB
  0
TABLE
  2
LTYPE
  5
5
330
0
100
AcDbSymbolTable
 70
     8
  0
LTYPE
  5
14
330
5
100
AcDbSymbolTableRecord
100
AcDbLinetypeTableRecord
  2
ByBlock
 70
     0
  3

 72
    65
 73
     0
 40
0.0
  0
LTYPE
  5
15
330
5
100
AcDbSymbolTableRecord
100
AcDbLinetypeTableRecord
  2
ByLayer
 70
     0
  3

 72
    65
 73
     0
 40
0.0
  0
LTYPE
  5
16
330
5
100
AcDbSymbolTableRecord
100
AcDbLinetypeTableRecord
  2
Continuous
 70
     0
  3
Solid line
 72
    65
 73
     0
 40
0.0
  0
LTYPE
  5
2A
330
5
100
AcDbSymbolTableRecord
100
AcDbLinetypeTableRecord
  2
DASHED
 70
     0
  3
Dashed
 72
    65
 73
     2
 40
15.0
 49
7.0
 74
     0
 49
-8.0
 74
     0
  0
LTYPE
  5
2B
330
5
100
AcDbSymbolTableRecord
100
AcDbLinetypeTableRecord
  2
DOTTED
 70
     0
  3
Dotted
 72
    65
 73
     2
 40
1.0
 49
0.0
 74
     0
 49
-1.0
 74
     0
  0
LTYPE
  5
2C
330
5
100
AcDbSymbolTableRecord
100
AcDbLinetypeTableRecord
  2
DOT_CENTER
 70
     0
  3
Dot_Center
 72
    65
 73
     4
 40
14.0
 49
12.0
 74
     0
 49
-1.0
 74
     0
 49
0.0
 74
     0
 49
-1.0
 74
     0
  0
LTYPE
  5
2D
330
5
100
AcDbSymbolTableRecord
100
AcDbLinetypeTableRecord
  2
LONG_DASHED
 70
     0
  3
Long_Dashed
 72
    65
 73
     2
 40
15.0
 49
10.0
 74
     0
 49
-5.0
 74
     0
  0
LTYPE
  5
2E
330
5
100
AcDbSymbolTableRecord
100
AcDbLinetypeTableRecord
  2
DASH_CENTER
 70
     0
  3
Dash_Center
 72
    65
 73
     4
 40
14.0
 49
11.0
 74
     0
 49
-1.0
 74
     0
 49
1.0
 74
     0
 49
-1.0
 74
     0
  0
LTYPE
  5
2F
330
5
100
AcDbSymbolTableRecord
100
AcDbLinetypeTableRecord
  2
PHANTOM
 70
     0
  3
Phantom
 72
    65
 73
     6
 40
13.0
 49
10.0
 74
     0
 49
-1.0
 74
     0
 49
0.0
 74
     0
 49
-1.0
 74
     0
 49
0.0
 74
     0
 49
-1.0
 74
     0
  0
LTYPE
  5
30
330
5
100
AcDbSymbolTableRecord
100
AcDbLinetypeTableRecord
  2
CENTER_DASH_DASH
 70
     0
  3
Center_Dash_Dash
 72
    65
 73
     6
 40
14.0
 49
9.0
 74
     0
 49
-1.0
 74
     0
 49
1.0
 74
     0
 49
-1.0
 74
     0
 49
1.0
 74
     0
 49
-1.0
 74
     0
  0
ENDTAB
  0
TABLE
  2
LAYER
  5
2
330
0
100
AcDbSymbolTable
 70
     3
  0
LAYER
  5
10
330
2
100
AcDbSymbolTableRecord
100
AcDbLayerTableRecord
  2
0
 70
     0
 62
     7
  6
Continuous
370
    -3
390
F
  0
LAYER
  5
31
330
2
100
AcDbSymbolTableRecord
100
AcDbLayerTableRecord
  2
1
 70
     0
 62
     7
  6
Continuous
370
    -3
390
F
  0
LAYER
  5
32
330
2
100
AcDbSymbolTableRecord
100
AcDbLayerTableRecord
  2
DEFAULT_1
 70
     0
 62
     7
  6
Continuous
370
    -3
390
F
  0
ENDTAB
  0
TABLE
  2
STYLE
  5
3
330
0
100
AcDbSymbolTable
 70
     2
  0
STYLE
  5
11
330
3
100
AcDbSymbolTableRecord
100
AcDbTextStyleTableRecord
  2
Standard
 70
     0
 40
0.0
 41
1.0
 50
0.0
 71
     0
 42
0.2
  3
txt
  4

  0
STYLE
  5
164
330
3
100
AcDbSymbolTableRecord
100
AcDbTextStyleTableRecord
  2
CONVERTER_11
 70
     0
 40
0.0
 41
0.9
 50
0.0
 71
     0
 42
0.2
  3
txt.shx
  4

  0
ENDTAB
  0
TABLE
  2
VIEW
  5
6
330
0
100
AcDbSymbolTable
 70
     0
  0
ENDTAB
  0
TABLE
  2
UCS
  5
7
330
0
100
AcDbSymbolTable
 70
     0
  0
ENDTAB
  0
TABLE
  2
APPID
  5
9
330
0
100
AcDbSymbolTable
 70
     1
  0
APPID
  5
12
330
9
100
AcDbSymbolTableRecord
100
AcDbRegAppTableRecord
  2
ACAD
 70
     0
  0
ENDTAB
  0
TABLE
  2
DIMSTYLE
  5
A
330
0
100
AcDbSymbolTable
 70
     9
100
AcDbDimStyleTable
  0
DIMSTYLE
105
27
330
A
100
AcDbSymbolTableRecord
100
AcDbDimStyleTableRecord
  2
Standard
 70
     0
340
11
  0
DIMSTYLE
105
168
102
{ACAD_REACTORS
330
169
102
}
330
A
100
AcDbSymbolTableRecord
100
AcDbDimStyleTableRecord
  2
ME10_DIM_10
 70
     0
 41
3.5
 42
0.0
 44
2.0
 73
     0
 74
     0
 77
     1
 78
     8
140
3.5
147
2.0
172
     1
173
     1
176
     2
177
     2
178
     2
271
     3
340
164
  0
DIMSTYLE
105
173
102
{ACAD_REACTORS
330
174
102
}
330
A
100
AcDbSymbolTableRecord
100
AcDbDimStyleTableRecord
  2
ME10_DIM_11
 70
     0
 41
3.5
 42
0.0
 44
2.0
 73
     0
 74
     0
 77
     1
 78
     8
140
3.5
147
2.0
172
     1
173
     1
176
     2
177
     2
178
     2
271
     3
340
164
  0
DIMSTYLE
105
17E
102
{ACAD_REACTORS
330
17F
102
}
330
A
100
AcDbSymbolTableRecord
100
AcDbDimStyleTableRecord
  2
ME10_DIM_12
 70
     0
 41
3.5
 42
0.0
 44
2.0
 73
     0
 74
     0
 77
     1
 78
     8
140
3.5
147
2.0
172
     1
173
     1
176
     2
177
     2
178
     2
271
     3
340
164
  0
DIMSTYLE
105
18B
102
{ACAD_REACTORS
330
18C
102
}
330
A
100
AcDbSymbolTableRecord
100
AcDbDimStyleTableRecord
  2
ME10_DIM_13
 70
     0
 41
3.5
 42
0.0
 44
2.0
 73
     0
 74
     0
 77
     1
 78
     8
140
3.5
147
2.0
172
     1
173
     1
176
     2
177
     2
178
     2
271
     3
340
164
  0
DIMSTYLE
105
197
102
{ACAD_REACTORS
330
198
102
}
330
A
100
AcDbSymbolTableRecord
100
AcDbDimStyleTableRecord
  2
ME10_DIM_14
 70
     0
 41
3.5
 42
0.0
 44
2.0
 73
     0
 74
     0
 77
     1
 78
     8
140
3.5
147
2.0
172
     1
173
     1
176
     2
177
     2
178
     2
271
     3
340
164
  0
DIMSTYLE
105
1A4
102
{ACAD_REACTORS
330
1A5
102
}
330
A
100
AcDbSymbolTableRecord
100
AcDbDimStyleTableRecord
  2
ME10_DIM_15
 70
     0
 41
3.5
 42
0.0
 44
2.0
 73
     0
 74
     0
 77
     1
 78
     8
140
3.5
147
2.0
172
     1
173
     1
176
     2
177
     2
178
     2
271
     3
340
164
  0
DIMSTYLE
105
1AF
102
{ACAD_REACTORS
330
1B0
102
}
330
A
100
AcDbSymbolTableRecord
100
AcDbDimStyleTableRecord
  2
ME10_DIM_16
 70
     0
 41
3.5
 42
0.0
 44
2.0
 73
     0
 74
     0
 77
     1
 78
     8
140
3.5
147
2.0
172
     1
173
     1
176
     2
177
     2
178
     2
271
     3
340
164
  0
DIMSTYLE
105
1BC
102
{ACAD_REACTORS
330
1BD
102
}
330
A
100
AcDbSymbolTableRecord
100
AcDbDimStyleTableRecord
  2
ME10_DIM_17
 70
     0
 41
3.5
 42
0.0
 44
2.0
 73
     0
 74
     0
 77
     1
 78
     8
140
3.5
147
2.0
172
     1
173
     1
176
     2
177
     2
178
     2
271
     3
340
164
  0
ENDTAB
  0
TABLE
  2
BLOCK_RECORD
  5
1
330
0
100
AcDbSymbolTable
 70
     9
  0
BLOCK_RECORD
  5
1F
330
1
100
AcDbSymbolTableRecord
100
AcDbBlockTableRecord
  2
*Model_Space
340
22
  0
BLOCK_RECORD
  5
1B
330
1
100
AcDbSymbolTableRecord
100
AcDbBlockTableRecord
  2
*Paper_Space
340
1E
  0
BLOCK_RECORD
  5
23
330
1
100
AcDbSymbolTableRecord
100
AcDbBlockTableRecord
  2
*Paper_Space0
340
26
  0
BLOCK_RECORD
  5
15D
330
1
100
AcDbSymbolTableRecord
100
AcDbBlockTableRecord
  2
*D1
340
0
  0
BLOCK_RECORD
  5
16A
330
1
100
AcDbSymbolTableRecord
100
AcDbBlockTableRecord
  2
*D2
340
0
  0
BLOCK_RECORD
  5
175
330
1
100
AcDbSymbolTableRecord
100
AcDbBlockTableRecord
  2
*D3
340
0
  0
BLOCK_RECORD
  5
180
330
1
100
AcDbSymbolTableRecord
100
AcDbBlockTableRecord
  2
*D4
340
0
  0
BLOCK_RECORD
  5
18D
330
1
100
AcDbSymbolTableRecord
100
AcDbBlockTableRecord
  2
*D5
340
0
  0
BLOCK_RECORD
  5
199
330
1
100
AcDbSymbolTableRecord
100
AcDbBlockTableRecord
  2
*D6
340
0
  0
BLOCK_RECORD
  5
1A6
330
1
100
AcDbSymbolTableRecord
100
AcDbBlockTableRecord
  2
*D7
340
0
  0
BLOCK_RECORD
  5
1B1
330
1
100
AcDbSymbolTableRecord
100
AcDbBlockTableRecord
  2
*D8
340
0
  0
ENDTAB
  0
ENDSEC
  0
SECTION
  2
BLOCKS
  0
BLOCK
  5
20
330
1F
100
AcDbEntity
  8
0
100
AcDbBlockBegin
  2
*Model_Space
 70
     0
 71
     0
 10
0.0
 20
0.0
 30
0.0
  3
*Model_Space
  1

  0
ENDBLK
  5
21
330
1F
100
AcDbEntity
  8
0
100
AcDbBlockEnd
  0
BLOCK
  5
1C
330
1B
100
AcDbEntity
 67
     1
  8
0
100
AcDbBlockBegin
  2
*Paper_Space
 70
     0
 71
     0
 10
0.0
 20
0.0
 30
0.0
  3
*Paper_Space
  1

  0
ENDBLK
  5
1D
330
1B
100
AcDbEntity
 67
     1
  8
0
100
AcDbBlockEnd
  0
BLOCK
  5
24
330
23
100
AcDbEntity
  8
0
100
AcDbBlockBegin
  2
*Paper_Space0
 70
     0
 71
     0
 10
0.0
 20
0.0
 30
0.0
  3
*Paper_Space0
  1

  0
ENDBLK
  5
25
330
23
100
AcDbEntity
  8
0
100
AcDbBlockEnd
  0
BLOCK
  5
166
330
15D
100
AcDbEntity
  8
0
100
AcDbBlockBegin
  2
*D1
 70
     1
 71
     0
 10
0.0
 20
0.0
 30
0.0
  3
*D1
  1

  0
LINE
  5
15E
330
15D
100
AcDbEntity
  8
1
  6
Continuous
 62
     2
100
AcDbLine
 10
415.1616483887773
 20
-27.1550506699423
 30
0.0
 11
441.8616483887772
 21
-27.1550506699423
 31
0.0
  0
LINE
  5
15F
330
15D
100
AcDbEntity
  8
1
  6
Continuous
 62
     2
100
AcDbLine
 10
415.1616483887773
 20
-2.30188622121105
 30
0.0
 11
415.1616483887773
 21
-29.1550506699423
 31
0.0
  0
LINE
  5
160
330
15D
100
AcDbEntity
  8
1
  6
Continuous
 62
     2
100
AcDbLine
 10
441.8616483887772
 20
5.69811377878891
 30
0.0
 11
441.8616483887772
 21
-1.2558750115393
 31
0.0
  0
LINE
  5
161
330
15D
100
AcDbEntity
  8
1
  6
Continuous
 62
     2
100
AcDbLine
 10
441.8616483887772
 20
-4.07617969858684
 30
0.0
 11
441.8616483887772
 21
-29.1550506699423
 31
0.0
  0
SOLID
  5
162
330
15D
100
AcDbEntity
  8
1
 62
     2
100
AcDbTrace
 10
418.6616483887773
 20
-26.69426692838642
 30
0.0
 11
418.6616483887773
 21
-27.61583441149819
 31
0.0
 12
415.1616483887773
 22
-27.1550506699423
 32
0.0
 13
415.1616483887773
 23
-27.1550506699423
 33
0.0
  0
SOLID
  5
163
330
15D
100
AcDbEntity
  8
1
 62
     2
100
AcDbTrace
 10
438.3616483887772
 20
-27.61583441149819
 30
0.0
 11
438.3616483887772
 21
-26.69426692838642
 31
0.0
 12
441.8616483887772
 22
-27.1550506699423
 32
0.0
 13
441.8616483887772
 23
-27.1550506699423
 33
0.0
  0
MTEXT
  5
165
330
15D
100
AcDbEntity
  8
1
 62
     2
100
AcDbMText
 10
424.836448658871
 20
-25.1550506699423
 30
0.0
 40
3.5
 41
0.0
 71
     7
 72
     1
  1
27
  7
CONVERTER_11
 11
0.9999999999970621
 21
2.424068405545307E-6
 31
0.0
 73
     1
 44
0.60024009603842
  0
ENDBLK
  5
167
330
15D
100
AcDbEntity
  8
0
100
AcDbBlockEnd
  0
BLOCK
  5
171
330
16A
100
AcDbEntity
  8
0
100
AcDbBlockBegin
  2
*D2
 70
     1
 71
     0
 10
0.0
 20
0.0
 30
0.0
  3
*D2
  1

  0
LINE
  5
16B
330
16A
100
AcDbEntity
  8
1
  6
Continuous
 62
     2
100
AcDbLine
 10
388.1616483887772
 20
-27.1550506699423
 30
0.0
 11
412.1616483887772
 21
-27.1550506699423
 31
0.0
  0
LINE
  5
16C
330
16A
100
AcDbEntity
  8
1
  6
Continuous
 62
     2
100
AcDbLine
 10
388.1616483887772
 20
2.3452888937889
 30
0.0
 11
388.1616483887772
 21
-29.1550506699423
 31
0.0
  0
LINE
  5
16D
330
16A
100
AcDbEntity
  8
1
  6
Continuous
 62
     2
100
AcDbLine
 10
412.1616483887772
 20
-3.2518862212111
 30
0.0
 11
412.1616483887772
 21
-29.1550506699423
 31
0.0
  0
SOLID
  5
16E
330
16A
100
AcDbEntity
  8
1
 62
     2
100
AcDbTrace
 10
391.6616483887772
 20
-26.69426692838642
 30
0.0
 11
391.6616483887772
 21
-27.61583441149819
 31
0.0
 12
388.1616483887772
 22
-27.1550506699423
 32
0.0
 13
388.1616483887772
 23
-27.1550506699423
 33
0.0
  0
SOLID
  5
16F
330
16A
100
AcDbEntity
  8
1
 62
     2
100
AcDbTrace
 10
408.6616483887772
 20
-27.61583441149819
 30
0.0
 11
408.6616483887772
 21
-26.69426692838642
 31
0.0
 12
412.1616483887772
 22
-27.1550506699423
 32
0.0
 13
412.1616483887772
 23
-27.1550506699423
 33
0.0
  0
MTEXT
  5
170
330
16A
100
AcDbEntity
  8
1
 62
     2
100
AcDbMText
 10
399.582287733311
 20
-25.1550506699423
 30
0.0
 40
3.5
 41
0.0
 71
     7
 72
     1
  1
24
  7
CONVERTER_11
 11
0.9999999999970621
 21
2.424068405545307E-6
 31
0.0
 73
     1
 44
0.60024009603842
  0
ENDBLK
  5
172
330
16A
100
AcDbEntity
  8
0
100
AcDbBlockEnd
  0
BLOCK
  5
17C
330
175
100
AcDbEntity
  8
0
100
AcDbBlockBegin
  2
*D3
 70
     1
 71
     0
 10
0.0
 20
0.0
 30
0.0
  3
*D3
  1

  0
LINE
  5
176
330
175
100
AcDbEntity
  8
1
  6
Continuous
 62
     2
100
AcDbLine
 10
469.993503543405
 20
15.69811377878891
 30
0.0
 11
469.993503543405
 21
-0.30188622121109
 31
0.0
  0
LINE
  5
177
330
175
100
AcDbEntity
  8
1
  6
Continuous
 62
     2
100
AcDbLine
 10
434.8616483887772
 20
-0.30188622121109
 30
0.0
 11
471.993503543405
 21
-0.30188622121109
 31
0.0
  0
LINE
  5
178
330
175
100
AcDbEntity
  8
1
  6
Continuous
 62
     2
100
AcDbLine
 10
434.8616483887772
 20
15.69811377878891
 30
0.0
 11
471.993503543405
 21
15.69811377878891
 31
0.0
  0
SOLID
  5
179
330
175
100
AcDbEntity
  8
1
 62
     2
100
AcDbTrace
 10
470.4542872849609
 20
12.19811377878891
 30
0.0
 11
469.5327198018491
 21
12.19811377878891
 31
0.0
 12
469.993503543405
 22
15.69811377878891
 32
0.0
 13
469.993503543405
 23
15.69811377878891
 33
0.0
  0
SOLID
  5
17A
330
175
100
AcDbEntity
  8
1
 62
     2
100
AcDbTrace
 10
469.5327198018491
 20
3.19811377878891
 30
0.0
 11
470.4542872849609
 21
3.19811377878891
 31
0.0
 12
469.993503543405
 22
-0.30188622121109
 32
0.0
 13
469.993503543405
 23
-0.30188622121109
 33
0.0
  0
MTEXT
  5
17B
330
175
100
AcDbEntity
  8
1
 62
     2
100
AcDbMText
 10
467.993503543405
 20
5.37583277878891
 30
0.0
 40
3.5
 41
0.0
 71
     7
 72
     1
  1
16
  7
CONVERTER_11
 11
0.0
 21
1.0
 31
0.0
 73
     1
 44
0.60024009603842
  0
ENDBLK
  5
17D
330
175
100
AcDbEntity
  8
0
100
AcDbBlockEnd
  0
BLOCK
  5
189
330
180
100
AcDbEntity
  8
0
100
AcDbBlockBegin
  2
*D4
 70
     1
 71
     0
 10
0.0
 20
0.0
 30
0.0
  3
*D4
  1

  0
LINE
  5
181
330
180
100
AcDbEntity
  8
1
  6
Continuous
 62
     2
100
AcDbLine
 10
479.834030863908
 20
-13.3018862212111
 30
0.0
 11
479.834030863908
 21
-6.30188622121109
 31
0.0
  0
LINE
  5
182
330
180
100
AcDbEntity
  8
1
  6
Continuous
 62
     2
100
AcDbLine
 10
479.834030863908
 20
-6.30188622121109
 30
0.0
 11
479.834030863908
 21
-2.30188622121109
 31
0.0
  0
LINE
  5
183
330
180
100
AcDbEntity
  8
1
  6
Continuous
 62
     2
100
AcDbLine
 10
479.834030863908
 20
-2.30188622121109
 30
0.0
 11
479.834030863908
 21
4.69811377878891
 31
0.0
  0
LINE
  5
184
330
180
100
AcDbEntity
  8
1
  6
Continuous
 62
     2
100
AcDbLine
 10
425.1616483887772
 20
-2.30188622121109
 30
0.0
 11
481.834030863908
 21
-2.30188622121109
 31
0.0
  0
LINE
  5
185
330
180
100
AcDbEntity
  8
1
  6
Continuous
 62
     2
100
AcDbLine
 10
460.1616483887774
 20
-6.30188622121109
 30
0.0
 11
481.834030863908
 21
-6.30188622121109
 31
0.0
  0
SOLID
  5
186
330
180
100
AcDbEntity
  8
1
 62
     2
100
AcDbTrace
 10
480.2948146054639
 20
-9.8018862212111
 30
0.0
 11
479.3732471223522
 21
-9.8018862212111
 31
0.0
 12
479.834030863908
 22
-6.30188622121109
 32
0.0
 13
479.834030863908
 23
-6.30188622121109
 33
0.0
  0
SOLID
  5
187
330
180
100
AcDbEntity
  8
1
 62
     2
100
AcDbTrace
 10
479.3732471223522
 20
1.19811377878891
 30
0.0
 11
480.2948146054639
 21
1.19811377878891
 31
0.0
 12
479.834030863908
 22
-2.30188622121109
 32
0.0
 13
479.834030863908
 23
-2.30188622121109
 33
0.0
  0
MTEXT
  5
188
330
180
100
AcDbEntity
  8
1
 62
     2
100
AcDbMText
 10
477.834030863908
 20
-10.1389444850404
 30
0.0
 40
3.5
 41
0.0
 71
     7
 72
     1
  1
4
  7
CONVERTER_11
 11
0.0
 21
1.0
 31
0.0
 73
     1
 44
0.60024009603842
  0
ENDBLK
  5
18A
330
180
100
AcDbEntity
  8
0
100
AcDbBlockEnd
  0
BLOCK
  5
195
330
18D
100
AcDbEntity
  8
0
100
AcDbBlockBegin
  2
*D5
 70
     1
 71
     0
 10
0.0
 20
0.0
 30
0.0
  3
*D5
  1

  0
LINE
  5
18E
330
18D
100
AcDbEntity
  8
1
  6
Continuous
 62
     2
100
AcDbLine
 10
479.834030863908
 20
-2.3018862212111
 30
0.0
 11
479.834030863908
 21
15.69811377878891
 31
0.0
  0
LINE
  5
18F
330
18D
100
AcDbEntity
  8
1
  6
Continuous
 62
     2
100
AcDbLine
 10
434.8616483887772
 20
15.69811377878891
 30
0.0
 11
481.834030863908
 21
15.69811377878891
 31
0.0
  0
LINE
  5
190
330
18D
100
AcDbEntity
  8
1
  6
Continuous
 62
     2
100
AcDbLine
 10
425.1616483887772
 20
-2.3018862212111
 30
0.0
 11
449.100203502698
 21
-2.3018862212111
 31
0.0
  0
LINE
  5
191
330
18D
100
AcDbEntity
  8
1
  6
Continuous
 62
     2
100
AcDbLine
 10
453.506069605773
 20
-2.3018862212111
 30
0.0
 11
481.834030863908
 21
-2.3018862212111
 31
0.0
  0
SOLID
  5
192
330
18D
100
AcDbEntity
  8
1
 62
     2
100
AcDbTrace
 10
479.3732471223522
 20
1.1981137787889
 30
0.0
 11
480.2948146054639
 21
1.1981137787889
 31
0.0
 12
479.834030863908
 22
-2.3018862212111
 32
0.0
 13
479.834030863908
 23
-2.3018862212111
 33
0.0
  0
SOLID
  5
193
330
18D
100
AcDbEntity
  8
1
 62
     2
100
AcDbTrace
 10
480.2948146054639
 20
12.19811377878891
 30
0.0
 11
479.3732471223522
 21
12.19811377878891
 31
0.0
 12
479.834030863908
 22
15.69811377878891
 32
0.0
 13
479.834030863908
 23
15.69811377878891
 33
0.0
  0
MTEXT
  5
194
330
18D
100
AcDbEntity
  8
1
 62
     2
100
AcDbMText
 10
477.834030863908
 20
3.64600727190575
 30
0.0
 40
3.5
 41
0.0
 71
     7
 72
     1
  1
18
  7
CONVERTER_11
 11
0.0
 21
1.0
 31
0.0
 73
     1
 44
0.60024009603842
  0
ENDBLK
  5
196
330
18D
100
AcDbEntity
  8
0
100
AcDbBlockEnd
  0
BLOCK
  5
1A2
330
199
100
AcDbEntity
  8
0
100
AcDbBlockBegin
  2
*D6
 70
     1
 71
     0
 10
0.0
 20
0.0
 30
0.0
  3
*D6
  1

  0
LINE
  5
19A
330
199
100
AcDbEntity
  8
1
  6
Continuous
 62
     2
100
AcDbLine
 10
372.774330163835
 20
-15.3018862212112
 30
0.0
 11
372.774330163835
 21
-8.3018862212112
 31
0.0
  0
LINE
  5
19B
330
199
100
AcDbEntity
  8
1
  6
Continuous
 62
     2
100
AcDbLine
 10
372.774330163835
 20
-8.3018862212112
 30
0.0
 11
372.774330163835
 21
-3.3018862212111
 31
0.0
  0
LINE
  5
19C
330
199
100
AcDbEntity
  8
1
  6
Continuous
 62
     2
100
AcDbLine
 10
372.774330163835
 20
-3.3018862212111
 30
0.0
 11
372.774330163835
 21
3.6981137787889
 31
0.0
  0
LINE
  5
19D
330
199
100
AcDbEntity
  8
1
  6
Continuous
 62
     2
100
AcDbLine
 10
402.1616483887772
 20
-3.3018862212111
 30
0.0
 11
370.774330163835
 21
-3.3018862212111
 31
0.0
  0
LINE
  5
19E
330
199
100
AcDbEntity
  8
1
  6
Continuous
 62
     2
100
AcDbLine
 10
384.6616483887769
 20
-8.3018862212112
 30
0.0
 11
370.774330163835
 21
-8.3018862212112
 31
0.0
  0
SOLID
  5
19F
330
199
100
AcDbEntity
  8
1
 62
     2
100
AcDbTrace
 10
373.2351139053908
 20
-11.8018862212112
 30
0.0
 11
372.3135464222791
 21
-11.8018862212112
 31
0.0
 12
372.774330163835
 22
-8.3018862212112
 32
0.0
 13
372.774330163835
 23
-8.3018862212112
 33
0.0
  0
SOLID
  5
1A0
330
199
100
AcDbEntity
  8
1
 62
     2
100
AcDbTrace
 10
372.3135464222791
 20
0.1981137787889
 30
0.0
 11
373.2351139053908
 21
0.1981137787889
 31
0.0
 12
372.774330163835
 22
-3.3018862212111
 32
0.0
 13
372.774330163835
 23
-3.3018862212111
 33
0.0
  0
MTEXT
  5
1A1
330
199
100
AcDbEntity
  8
1
 62
     2
100
AcDbMText
 10
370.774330163835
 20
-12.13894448504042
 30
0.0
 40
3.5
 41
0.0
 71
     7
 72
     1
  1
5
  7
CONVERTER_11
 11
0.0
 21
1.0
 31
0.0
 73
     1
 44
0.60024009603842
  0
ENDBLK
  5
1A3
330
199
100
AcDbEntity
  8
0
100
AcDbBlockEnd
  0
BLOCK
  5
1AD
330
1A6
100
AcDbEntity
  8
0
100
AcDbBlockBegin
  2
*D7
 70
     1
 71
     0
 10
0.0
 20
0.0
 30
0.0
  3
*D7
  1

  0
LINE
  5
1A7
330
1A6
100
AcDbEntity
  8
1
  6
Continuous
 62
     2
100
AcDbLine
 10
372.774330163835
 20
-3.3018862212111
 30
0.0
 11
372.774330163835
 21
17.69811377878891
 31
0.0
  0
LINE
  5
1A8
330
1A6
100
AcDbEntity
  8
1
  6
Continuous
 62
     2
100
AcDbLine
 10
394.6266849827772
 20
17.6981137787889
 30
0.0
 11
370.774330163835
 21
17.6981137787889
 31
0.0
  0
LINE
  5
1A9
330
1A6
100
AcDbEntity
  8
1
  6
Continuous
 62
     2
100
AcDbLine
 10
402.1616483887772
 20
-3.3018862212111
 30
0.0
 11
370.774330163835
 21
-3.3018862212111
 31
0.0
  0
SOLID
  5
1AA
330
1A6
100
AcDbEntity
  8
1
 62
     2
100
AcDbTrace
 10
372.3135464222791
 20
0.1981137787889
 30
0.0
 11
373.2351139053908
 21
0.1981137787889
 31
0.0
 12
372.774330163835
 22
-3.3018862212111
 32
0.0
 13
372.774330163835
 23
-3.3018862212111
 33
0.0
  0
SOLID
  5
1AB
330
1A6
100
AcDbEntity
  8
1
 62
     2
100
AcDbTrace
 10
373.2351139053908
 20
14.19811377878891
 30
0.0
 11
372.3135464222791
 21
14.19811377878891
 31
0.0
 12
372.774330163835
 22
17.69811377878891
 32
0.0
 13
372.774330163835
 23
17.69811377878891
 33
0.0
  0
MTEXT
  5
1AC
330
1A6
100
AcDbEntity
  8
1
 62
     2
100
AcDbMText
 10
370.774330163835
 20
5.71917132692653
 30
0.0
 40
3.5
 41
0.0
 71
     7
 72
     1
  1
21
  7
CONVERTER_11
 11
0.0
 21
1.0
 31
0.0
 73
     1
 44
0.60024009603842
  0
ENDBLK
  5
1AE
330
1A6
100
AcDbEntity
  8
0
100
AcDbBlockEnd
  0
BLOCK
  5
1BA
330
1B1
100
AcDbEntity
  8
0
100
AcDbBlockBegin
  2
*D8
 70
     1
 71
     0
 10
0.0
 20
0.0
 30
0.0
  3
*D8
  1

  0
LINE
  5
1B2
330
1B1
100
AcDbEntity
  8
1
  6
Continuous
 62
     2
100
AcDbLine
 10
405.1616483887776
 20
-17.24546376525274
 30
0.0
 11
412.1616483887776
 21
-17.24546376525274
 31
0.0
  0
LINE
  5
1B3
330
1B1
100
AcDbEntity
  8
1
  6
Continuous
 62
     2
100
AcDbLine
 10
412.1616483887776
 20
-17.24546376525274
 30
0.0
 11
415.1616483887771
 21
-17.24546376525274
 31
0.0
  0
LINE
  5
1B4
330
1B1
100
AcDbEntity
  8
1
  6
Continuous
 62
     2
100
AcDbLine
 10
415.1616483887771
 20
-17.24546376525274
 30
0.0
 11
422.1616483887771
 21
-17.24546376525274
 31
0.0
  0
LINE
  5
1B5
330
1B1
100
AcDbEntity
  8
1
  6
Continuous
 62
     2
100
AcDbLine
 10
415.1616483887771
 20
-6.30188622121109
 30
0.0
 11
415.1616483887771
 21
-19.24546376525274
 31
0.0
  0
LINE
  5
1B6
330
1B1
100
AcDbEntity
  8
1
  6
Continuous
 62
     2
100
AcDbLine
 10
412.1616483887776
 20
-5.80188622121111
 30
0.0
 11
412.1616483887776
 21
-19.24546376525274
 31
0.0
  0
SOLID
  5
1B7
330
1B1
100
AcDbEntity
  8
1
 62
     2
100
AcDbTrace
 10
408.6616483887776
 20
-17.70624750680863
 30
0.0
 11
408.6616483887776
 21
-16.78468002369685
 31
0.0
 12
412.1616483887776
 22
-17.24546376525274
 32
0.0
 13
412.1616483887776
 23
-17.24546376525274
 33
0.0
  0
SOLID
  5
1B8
330
1B1
100
AcDbEntity
  8
1
 62
     2
100
AcDbTrace
 10
418.6616483887771
 20
-16.78468002369685
 30
0.0
 11
418.6616483887771
 21
-17.70624750680863
 31
0.0
 12
415.1616483887771
 22
-17.24546376525274
 32
0.0
 13
415.1616483887771
 23
-17.24546376525274
 33
0.0
  0
MTEXT
  5
1B9
330
1B1
100
AcDbEntity
  8
1
 62
     2
100
AcDbMText
 10
406.7238618538805
 20
-15.24546376525274
 30
0.0
 40
3.5
 41
0.0
 71
     7
 72
     1
  1
3
  7
CONVERTER_11
 11
0.9999999999970621
 21
2.424068405545307E-6
 31
0.0
 73
     1
 44
0.60024009603842
  0
ENDBLK
  5
1BB
330
1B1
100
AcDbEntity
  8
0
100
AcDbBlockEnd
  0
ENDSEC
  0
SECTION
  2
ENTITIES
  0
POINT
  5
33
330
1F
100
AcDbEntity
  8
1
 62
     3
 60
     1
100
AcDbPoint
 10
460.1616483887774
 20
33.69811377878892
 30
0.0
  0
POINT
  5
34
330
1F
100
AcDbEntity
  8
1
 62
     3
 60
     1
100
AcDbPoint
 10
412.1616483887772
 20
-3.2518862212111
 30
0.0
  0
POINT
  5
35
330
1F
100
AcDbEntity
  8
1
 62
     3
 60
     1
100
AcDbPoint
 10
405.6656284363742
 20
4.05601198925392
 30
0.0
  0
POINT
  5
36
330
1F
100
AcDbEntity
  8
1
 62
     3
 60
     1
100
AcDbPoint
 10
401.1562563216772
 20
26.63512154058891
 30
0.0
  0
POINT
  5
37
330
1F
100
AcDbEntity
  8
1
 62
     3
 60
     1
100
AcDbPoint
 10
396.8566374283842
 20
10.21367512523191
 30
0.0
  0
POINT
  5
38
330
1F
100
AcDbEntity
  8
1
 62
     3
 60
     1
100
AcDbPoint
 10
393.0863550522323
 20
11.5979505039849
 30
0.0
  0
POINT
  5
39
330
1F
100
AcDbEntity
  8
1
 62
     3
 60
     1
100
AcDbPoint
 10
421.6576683411802
 20
4.05601198925392
 30
0.0
  0
POINT
  5
3A
330
1F
100
AcDbEntity
  8
1
 62
     3
 60
     1
100
AcDbPoint
 10
434.2369417253222
 20
11.5979505039849
 30
0.0
  0
POINT
  5
3B
330
1F
100
AcDbEntity
  8
1
 62
     3
 60
     1
100
AcDbPoint
 10
430.4666593491702
 20
10.21367512523191
 30
0.0
  0
POINT
  5
3C
330
1F
100
AcDbEntity
  8
1
 62
     3
 60
     1
100
AcDbPoint
 10
406.8308052022982
 20
10.30184177622091
 30
0.0
  0
POINT
  5
3D
330
1F
100
AcDbEntity
  8
1
 62
     3
 60
     1
100
AcDbPoint
 10
411.8616484446392
 20
15.29811370430991
 30
0.0
  0
POINT
  5
3E
330
1F
100
AcDbEntity
  8
1
 62
     3
 60
     1
100
AcDbPoint
 10
408.6079740130144
 20
12.08205671672951
 30
0.0
  0
POINT
  5
3F
330
1F
100
AcDbEntity
  8
1
 62
     3
 60
     1
100
AcDbPoint
 10
393.4869839119803
 20
11.4913807310627
 30
0.0
  0
POINT
  5
40
330
1F
100
AcDbEntity
  8
1
 62
     3
 60
     1
100
AcDbPoint
 10
407.3059352381593
 20
9.78232178222521
 30
0.0
  0
POINT
  5
41
330
1F
100
AcDbEntity
  8
1
 62
     3
 60
     1
100
AcDbPoint
 10
411.4926830599069
 20
14.97170891819101
 30
0.0
  0
POINT
  5
42
330
1F
100
AcDbEntity
  8
1
 62
     3
 60
     1
100
AcDbPoint
 10
418.7153227645401
 20
12.08205671672951
 30
0.0
  0
POINT
  5
43
330
1F
100
AcDbEntity
  8
1
 62
     3
 60
     1
100
AcDbPoint
 10
420.017361539395
 20
9.78232178222521
 30
0.0
  0
POINT
  5
44
330
1F
100
AcDbEntity
  8
1
 62
     3
 60
     1
100
AcDbPoint
 10
420.4924915752562
 20
10.30184177622091
 30
0.0
  0
POINT
  5
45
330
1F
100
AcDbEntity
  8
1
 62
     3
 60
     1
100
AcDbPoint
 10
433.8363128655741
 20
11.4913807310627
 30
0.0
  0
POINT
  5
46
330
1F
100
AcDbEntity
  8
1
 62
     3
 60
     1
100
AcDbPoint
 10
413.6616483887772
 20
12.1556137787889
 30
0.0
  0
POINT
  5
47
330
1F
100
AcDbEntity
  8
1
 62
     3
 60
     1
100
AcDbPoint
 10
384.6616483887772
 20
17.99811377878879
 30
0.0
  0
LINE
  5
48
330
1F
100
AcDbEntity
  8
1
  6
Continuous
 62
     7
100
AcDbLine
 10
415.1616483887774
 20
33.69811377878892
 30
0.0
 11
415.1616483887774
 21
15.49618999014239
 31
0.0
  0
LINE
  5
49
330
1F
100
AcDbEntity
  8
1
  6
PHANTOM
 62
     2
100
AcDbLine
 10
460.1616483887774
 20
33.69811377878892
 30
0.0
 11
460.1616483887774
 21
36.52366046505175
 31
0.0
  0
LINE
  5
4A
330
1F
100
AcDbEntity
  8
1
  6
Continuous
 62
     7
100
AcDbLine
 10
415.1616483887774
 20
33.69811377878892
 30
0.0
 11
460.1616483887774
 21
33.69811377878892
 31
0.0
  0
LINE
  5
4B
330
1F
100
AcDbEntity
  8
1
  6
PHANTOM
 62
     2
100
AcDbLine
 10
460.1616483887774
 20
-9.07761682831456
 30
0.0
 11
460.1616483887774
 21
-6.30188622121109
 31
0.0
  0
LINE
  5
4C
330
1F
100
AcDbEntity
  8
1
  6
PHANTOM
 62
     2
100
AcDbLine
 10
460.1616483887774
 20
-6.30188622121109
 30
0.0
 11
460.1616483887774
 21
33.69811377878892
 31
0.0
  0
LINE
  5
4D
330
1F
100
AcDbEntity
  8
1
  6
Continuous
 62
     7
100
AcDbLine
 10
415.1616483887772
 20
-6.30188622121109
 30
0.0
 11
415.1616483887773
 21
-2.30188622121105
 31
0.0
  0
LINE
  5
4E
330
1F
100
AcDbEntity
  8
1
  6
Continuous
 62
     7
100
AcDbLine
 10
460.1616483887774
 20
-6.30188622121109
 30
0.0
 11
415.1616483887772
 21
-6.30188622121109
 31
0.0
  0
LINE
  5
4F
330
1F
100
AcDbEntity
  8
1
  6
Continuous
 62
     7
100
AcDbLine
 10
415.1616483887773
 20
-2.30188622121105
 30
0.0
 11
415.1616483887774
 21
8.74900336110082
 31
0.0
  0
LINE
  5
50
330
1F
100
AcDbEntity
  8
1
  6
Continuous
 62
     7
100
AcDbLine
 10
412.1616483887776
 20
-5.80188622121111
 30
0.0
 11
412.1616483887772
 21
-3.2518862212111
 31
0.0
  0
LINE
  5
51
330
1F
100
AcDbEntity
  8
1
  6
Continuous
 62
     7
100
AcDbLine
 10
410.6616483887776
 20
-5.80188622121111
 30
0.0
 11
410.6616483887772
 21
-3.30188622121109
 31
0.0
  0
LINE
  5
52
330
1F
100
AcDbEntity
  8
1
  6
Continuous
 62
     7
100
AcDbLine
 10
410.6616483887772
 20
17.69811377878891
 30
0.0
 11
410.6616483887772
 21
17.9481137787889
 31
0.0
  0
LINE
  5
53
330
1F
100
AcDbEntity
  8
1
  6
Continuous
 62
     7
100
AcDbLine
 10
410.6616483887772
 20
17.9481137787889
 30
0.0
 11
410.6616483887776
 21
50.69811377878852
 31
0.0
  0
LINE
  5
54
330
1F
100
AcDbEntity
  8
1
  6
Continuous
 62
     7
100
AcDbLine
 10
412.1616483887776
 20
17.94811377878892
 30
0.0
 11
412.1616483887776
 21
17.69811377878881
 31
0.0
  0
LINE
  5
55
330
1F
100
AcDbEntity
  8
1
  6
Continuous
 62
     7
100
AcDbLine
 10
425.6616483887776
 20
39.6981137787885
 30
0.0
 11
425.6616483887776
 21
60.29081661648903
 31
0.0
  0
LINE
  5
56
330
1F
100
AcDbEntity
  8
1
  6
Continuous
 62
     7
100
AcDbLine
 10
427.1616483887776
 20
39.1981137787885
 30
0.0
 11
427.1616483887776
 21
60.29081661648903
 31
0.0
  0
LINE
  5
57
330
1F
100
AcDbEntity
  8
1
  6
Continuous
 62
     7
100
AcDbLine
 10
423.1507850366399
 20
37.1981137787885
 30
0.0
 11
425.1616483887775
 21
37.19811377878847
 31
0.0
  0
LINE
  5
58
330
1F
100
AcDbEntity
  8
1
  6
Continuous
 62
     7
100
AcDbLine
 10
423.8023977230605
 20
38.6981137787885
 30
0.0
 11
424.6616483887776
 21
38.6981137787885
 31
0.0
  0
LINE
  5
59
330
1F
100
AcDbEntity
  8
1
  6
Continuous
 62
     7
100
AcDbLine
 10
425.6105371282113
 20
50.30988521113469
 30
0.0
 11
422.8364718967714
 21
39.95693282389107
 31
0.0
  0
LINE
  5
5A
330
1F
100
AcDbEntity
  8
1
  6
Continuous
 62
     7
100
AcDbLine
 10
412.1616483887776
 20
52.19811377878857
 30
0.0
 11
424.1616483887776
 21
52.1981137787885
 31
0.0
  0
LINE
  5
5B
330
1F
100
AcDbEntity
  8
1
  6
Continuous
 62
     7
100
AcDbLine
 10
423.9929986155016
 20
50.06870425623723
 30
0.0
 11
423.1497497491213
 21
46.92165664348094
 31
0.0
  0
LINE
  5
5C
330
1F
100
AcDbEntity
  8
1
  6
Continuous
 62
     7
100
AcDbLine
 10
412.6616483887776
 20
50.6981137787885
 30
0.0
 11
415.1616483887776
 21
50.6981137787885
 31
0.0
  0
LINE
  5
5D
330
1F
100
AcDbEntity
  8
1
  6
Continuous
 62
     7
100
AcDbLine
 10
412.1616483887776
 20
36.19811377878857
 30
0.0
 11
412.1616483887776
 21
47.6981137787885
 31
0.0
  0
LINE
  5
5E
330
1F
100
AcDbEntity
  8
1
  6
Continuous
 62
     7
100
AcDbLine
 10
414.1616483887776
 20
33.69811377878892
 30
0.0
 11
421.96756908002
 21
33.69811377878873
 31
0.0
  0
LINE
  5
5F
330
1F
100
AcDbEntity
  8
1
  6
Continuous
 62
     7
100
AcDbLine
 10
415.1616483887776
 20
50.6981137787885
 30
0.0
 11
420.2519722702541
 21
50.69811377878875
 31
0.0
  0
LINE
  5
60
330
1F
100
AcDbEntity
  8
1
  6
Continuous
 62
     7
100
AcDbLine
 10
412.1616483887776
 20
47.6981137787885
 30
0.0
 11
412.1616483887776
 21
50.1981137787885
 31
0.0
  0
LINE
  5
61
330
1F
100
AcDbEntity
  8
1
  6
Continuous
 62
     7
100
AcDbLine
 10
420.2519722702541
 20
50.69811377878875
 30
0.0
 11
423.5100357023571
 21
50.6981137787885
 31
0.0
  0
LINE
  5
62
330
1F
100
AcDbEntity
  8
1
  6
Continuous
 62
     7
100
AcDbLine
 10
423.1497497491213
 20
46.92165664348094
 30
0.0
 11
421.2189333840619
 21
39.71575186899353
 31
0.0
  0
LINE
  5
63
330
1F
100
AcDbEntity
  8
1
  6
Continuous
 62
     7
100
AcDbLine
 10
414.1616483887776
 20
34.69811377878898
 30
0.0
 11
421.96756908002
 21
34.69811377878873
 31
0.0
  0
LINE
  5
64
330
1F
100
AcDbEntity
  8
1
  6
Continuous
 62
     7
100
AcDbLine
 10
413.1616483887776
 20
35.69811377878873
 30
0.0
 11
413.1616483887776
 21
47.6981137787885
 31
0.0
  0
LINE
  5
65
330
1F
100
AcDbEntity
  8
1
  6
Continuous
 62
     7
100
AcDbLine
 10
415.1616483887776
 20
49.6981137787885
 30
0.0
 11
420.2519722702541
 21
49.69811377878875
 31
0.0
  0
LINE
  5
66
330
1F
100
AcDbEntity
  8
1
  6
Continuous
 62
     7
100
AcDbLine
 10
422.1838239228322
 20
47.18047568858348
 30
0.0
 11
420.2530075577728
 21
39.97457091409607
 31
0.0
  0
LINE
  5
67
330
1F
100
AcDbEntity
  8
1
  6
Continuous
 62
     7
100
AcDbLine
 10
383.6616483887769
 20
1.1981137787888
 30
0.0
 11
382.1616483887769
 21
1.1981137787888
 31
0.0
  0
LINE
  5
68
330
1F
100
AcDbEntity
  8
1
  6
Continuous
 62
     7
100
AcDbLine
 10
382.1616483887769
 20
1.1981137787888
 30
0.0
 11
382.1616483887769
 21
-5.80188622121119
 31
0.0
  0
LINE
  5
69
330
1F
100
AcDbEntity
  8
1
  6
Continuous
 62
     7
100
AcDbLine
 10
384.6616483887769
 20
-8.30188622121119
 30
0.0
 11
409.6616483887776
 21
-8.30188622121109
 31
0.0
  0
LINE
  5
6A
330
1F
100
AcDbEntity
  8
1
  6
Continuous
 62
     7
100
AcDbLine
 10
412.1616483887776
 20
17.94811377878892
 30
0.0
 11
412.1616483887776
 21
36.19811377878857
 31
0.0
  0
LINE
  5
6B
330
1F
100
AcDbEntity
  8
1
  6
Continuous
 62
     7
100
AcDbLine
 10
409.6616483887776
 20
-6.80188622121118
 30
0.0
 11
384.661648388777
 21
-6.80188622121126
 31
0.0
  0
LINE
  5
6C
330
1F
100
AcDbEntity
  8
1
  6
Continuous
 62
     7
100
AcDbLine
 10
383.6616483887769
 20
-5.80188622121119
 30
0.0
 11
383.6616483887769
 21
1.1981137787888
 31
0.0
  0
LINE
  5
6D
330
1F
100
AcDbEntity
  8
1
  6
Continuous
 62
     7
100
AcDbLine
 10
410.6616483887772
 20
17.9481137787889
 30
0.0
 11
412.1616483887776
 21
17.94811377878892
 31
0.0
  0
LINE
  5
6E
330
1F
100
AcDbEntity
  8
0
  6
Continuous
 62
     7
100
AcDbLine
 10
424.7616483887773
 20
14.89811377878891
 30
0.0
 11
427.5616483887771
 21
12.09811377878891
 31
0.0
  0
LINE
  5
6F
330
1F
100
AcDbEntity
  8
0
  6
Continuous
 62
     7
100
AcDbLine
 10
441.3616483887772
 20
11.69811377878891
 30
0.0
 11
441.3616483887772
 21
13.48066824648891
 31
0.0
  0
LINE
  5
70
330
1F
100
AcDbEntity
  8
0
  6
Continuous
 62
     7
100
AcDbLine
 10
428.4616483887772
 20
14.9981137787889
 30
0.0
 11
432.1616483887772
 21
14.9981137787889
 31
0.0
  0
LINE
  5
71
330
1F
100
AcDbEntity
  8
1
  6
DASHED
 62
     2
100
AcDbLine
 10
418.598653030112
 20
5.98191543971791
 30
0.0
 11
420.017361539395
 21
9.78232178222521
 31
0.0
  0
LINE
  5
72
330
1F
100
AcDbEntity
  8
1
  6
DASHED
 62
     2
100
AcDbLine
 10
411.4926830599069
 20
14.97170891819101
 30
0.0
 11
408.6079740130144
 21
12.08205671672951
 31
0.0
  0
LINE
  5
73
330
1F
100
AcDbEntity
  8
1
  6
DASHED
 62
     2
100
AcDbLine
 10
407.3059352381593
 20
9.78232178222521
 30
0.0
 11
408.7246437474425
 21
5.98191543971791
 31
0.0
  0
LINE
  5
74
330
1F
100
AcDbEntity
  8
0
  6
Continuous
 62
     7
100
AcDbLine
 10
415.1616483887772
 20
-2.20188622121109
 30
0.0
 11
415.1616483887772
 21
8.74900297418891
 31
0.0
  0
LINE
  5
75
330
1F
100
AcDbEntity
  8
0
  6
Continuous
 62
     7
100
AcDbLine
 10
441.8616483887772
 20
11.69811377878891
 30
0.0
 11
441.8616483887772
 21
5.69811377878891
 31
0.0
  0
LINE
  5
76
330
1F
100
AcDbEntity
  8
0
  6
Continuous
 62
     7
100
AcDbLine
 10
441.3616483887772
 20
1.91555931108891
 30
0.0
 11
441.3616483887772
 21
5.69811377878891
 31
0.0
  0
LINE
  5
77
330
1F
100
AcDbEntity
  8
0
  6
Continuous
 62
     7
100
AcDbLine
 10
438.1616483887772
 20
12.9981137787889
 30
0.0
 11
438.1616483887772
 21
2.89811377878891
 31
0.0
  0
LINE
  5
78
330
1F
100
AcDbEntity
  8
0
  6
Continuous
 62
     7
100
AcDbLine
 10
436.6485802846772
 20
7.13543057338891
 30
0.0
 11
435.2249613336772
 21
10.94899090328891
 31
0.0
  0
LINE
  5
79
330
1F
100
AcDbEntity
  8
0
  6
Continuous
 62
     7
100
AcDbLine
 10
433.4154445318772
 20
12.76599557448891
 30
0.0
 11
435.6191043806772
 21
9.61884279038891
 31
0.0
  0
LINE
  5
7A
330
1F
100
AcDbEntity
  8
DEFAULT_1
  6
DOT_CENTER
 62
     2
100
AcDbLine
 10
433.1616483887772
 20
11.61061377878891
 30
0.0
 11
433.1616483887772
 21
12.92311377878891
 31
0.0
  0
LINE
  5
7B
330
1F
100
AcDbEntity
  8
DEFAULT_1
  6
DOT_CENTER
 62
     2
100
AcDbLine
 10
433.1616483887772
 20
7.1556137787889
 30
0.0
 11
433.1616483887772
 21
2.8731137787889
 31
0.0
  0
LINE
  5
7C
330
1F
100
AcDbEntity
  8
0
  6
DOT_CENTER
 62
     2
100
AcDbLine
 10
433.1616483887772
 20
11.61061377878891
 30
0.0
 11
433.1616483887772
 21
7.1556137787889
 31
0.0
  0
LINE
  5
7D
330
1F
100
AcDbEntity
  8
0
  6
Continuous
 62
     7
100
AcDbLine
 10
430.2072252845772
 20
8.41905818798891
 30
0.0
 11
430.4420503240772
 21
9.7508174120889
 31
0.0
  0
LINE
  5
7E
330
1F
100
AcDbEntity
  8
0
  6
Continuous
 62
     7
100
AcDbLine
 10
428.4616483887772
 20
14.9981137787889
 30
0.0
 11
428.4616483887772
 21
15.69811377878891
 31
0.0
  0
LINE
  5
7F
330
1F
100
AcDbEntity
  8
0
  6
Continuous
 62
     7
100
AcDbLine
 10
428.4616483887772
 20
0.29811377878891
 30
0.0
 11
428.4616483887772
 21
-0.30188622121109
 31
0.0
  0
LINE
  5
80
330
1F
100
AcDbEntity
  8
0
  6
DASHED
 62
     2
100
AcDbLine
 10
399.7616483887773
 20
12.09811377878891
 30
0.0
 11
402.5616483887772
 21
14.89811377878891
 31
0.0
  0
LINE
  5
81
330
1F
100
AcDbEntity
  8
0
  6
Continuous
 62
     7
100
AcDbLine
 10
425.1616483887772
 20
-2.30188622121109
 30
0.0
 11
425.1616483887772
 21
0.29811377878891
 31
0.0
  0
LINE
  5
82
330
1F
100
AcDbEntity
  8
0
  6
Continuous
 62
     3
100
AcDbLine
 10
429.8131619370772
 20
15.69811377878891
 30
0.0
 11
431.4616483887772
 21
15.09811377878891
 31
0.0
  0
LINE
  5
83
330
1F
100
AcDbEntity
  8
0
  6
Continuous
 62
     7
100
AcDbLine
 10
432.1616483887772
 20
14.9981137787889
 30
0.0
 11
438.1616483887772
 21
12.9981137787889
 31
0.0
  0
LINE
  5
84
330
1F
100
AcDbEntity
  8
0
  6
Continuous
 62
     7
100
AcDbLine
 10
422.1616483887772
 20
0.19811377878891
 30
0.0
 11
422.1616483887772
 21
-2.20188622121109
 31
0.0
  0
LINE
  5
85
330
1F
100
AcDbEntity
  8
0
  6
Continuous
 62
     7
100
AcDbLine
 10
421.6616483887772
 20
0.89811377878891
 30
0.0
 11
421.6616483887772
 21
7.47583277878891
 31
0.0
  0
LINE
  5
86
330
1F
100
AcDbEntity
  8
0
  6
Continuous
 62
     7
100
AcDbLine
 10
438.1616483887772
 20
2.89811377878891
 30
0.0
 11
431.1616483887772
 21
0.39811377878891
 31
0.0
  0
LINE
  5
87
330
1F
100
AcDbEntity
  8
0
  6
Continuous
 62
     3
100
AcDbLine
 10
431.4616483887772
 20
0.29811377878891
 30
0.0
 11
429.8131619370772
 21
-0.30188622121109
 31
0.0
  0
LINE
  5
88
330
1F
100
AcDbEntity
  8
0
  6
Continuous
 62
     7
100
AcDbLine
 10
420.4924961695772
 20
10.30183799828891
 30
0.0
 11
415.7847838493772
 21
15.01761731908891
 31
0.0
  0
LINE
  5
89
330
1F
100
AcDbEntity
  8
0
  6
Continuous
 62
     7
100
AcDbLine
 10
434.8616483887772
 20
15.69811377878891
 30
0.0
 11
440.0704080401771
 21
14.9660703496889
 31
0.0
  0
LINE
  5
8A
330
1F
100
AcDbEntity
  8
0
  6
Continuous
 62
     3
100
AcDbLine
 10
434.8616483887772
 20
15.09811377878891
 30
0.0
 11
440.0704080401771
 21
14.36607034968891
 31
0.0
  0
LINE
  5
8B
330
1F
100
AcDbEntity
  8
0
  6
Continuous
 62
     7
100
AcDbLine
 10
394.6266849827773
 20
17.69811377878891
 30
0.0
 11
410.6616483887772
 21
17.69811377878891
 31
0.0
  0
LINE
  5
8C
330
1F
100
AcDbEntity
  8
0
  6
Continuous
 62
     7
100
AcDbLine
 10
389.8833021868772
 20
17.03147480138891
 30
0.0
 11
394.6266849827773
 21
17.69811377878891
 31
0.0
  0
LINE
  5
8D
330
1F
100
AcDbEntity
  8
0
  6
Continuous
 62
     3
100
AcDbLine
 10
394.6616483887772
 20
17.19811377878891
 30
0.0
 11
389.9528887373772
 21
16.53634076698891
 31
0.0
  0
LINE
  5
8E
330
1F
100
AcDbEntity
  8
0
  6
Continuous
 62
     7
100
AcDbLine
 10
417.5860144370772
 20
5.69001288238891
 30
0.0
 11
415.9427253291772
 21
2.16596865108892
 31
0.0
  0
LINE
  5
8F
330
1F
100
AcDbEntity
  8
DEFAULT_1
  6
DOT_CENTER
 62
     2
100
AcDbLine
 10
418.6616483887772
 20
4.61061377878891
 30
0.0
 11
418.6616483887772
 21
4.7481137787889
 31
0.0
  0
LINE
  5
90
330
1F
100
AcDbEntity
  8
DEFAULT_1
  6
DOT_CENTER
 62
     2
100
AcDbLine
 10
418.6616483887772
 20
-2.8143862212111
 30
0.0
 11
418.6616483887772
 21
-2.95188622121109
 31
0.0
  0
LINE
  5
91
330
1F
100
AcDbEntity
  8
0
  6
DOT_CENTER
 62
     2
100
AcDbLine
 10
418.6616483887772
 20
4.61061377878891
 30
0.0
 11
418.6616483887772
 21
-2.8143862212111
 31
0.0
  0
LINE
  5
92
330
1F
100
AcDbEntity
  8
0
  6
Continuous
 62
     7
100
AcDbLine
 10
416.6616483887772
 20
14.9981137787889
 30
0.0
 11
416.6616483887772
 21
15.69811377878891
 31
0.0
  0
LINE
  5
93
330
1F
100
AcDbEntity
  8
0
  6
Continuous
 62
     7
100
AcDbLine
 10
416.6616483887772
 20
-2.30188622121109
 30
0.0
 11
416.6616483887772
 21
-2.20188622121109
 31
0.0
  0
LINE
  5
94
330
1F
100
AcDbEntity
  8
0
  6
Continuous
 62
     3
100
AcDbLine
 10
409.6616483887772
 20
17.19811377878891
 30
0.0
 11
394.6616483887772
 21
17.19811377878891
 31
0.0
  0
LINE
  5
95
330
1F
100
AcDbEntity
  8
0
  6
Continuous
 62
     7
100
AcDbLine
 10
416.6616483887772
 20
15.69811377878891
 30
0.0
 11
434.8616483887772
 21
15.69811377878891
 31
0.0
  0
LINE
  5
96
330
1F
100
AcDbEntity
  8
0
  6
Continuous
 62
     7
100
AcDbLine
 10
416.6616483887772
 20
15.64811377878891
 30
0.0
 11
415.1616483887772
 21
15.64811377878891
 31
0.0
  0
LINE
  5
97
330
1F
100
AcDbEntity
  8
0
  6
Continuous
 62
     7
100
AcDbLine
 10
394.1616483887772
 20
15.59811377878891
 30
0.0
 11
410.6616483887772
 21
15.59811377878891
 31
0.0
  0
LINE
  5
98
330
1F
100
AcDbEntity
  8
0
  6
Continuous
 62
     3
100
AcDbLine
 10
431.4616483887772
 20
15.09811377878891
 30
0.0
 11
434.8616483887772
 21
15.09811377878891
 31
0.0
  0
LINE
  5
99
330
1F
100
AcDbEntity
  8
0
  6
Continuous
 62
     7
100
AcDbLine
 10
416.0734326368772
 20
14.9981137787889
 30
0.0
 11
428.4616483887772
 21
14.9981137787889
 31
0.0
  0
LINE
  5
9A
330
1F
100
AcDbEntity
  8
0
  6
Continuous
 62
     7
100
AcDbLine
 10
415.1616483887772
 20
15.48844907308891
 30
0.0
 11
415.1616483887772
 21
15.64811377878891
 31
0.0
  0
LINE
  5
9B
330
1F
100
AcDbEntity
  8
0
  6
Continuous
 62
     7
100
AcDbLine
 10
416.6616483887772
 20
14.89811377878891
 30
0.0
 11
429.3196843887772
 21
14.89811377878891
 31
0.0
  0
LINE
  5
9C
330
1F
100
AcDbEntity
  8
0
  6
Continuous
 62
     7
100
AcDbLine
 10
410.6616483887772
 20
14.89811377878891
 30
0.0
 11
398.0036123887772
 21
14.89811377878891
 31
0.0
  0
LINE
  5
9D
330
1F
100
AcDbEntity
  8
0
  6
Continuous
 62
     9
420
 12434109
100
AcDbLine
 10
394.6601876918772
 20
13.59811377878891
 30
0.0
 11
394.1616483887772
 21
13.59811377878891
 31
0.0
  0
LINE
  5
9E
330
1F
100
AcDbEntity
  8
0
  6
Continuous
 62
     7
100
AcDbLine
 10
394.4904358211772
 20
13.44811377878891
 30
0.0
 11
392.1616483887772
 21
13.44811377878891
 31
0.0
  0
LINE
  5
9F
330
1F
100
AcDbEntity
  8
DEFAULT_1
  6
DOT_CENTER
 62
     2
100
AcDbLine
 10
417.3741483887772
 20
12.89811377878891
 30
0.0
 11
418.4116483887772
 21
12.89811377878891
 31
0.0
  0
LINE
  5
A0
330
1F
100
AcDbEntity
  8
DEFAULT_1
  6
DOT_CENTER
 62
     2
100
AcDbLine
 10
409.9491483887773
 20
12.89811377878891
 30
0.0
 11
408.9116483887772
 21
12.89811377878891
 31
0.0
  0
LINE
  5
A1
330
1F
100
AcDbEntity
  8
0
  6
DOT_CENTER
 62
     2
100
AcDbLine
 10
417.3741483887772
 20
12.89811377878891
 30
0.0
 11
409.9491483887773
 21
12.89811377878891
 31
0.0
  0
LINE
  5
A2
330
1F
100
AcDbEntity
  8
0
  6
Continuous
 62
     2
100
AcDbLine
 10
415.2040229930772
 20
12.19116893848891
 30
0.0
 11
415.1794581507772
 21
12.1384894640889
 31
0.0
  0
LINE
  5
A3
330
1F
100
AcDbEntity
  8
DEFAULT_1
  6
DOT_CENTER
 62
     2
100
AcDbLine
 10
413.6616483887772
 20
16.61061377878891
 30
0.0
 11
413.6616483887772
 21
17.64811377878889
 31
0.0
  0
LINE
  5
A4
330
1F
100
AcDbEntity
  8
DEFAULT_1
  6
DOT_CENTER
 62
     2
100
AcDbLine
 10
413.6616483887772
 20
12.1556137787889
 30
0.0
 11
413.6616483887772
 21
8.14811377878891
 31
0.0
  0
LINE
  5
A5
330
1F
100
AcDbEntity
  8
0
  6
DOT_CENTER
 62
     2
100
AcDbLine
 10
413.6616483887772
 20
16.61061377878891
 30
0.0
 11
413.6616483887772
 21
12.1556137787889
 31
0.0
  0
LINE
  5
A6
330
1F
100
AcDbEntity
  8
0
  6
Continuous
 62
     7
100
AcDbLine
 10
412.1616483887772
 20
-3.2518862212111
 30
0.0
 11
412.1616483887772
 21
8.74900297418891
 31
0.0
  0
LINE
  5
A7
330
1F
100
AcDbEntity
  8
0
  6
Continuous
 62
     7
100
AcDbLine
 10
412.1616483887776
 20
17.69811377878881
 30
0.0
 11
412.1616483887772
 21
15.48844907308891
 31
0.0
  0
LINE
  5
A8
330
1F
100
AcDbEntity
  8
0
  6
Continuous
 62
     7
100
AcDbLine
 10
414.6991855960773
 20
8.86430786968891
 30
0.0
 11
416.2572419715772
 21
8.47584088288891
 31
0.0
  0
LINE
  5
A9
330
1F
100
AcDbEntity
  8
0
  6
Continuous
 62
     7
100
AcDbLine
 10
398.8508623887772
 20
12.09811377878891
 30
0.0
 11
408.3550483887772
 21
12.09811377878891
 31
0.0
  0
LINE
  5
AA
330
1F
100
AcDbEntity
  8
0
  6
Continuous
 62
     7
100
AcDbLine
 10
428.4724343887772
 20
12.09811377878891
 30
0.0
 11
418.9682483887772
 21
12.09811377878891
 31
0.0
  0
LINE
  5
AB
330
1F
100
AcDbEntity
  8
0
  6
Continuous
 62
     7
100
AcDbLine
 10
441.3616483887772
 20
11.69811377878891
 30
0.0
 11
441.8616483887772
 21
11.69811377878891
 31
0.0
  0
LINE
  5
AC
330
1F
100
AcDbEntity
  8
0
  6
Continuous
 62
     7
100
AcDbLine
 10
410.6616483887772
 20
14.89811377878891
 30
0.0
 11
410.6616483887772
 21
17.69811377878891
 31
0.0
  0
LINE
  5
AD
330
1F
100
AcDbEntity
  8
0
  6
Continuous
 62
     7
100
AcDbLine
 10
410.6616483887772
 20
-3.30188622121109
 30
0.0
 11
410.6616483887772
 21
-2.30188622121109
 31
0.0
  0
LINE
  5
AE
330
1F
100
AcDbEntity
  8
0
  6
Continuous
 62
     3
100
AcDbLine
 10
409.6616483887772
 20
17.69811377878891
 30
0.0
 11
409.6616483887772
 21
17.19811377878891
 31
0.0
  0
LINE
  5
AF
330
1F
100
AcDbEntity
  8
0
  6
Continuous
 62
     7
100
AcDbLine
 10
409.7372823404772
 20
5.69001288238891
 30
0.0
 11
411.3805714482772
 21
2.16596865108892
 31
0.0
  0
LINE
  5
B0
330
1F
100
AcDbEntity
  8
DEFAULT_1
  6
DOT_CENTER
 62
     2
100
AcDbLine
 10
436.8741483887772
 20
7.89811377878891
 30
0.0
 11
438.1866483887772
 21
7.89811377878891
 31
0.0
  0
LINE
  5
B1
330
1F
100
AcDbEntity
  8
DEFAULT_1
  6
DOT_CENTER
 62
     2
100
AcDbLine
 10
394.9041483887772
 20
7.89811377878891
 30
0.0
 11
399.1866483887772
 21
7.89811377878891
 31
0.0
  0
LINE
  5
B2
330
1F
100
AcDbEntity
  8
DEFAULT_1
  6
DOT_CENTER
 62
     2
100
AcDbLine
 10
390.4491483887773
 20
7.89811377878891
 30
0.0
 11
389.1366483887773
 21
7.89811377878891
 31
0.0
  0
LINE
  5
B3
330
1F
100
AcDbEntity
  8
0
  6
DOT_CENTER
 62
     2
100
AcDbLine
 10
394.9041483887772
 20
7.89811377878891
 30
0.0
 11
390.4491483887773
 21
7.89811377878891
 31
0.0
  0
LINE
  5
B4
330
1F
100
AcDbEntity
  8
DEFAULT_1
  6
DOT_CENTER
 62
     2
100
AcDbLine
 10
429.4491483887773
 20
7.89811377878891
 30
0.0
 11
428.1366483887773
 21
7.89811377878891
 31
0.0
  0
LINE
  5
B5
330
1F
100
AcDbEntity
  8
0
  6
DOT_CENTER
 62
     2
100
AcDbLine
 10
436.8741483887772
 20
7.89811377878891
 30
0.0
 11
429.4491483887773
 21
7.89811377878891
 31
0.0
  0
LINE
  5
B6
330
1F
100
AcDbEntity
  8
DEFAULT_1
  6
DOT_CENTER
 62
     2
100
AcDbLine
 10
408.6616483887772
 20
1.64061377878892
 30
0.0
 11
408.6616483887772
 21
5.7481137787889
 31
0.0
  0
LINE
  5
B7
330
1F
100
AcDbEntity
  8
DEFAULT_1
  6
DOT_CENTER
 62
     2
100
AcDbLine
 10
408.6616483887772
 20
-2.8143862212111
 30
0.0
 11
408.6616483887772
 21
-3.95188622121109
 31
0.0
  0
LINE
  5
B8
330
1F
100
AcDbEntity
  8
0
  6
DOT_CENTER
 62
     2
100
AcDbLine
 10
408.6616483887772
 20
1.64061377878892
 30
0.0
 11
408.6616483887772
 21
-2.8143862212111
 31
0.0
  0
LINE
  5
B9
330
1F
100
AcDbEntity
  8
0
  6
Continuous
 62
     7
100
AcDbLine
 10
441.3616483887772
 20
5.69811377878891
 30
0.0
 11
441.8616483887772
 21
5.69811377878891
 31
0.0
  0
LINE
  5
BA
330
1F
100
AcDbEntity
  8
0
  6
Continuous
 62
     7
100
AcDbLine
 10
412.6241111814772
 20
8.86430786968891
 30
0.0
 11
411.0660548059772
 21
8.47584088288891
 31
0.0
  0
LINE
  5
BB
330
1F
100
AcDbEntity
  8
0
  6
Continuous
 62
     7
100
AcDbLine
 10
406.8308006078772
 20
10.30183799828891
 30
0.0
 11
408.5976194956772
 21
12.0716844561889
 31
0.0
  0
LINE
  5
BC
330
1F
100
AcDbEntity
  8
0
  6
Continuous
 62
     7
100
AcDbLine
 10
405.6616483887772
 20
7.47583277878891
 30
0.0
 11
405.6616483887772
 21
0.89811377878891
 31
0.0
  0
LINE
  5
BD
330
1F
100
AcDbEntity
  8
0
  6
Continuous
 62
     7
100
AcDbLine
 10
404.1616483887772
 20
1.69811377878891
 30
0.0
 11
404.1616483887772
 21
-2.30188622121109
 31
0.0
  0
LINE
  5
BE
330
1F
100
AcDbEntity
  8
0
  6
Continuous
 62
     7
100
AcDbLine
 10
402.1616483887772
 20
-3.30188622121109
 30
0.0
 11
402.1616483887772
 21
2.19811377878891
 31
0.0
  0
LINE
  5
BF
330
1F
100
AcDbEntity
  8
0
  6
Continuous
 62
     3
100
AcDbLine
 10
401.9616483887772
 20
0.19811377878891
 30
0.0
 11
401.9616483887772
 21
-0.30188622121109
 31
0.0
  0
LINE
  5
C0
330
1F
100
AcDbEntity
  8
0
  6
Continuous
 62
     7
100
AcDbLine
 10
394.6616483887772
 20
2.19811377878891
 30
0.0
 11
403.6616483887772
 21
2.19811377878891
 31
0.0
  0
LINE
  5
C1
330
1F
100
AcDbEntity
  8
0
  6
Continuous
 62
     7
100
AcDbLine
 10
404.1484831389773
 20
1.79811377878891
 30
0.0
 11
394.1616483887772
 21
1.79811377878891
 31
0.0
  0
LINE
  5
C2
330
1F
100
AcDbEntity
  8
DEFAULT_1
  6
DOT_CENTER
 62
     2
100
AcDbLine
 10
419.4041483887772
 20
0.89811377878891
 30
0.0
 11
423.5116483887773
 21
0.89811377878891
 31
0.0
  0
LINE
  5
C3
330
1F
100
AcDbEntity
  8
DEFAULT_1
  6
DOT_CENTER
 62
     2
100
AcDbLine
 10
412.3741483887772
 20
0.89811377878891
 30
0.0
 11
413.5116483887773
 21
0.89811377878891
 31
0.0
  0
LINE
  5
C4
330
1F
100
AcDbEntity
  8
DEFAULT_1
  6
DOT_CENTER
 62
     2
100
AcDbLine
 10
404.9491483887773
 20
0.89811377878891
 30
0.0
 11
403.8116483887772
 21
0.89811377878891
 31
0.0
  0
LINE
  5
C5
330
1F
100
AcDbEntity
  8
0
  6
DOT_CENTER
 62
     2
100
AcDbLine
 10
412.3741483887772
 20
0.89811377878891
 30
0.0
 11
404.9491483887773
 21
0.89811377878891
 31
0.0
  0
LINE
  5
C6
330
1F
100
AcDbEntity
  8
DEFAULT_1
  6
DOT_CENTER
 62
     2
100
AcDbLine
 10
414.9491483887773
 20
0.89811377878891
 30
0.0
 11
413.8116483887772
 21
0.89811377878891
 31
0.0
  0
LINE
  5
C7
330
1F
100
AcDbEntity
  8
0
  6
DOT_CENTER
 62
     2
100
AcDbLine
 10
419.4041483887772
 20
0.89811377878891
 30
0.0
 11
414.9491483887773
 21
0.89811377878891
 31
0.0
  0
LINE
  5
C8
330
1F
100
AcDbEntity
  8
0
  6
Continuous
 62
     7
100
AcDbLine
 10
431.1616483887772
 20
0.39811377878891
 30
0.0
 11
422.3616483887772
 21
0.39811377878891
 31
0.0
  0
LINE
  5
C9
330
1F
100
AcDbEntity
  8
0
  6
Continuous
 62
     7
100
AcDbLine
 10
428.4616483887772
 20
0.29811377878891
 30
0.0
 11
425.1616483887772
 21
0.29811377878891
 31
0.0
  0
LINE
  5
CA
330
1F
100
AcDbEntity
  8
0
  6
Continuous
 62
     3
100
AcDbLine
 10
434.8616483887772
 20
0.29811377878891
 30
0.0
 11
431.4616483887772
 21
0.29811377878891
 31
0.0
  0
LINE
  5
CB
330
1F
100
AcDbEntity
  8
0
  6
Continuous
 62
     3
100
AcDbLine
 10
394.6616483887772
 20
0.19811377878891
 30
0.0
 11
401.9616483887772
 21
0.19811377878891
 31
0.0
  0
LINE
  5
CC
330
1F
100
AcDbEntity
  8
0
  6
Continuous
 62
     2
100
AcDbLine
 10
418.4428747272772
 20
2.58230235998891
 30
0.0
 11
418.4819255563772
 21
2.58571886478891
 31
0.0
  0
LINE
  5
CD
330
1F
100
AcDbEntity
  8
0
  6
Continuous
 62
     7
100
AcDbLine
 10
397.1160714929771
 20
8.41905818798891
 30
0.0
 11
396.8812464534772
 21
9.7508174120889
 31
0.0
  0
LINE
  5
CE
330
1F
100
AcDbEntity
  8
0
  6
Continuous
 62
     7
100
AcDbLine
 10
389.1616483887772
 20
3.69811377878891
 30
0.0
 11
394.6616483887772
 21
2.19811377878891
 31
0.0
  0
LINE
  5
CF
330
1F
100
AcDbEntity
  8
0
  6
Continuous
 62
     3
100
AcDbLine
 10
389.9528887373772
 20
0.8598867906889
 30
0.0
 11
394.6616483887772
 21
0.19811377878891
 31
0.0
  0
LINE
  5
D0
330
1F
100
AcDbEntity
  8
0
  6
Continuous
 62
     7
100
AcDbLine
 10
394.6266849827773
 20
-0.30188622121109
 30
0.0
 11
389.8833021868772
 21
0.36475275628891
 31
0.0
  0
LINE
  5
D1
330
1F
100
AcDbEntity
  8
0
  6
Continuous
 62
     7
100
AcDbLine
 10
394.6266849827773
 20
-0.30188622121109
 30
0.0
 11
402.1616483887772
 21
-0.30188622121109
 31
0.0
  0
LINE
  5
D2
330
1F
100
AcDbEntity
  8
0
  6
Continuous
 62
     7
100
AcDbLine
 10
434.8616483887772
 20
-0.30188622121109
 30
0.0
 11
425.1616483887772
 21
-0.30188622121109
 31
0.0
  0
LINE
  5
D3
330
1F
100
AcDbEntity
  8
0
  6
Continuous
 62
     7
100
AcDbLine
 10
422.1616483887772
 20
-2.20188622121109
 30
0.0
 11
415.1616483887772
 21
-2.20188622121109
 31
0.0
  0
LINE
  5
D4
330
1F
100
AcDbEntity
  8
0
  6
Continuous
 62
     7
100
AcDbLine
 10
416.6616483887772
 20
-2.30188622121109
 30
0.0
 11
425.1616483887772
 21
-2.30188622121109
 31
0.0
  0
LINE
  5
D5
330
1F
100
AcDbEntity
  8
0
  6
Continuous
 62
     7
100
AcDbLine
 10
404.1616483887772
 20
-2.30188622121109
 30
0.0
 11
412.1616483887772
 21
-2.30188622121109
 31
0.0
  0
LINE
  5
D6
330
1F
100
AcDbEntity
  8
0
  6
Continuous
 62
     7
100
AcDbLine
 10
410.6616483887772
 20
-3.2518862212111
 30
0.0
 11
412.1616483887772
 21
-3.2518862212111
 31
0.0
  0
LINE
  5
D7
330
1F
100
AcDbEntity
  8
0
  6
Continuous
 62
     7
100
AcDbLine
 10
402.1616483887772
 20
-3.30188622121109
 30
0.0
 11
410.6616483887772
 21
-3.30188622121109
 31
0.0
  0
LINE
  5
D8
330
1F
100
AcDbEntity
  8
0
  6
Continuous
 62
     3
100
AcDbLine
 10
440.0704080401771
 20
1.0301572079889
 30
0.0
 11
434.8616483887772
 21
0.29811377878891
 31
0.0
  0
LINE
  5
D9
330
1F
100
AcDbEntity
  8
0
  6
Continuous
 62
     7
100
AcDbLine
 10
440.0704080401771
 20
0.43015720798891
 30
0.0
 11
434.8616483887772
 21
-0.30188622121109
 31
0.0
  0
LINE
  5
DA
330
1F
100
AcDbEntity
  8
0
  6
Continuous
 62
     7
100
AcDbLine
 10
392.1616483887772
 20
13.44811377878891
 30
0.0
 11
389.1616483887772
 21
12.44811377878891
 31
0.0
  0
LINE
  5
DB
330
1F
100
AcDbEntity
  8
0
  6
Continuous
 62
     7
100
AcDbLine
 10
393.9078522456773
 20
12.76599557448891
 30
0.0
 11
391.7041923968772
 21
9.61884279038891
 31
0.0
  0
LINE
  5
DC
330
1F
100
AcDbEntity
  8
DEFAULT_1
  6
DOT_CENTER
 62
     2
100
AcDbLine
 10
394.1616483887772
 20
11.61061377878891
 30
0.0
 11
394.1616483887772
 21
12.92311377878891
 31
0.0
  0
LINE
  5
DD
330
1F
100
AcDbEntity
  8
0
  6
Continuous
 62
     7
100
AcDbLine
 10
394.1616483887772
 20
2.33447741518891
 30
0.0
 11
394.1616483887772
 21
1.79811377878891
 31
0.0
  0
LINE
  5
DE
330
1F
100
AcDbEntity
  8
DEFAULT_1
  6
DOT_CENTER
 62
     2
100
AcDbLine
 10
394.1616483887772
 20
4.1856137787889
 30
0.0
 11
394.1616483887772
 21
2.8731137787889
 31
0.0
  0
LINE
  5
DF
330
1F
100
AcDbEntity
  8
0
  6
DOT_CENTER
 62
     2
100
AcDbLine
 10
394.1616483887772
 20
11.61061377878891
 30
0.0
 11
394.1616483887772
 21
4.1856137787889
 31
0.0
  0
LINE
  5
E0
330
1F
100
AcDbEntity
  8
0
  6
Continuous
 62
     7
100
AcDbLine
 10
394.1616483887772
 20
15.59811377878891
 30
0.0
 11
394.1616483887772
 21
13.44811377878891
 31
0.0
  0
LINE
  5
E1
330
1F
100
AcDbEntity
  8
0
  6
Continuous
 62
     7
100
AcDbLine
 10
392.0983354438772
 20
10.94899090328891
 30
0.0
 11
390.6747164928772
 21
7.13543057338891
 31
0.0
  0
LINE
  5
E2
330
1F
100
AcDbEntity
  8
0
  6
Continuous
 62
     7
100
AcDbLine
 10
389.1616483887772
 20
12.44811377878891
 30
0.0
 11
389.1616483887772
 21
3.69811377878891
 31
0.0
  0
LINE
  5
E3
330
1F
100
AcDbEntity
  8
0
  6
Continuous
 62
     3
100
AcDbLine
 10
388.6616483887772
 20
15.05093866388891
 30
0.0
 11
388.6616483887772
 21
2.3452888937889
 31
0.0
  0
LINE
  5
E4
330
1F
100
AcDbEntity
  8
0
  6
Continuous
 62
     7
100
AcDbLine
 10
388.1616483887772
 20
2.3452888937889
 30
0.0
 11
388.1616483887772
 21
15.05093866388891
 31
0.0
  0
LINE
  5
E5
330
1F
100
AcDbEntity
  8
1
  6
Continuous
 62
     7
100
AcDbLine
 10
387.1616483887772
 20
17.99811377878879
 30
0.0
 11
384.6616483887772
 21
17.99811377878879
 31
0.0
  0
LINE
  5
E6
330
1F
100
AcDbEntity
  8
0
  6
Continuous
 62
     7
100
AcDbLine
 10
401.6616483887772
 20
20.99811377878879
 30
0.0
 11
401.6616483887772
 21
23.09811377878879
 31
0.0
  0
LINE
  5
E7
330
1F
100
AcDbEntity
  8
0
  6
Continuous
 62
     7
100
AcDbLine
 10
398.6616483887772
 20
20.99811377878879
 30
0.0
 11
398.6616483887772
 21
23.09811377878879
 31
0.0
  0
LINE
  5
E8
330
1F
100
AcDbEntity
  8
0
  6
Continuous
 62
     7
100
AcDbLine
 10
389.6616483887772
 20
-6.40188622121121
 30
0.0
 11
398.1616483887772
 21
-6.40188622121121
 31
0.0
  0
LINE
  5
E9
330
1F
100
AcDbEntity
  8
0
  6
Continuous
 62
     7
100
AcDbLine
 10
387.1616483887772
 20
-6.30188622121122
 30
0.0
 11
384.6616483887772
 21
-6.30188622121122
 31
0.0
  0
LINE
  5
EA
330
1F
100
AcDbEntity
  8
0
  6
Continuous
 62
     7
100
AcDbLine
 10
389.4616483887772
 20
-6.30188622121122
 30
0.0
 11
387.1616483887772
 21
-6.30188622121122
 31
0.0
  0
LINE
  5
EB
330
1F
100
AcDbEntity
  8
0
  6
Continuous
 62
     7
100
AcDbLine
 10
407.6616483887772
 20
-6.30188622121122
 30
0.0
 11
396.6616483887772
 21
-6.30188622121122
 31
0.0
  0
LINE
  5
EC
330
1F
100
AcDbEntity
  8
0
  6
Continuous
 62
     7
100
AcDbLine
 10
410.1616483887772
 20
20.99811377878879
 30
0.0
 11
410.1616483887772
 21
18.49811377878879
 31
0.0
  0
LINE
  5
ED
330
1F
100
AcDbEntity
  8
0
  6
Continuous
 62
     7
100
AcDbLine
 10
410.6616483887772
 20
-3.80188622121122
 30
0.0
 11
407.6616483887772
 21
-3.80188622121122
 31
0.0
  0
LINE
  5
EE
330
1F
100
AcDbEntity
  8
0
  6
Continuous
 62
     7
100
AcDbLine
 10
389.6616483887772
 20
-3.40188622121121
 30
0.0
 11
396.6616483887772
 21
-3.40188622121121
 31
0.0
  0
LINE
  5
EF
330
1F
100
AcDbEntity
  8
0
  6
Continuous
 62
     7
100
AcDbLine
 10
389.4616483887772
 20
-3.00188622121121
 30
0.0
 11
396.6616483887772
 21
-3.00188622121121
 31
0.0
  0
LINE
  5
F0
330
1F
100
AcDbEntity
  8
0
  6
Continuous
 62
     7
100
AcDbLine
 10
407.6616483887772
 20
-3.80188622121122
 30
0.0
 11
407.6616483887772
 21
-6.30188622121122
 31
0.0
  0
LINE
  5
F1
330
1F
100
AcDbEntity
  8
0
  6
Continuous
 62
     7
100
AcDbLine
 10
396.6616483887772
 20
-6.40188622121121
 30
0.0
 11
396.6616483887772
 21
-6.30188622121122
 31
0.0
  0
LINE
  5
F2
330
1F
100
AcDbEntity
  8
0
  6
Continuous
 62
     7
100
AcDbLine
 10
396.6616483887772
 20
-6.30188622121122
 30
0.0
 11
396.6616483887772
 21
-3.00188622121121
 31
0.0
  0
LINE
  5
F3
330
1F
100
AcDbEntity
  8
0
  6
Continuous
 62
     7
100
AcDbLine
 10
389.6616483887772
 20
-3.40188622121121
 30
0.0
 11
389.6616483887772
 21
-6.40188622121121
 31
0.0
  0
LINE
  5
F4
330
1F
100
AcDbEntity
  8
0
  6
Continuous
 62
     7
100
AcDbLine
 10
389.4616483887772
 20
-6.30188622121122
 30
0.0
 11
389.4616483887772
 21
-3.00188622121121
 31
0.0
  0
LINE
  5
F5
330
1F
100
AcDbEntity
  8
0
  6
Continuous
 62
     7
100
AcDbLine
 10
410.6616483887772
 20
17.99811377878879
 30
0.0
 11
387.1616483887772
 21
17.99811377878879
 31
0.0
  0
LINE
  5
F6
330
1F
100
AcDbEntity
  8
0
  6
Continuous
 62
     7
100
AcDbLine
 10
410.1616483887772
 20
18.49811377878879
 30
0.0
 11
387.6616483887772
 21
18.49811377878879
 31
0.0
  0
LINE
  5
F7
330
1F
100
AcDbEntity
  8
0
  6
DASHED
 62
     2
100
AcDbLine
 10
387.1616483887772
 20
17.99811377878879
 30
0.0
 11
387.1616483887772
 21
-6.30188622121122
 31
0.0
  0
LINE
  5
F8
330
1F
100
AcDbEntity
  8
0
  6
Continuous
 62
     7
100
AcDbLine
 10
410.1616483887772
 20
20.99811377878879
 30
0.0
 11
387.6616483887772
 21
20.99811377878879
 31
0.0
  0
LINE
  5
F9
330
1F
100
AcDbEntity
  8
0
  6
Continuous
 62
     7
100
AcDbLine
 10
384.6616483887772
 20
17.99811377878879
 30
0.0
 11
384.6616483887772
 21
-6.30188622121122
 31
0.0
  0
LINE
  5
FA
330
1F
100
AcDbEntity
  8
0
  6
Continuous
 62
     7
100
AcDbLine
 10
398.6616483887772
 20
23.09811377878879
 30
0.0
 11
401.6616483887772
 21
23.09811377878879
 31
0.0
  0
LINE
  5
FB
330
1F
100
AcDbEntity
  8
0
  6
DASHED
 62
     2
100
AcDbLine
 10
396.6616483887772
 20
-3.40188622121121
 30
0.0
 11
398.1616483887772
 21
-3.40188622121121
 31
0.0
  0
LINE
  5
FC
330
1F
100
AcDbEntity
  8
0
  6
DASHED
 62
     2
100
AcDbLine
 10
401.6616483887772
 20
-2.90188622121121
 30
0.0
 11
401.6616483887772
 21
-0.30188622121109
 31
0.0
  0
LINE
  5
FD
330
1F
100
AcDbEntity
  8
0
  6
DASHED
 62
     2
100
AcDbLine
 10
398.6616483887772
 20
-2.90188622121121
 30
0.0
 11
398.6616483887772
 21
-0.30188622121109
 31
0.0
  0
LINE
  5
FE
330
1F
100
AcDbEntity
  8
0
  6
Continuous
 62
     7
100
AcDbLine
 10
408.1616483887772
 20
-3.30188622121109
 30
0.0
 11
408.1616483887772
 21
-3.80188622121122
 31
0.0
  0
ARC
  5
FF
330
1F
100
AcDbEntity
  8
1
  6
Continuous
 62
     7
100
AcDbCircle
 10
414.4116483887775
 20
35.94811377878865
 30
0.0
 40
2.263846284534232
100
AcDbArc
 50
173.6598082540919
 51
-96.34019174590782
  0
ARC
  5
100
330
1F
100
AcDbEntity
  8
1
  6
Continuous
 62
     7
100
AcDbCircle
 10
421.9253113672836
 20
35.54811377878864
 30
0.0
 40
1.850482562545612
100
AcDbArc
 50
-88.69147695539293
 51
72.12038659088867
  0
ARC
  5
101
330
1F
100
AcDbEntity
  8
1
  6
Continuous
 62
     7
100
AcDbCircle
 10
415.1616483887776
 20
47.6981137787885
 30
0.0
 40
3.0
100
AcDbArc
 50
90.0
 51
180.0
  0
ARC
  5
102
330
1F
100
AcDbEntity
  8
1
  6
Continuous
 62
     7
100
AcDbCircle
 10
420.2519722702541
 20
47.6981137787885
 30
0.0
 40
3.000000000000022
100
AcDbArc
 50
-14.99999999999997
 51
90.0
  0
ARC
  5
103
330
1F
100
AcDbEntity
  8
1
  6
Continuous
 62
     7
100
AcDbCircle
 10
414.1616483887776
 20
35.69811377878898
 30
0.0
 40
1.0
100
AcDbArc
 50
-179.9999999999858
 51
-90.0
  0
ARC
  5
104
330
1F
100
AcDbEntity
  8
1
  6
Continuous
 62
     7
100
AcDbCircle
 10
415.1616483887776
 20
47.6981137787885
 30
0.0
 40
2.0
100
AcDbArc
 50
90.0
 51
180.0
  0
ARC
  5
105
330
1F
100
AcDbEntity
  8
1
  6
Continuous
 62
     7
100
AcDbCircle
 10
420.2519722702541
 20
47.6981137787885
 30
0.0
 40
1.999999999999936
100
AcDbArc
 50
-15.00000000000001
 51
90.0
  0
ARC
  5
106
330
1F
100
AcDbEntity
  8
1
  6
Continuous
 62
     7
100
AcDbCircle
 10
421.9253113672836
 20
35.54811377878864
 30
0.0
 40
0.8510497719202775
100
AcDbArc
 50
-87.15388608633576
 51
73.65797745994679
  0
ARC
  5
107
330
1F
100
AcDbEntity
  8
1
  6
DASHED
 62
     2
100
AcDbCircle
 10
434.2881109458289
 20
10.59926050559831
 30
0.0
 40
1.000000001002336
100
AcDbArc
 50
92.93306125759865
 51
116.8591055334359
  0
ARC
  5
108
330
1F
100
AcDbEntity
  8
1
  6
DASHED
 62
     2
100
AcDbCircle
 10
426.1670404561357
 20
26.6351215400024
 30
0.0
 40
16.97499999936725
100
AcDbArc
 50
-75.32764301184213
 51
-63.14089444732389
  0
ARC
  5
109
330
1F
100
AcDbEntity
  8
0
  6
DASHED
 62
     2
100
AcDbCircle
 10
418.6616483887772
 20
0.89811377878891
 30
0.0
 40
3.0
100
AcDbArc
 50
0.0
 51
167.9068575937952
  0
ARC
  5
10A
330
1F
100
AcDbEntity
  8
0
  6
Continuous
 62
     7
100
AcDbCircle
 10
418.6616483887772
 20
0.89811377878891
 30
0.0
 40
3.000000000000016
100
AcDbArc
 50
167.9068575937952
 51
180.0
  0
ARC
  5
10B
330
1F
100
AcDbEntity
  8
0
  6
Continuous
 62
     7
100
AcDbCircle
 10
418.6616483887772
 20
0.89811377878891
 30
0.0
 40
3.0
100
AcDbArc
 50
180.0
 51
0.0
  0
ARC
  5
10C
330
1F
100
AcDbEntity
  8
1
  6
DASHED
 62
     2
100
AcDbCircle
 10
420.8268684546036
 20
9.51900898644351
 30
0.0
 40
0.8512549995111637
100
AcDbArc
 50
113.1291227319039
 51
161.9815607014156
  0
ARC
  5
10D
330
1F
100
AcDbEntity
  8
1
  6
DASHED
 62
     2
100
AcDbCircle
 10
426.1670404558673
 20
26.63512154055972
 30
0.0
 40
23.02499999996929
100
AcDbArc
 50
-107.5231640688548
 51
-101.2941943747895
  0
ARC
  5
10E
330
1F
100
AcDbEntity
  8
0
  6
DASHED
 62
     2
100
AcDbCircle
 10
418.9682483887772
 20
10.09811377878891
 30
0.0
 40
2.000000238100017
100
AcDbArc
 50
97.26523831374539
 51
152.1818622102283
  0
ARC
  5
10F
330
1F
100
AcDbEntity
  8
0
  6
DASHED
 62
     2
100
AcDbCircle
 10
413.6616483887772
 20
12.89811377878891
 30
0.0
 40
4.000000058487768
100
AcDbArc
 50
-95.29491716816857
 51
-27.81813778990162
  0
ARC
  5
110
330
1F
100
AcDbEntity
  8
1
  6
DASHED
 62
     2
100
AcDbCircle
 10
413.7286468616489
 20
12.8159333152722
 30
0.0
 40
3.105946324848542
100
AcDbArc
 50
126.949045063436
 51
136.0460399543422
  0
ARC
  5
111
330
1F
100
AcDbEntity
  8
0
  6
Continuous
 62
     7
100
AcDbCircle
 10
408.3550483887772
 20
10.09811377878891
 30
0.0
 40
2.000000238166694
100
AcDbArc
 50
27.81813778977251
 51
82.73476168625301
  0
ARC
  5
112
330
1F
100
AcDbEntity
  8
1
  6
DASHED
 62
     2
100
AcDbCircle
 10
401.1562563216871
 20
26.63512154055972
 30
0.0
 40
23.02499999996931
100
AcDbArc
 50
-78.70580562521053
 51
-72.47683593114547
  0
ARC
  5
113
330
1F
100
AcDbEntity
  8
1
  6
DASHED
 62
     2
100
AcDbCircle
 10
406.4964283229508
 20
9.51900898644351
 30
0.0
 40
0.8512549995111555
100
AcDbArc
 50
18.01843929858681
 51
66.87087726809261
  0
ARC
  5
114
330
1F
100
AcDbEntity
  8
1
  6
DASHED
 62
     2
100
AcDbCircle
 10
401.1562563214188
 20
26.6351215400024
 30
0.0
 40
16.97499999936732
100
AcDbArc
 50
-116.8591055526765
 51
-104.6723569881582
  0
ARC
  5
115
330
1F
100
AcDbEntity
  8
1
  6
DASHED
 62
     2
100
AcDbCircle
 10
393.0351858317254
 20
10.59926050559831
 30
0.0
 40
1.000000001002319
100
AcDbArc
 50
63.14089446656123
 51
87.06693874239159
  0
ARC
  5
116
330
1F
100
AcDbEntity
  8
0
  6
Continuous
 62
     7
100
AcDbCircle
 10
394.1616483887772
 20
7.89811377878891
 30
0.0
 40
2.999999713914522
100
AcDbArc
 50
145.0000031093281
 51
9.99999818489221
  0
ARC
  5
117
330
1F
100
AcDbEntity
  8
0
  6
Continuous
 62
     7
100
AcDbCircle
 10
398.8508623887772
 20
10.09811377878891
 30
0.0
 40
2.0
100
AcDbArc
 50
90.0
 51
-170.0000018151158
  0
ARC
  5
118
330
1F
100
AcDbEntity
  8
0
  6
Continuous
 62
     7
100
AcDbCircle
 10
398.0036123887772
 20
9.89811377878891
 30
0.0
 40
5.000000000000002
100
AcDbArc
 50
90.0
 51
145.0000031090002
  0
ARC
  5
119
330
1F
100
AcDbEntity
  8
0
  6
Continuous
 62
     7
100
AcDbCircle
 10
408.3550483887772
 20
10.09811377878891
 30
0.0
 40
2.000000238100025
100
AcDbArc
 50
82.73476168625301
 51
90.0
  0
ARC
  5
11A
330
1F
100
AcDbEntity
  8
0
  6
Continuous
 62
     7
100
AcDbCircle
 10
413.6616483887772
 20
12.89811377878891
 30
0.0
 40
4.000000058499968
100
AcDbArc
 50
-152.1818622100988
 51
-84.70508283183143
  0
ARC
  5
11B
330
1F
100
AcDbEntity
  8
0
  6
Continuous
 62
     7
100
AcDbCircle
 10
415.7733983887771
 20
6.53524977878891
 30
0.0
 40
2.000000587397682
100
AcDbArc
 50
-25.00000394086302
 51
76.00000337859824
  0
ARC
  5
11C
330
1F
100
AcDbEntity
  8
0
  6
Continuous
 62
     7
100
AcDbCircle
 10
410.6616483887772
 20
16.89811377878891
 30
0.0
 40
2.000000000000002
100
AcDbArc
 50
-90.0
 51
-53.13010235419445
  0
ARC
  5
11D
330
1F
100
AcDbEntity
  8
0
  6
Continuous
 62
     7
100
AcDbCircle
 10
413.6616483887772
 20
12.89811377878891
 30
0.0
 40
2.999999906900231
100
AcDbArc
 50
44.95095183591122
 51
126.8698976458028
  0
ARC
  5
11E
330
1F
100
AcDbEntity
  8
0
  6
Continuous
 62
     7
100
AcDbCircle
 10
417.6616483887772
 20
7.47583277878891
 30
0.0
 40
4.0
100
AcDbArc
 50
0.0
 51
44.9509518351036
  0
ARC
  5
11F
330
1F
100
AcDbEntity
  8
0
  6
Continuous
 62
     7
100
AcDbCircle
 10
414.2153419193772
 20
6.92371638858891
 30
0.0
 40
2.000000000000148
100
AcDbArc
 50
76.0000033805792
 51
95.29491716761318
  0
ARC
  5
120
330
1F
100
AcDbEntity
  8
0
  6
Continuous
 62
     7
100
AcDbCircle
 10
433.1616483887772
 20
7.89811377878891
 30
0.0
 40
2.999999713899561
100
AcDbArc
 50
170.000001815108
 51
34.99999689067252
  0
ARC
  5
121
330
1F
100
AcDbEntity
  8
0
  6
Continuous
 62
     7
100
AcDbCircle
 10
428.4724343887772
 20
10.09811377878891
 30
0.0
 40
2.000000000000241
100
AcDbArc
 50
-9.99999818488482
 51
90.0
  0
ARC
  5
122
330
1F
100
AcDbEntity
  8
0
  6
Continuous
 62
     7
100
AcDbCircle
 10
429.3196843887772
 20
9.89811377878891
 30
0.0
 40
5.000000000000231
100
AcDbArc
 50
34.99999689099942
 51
90.0
  0
ARC
  5
123
330
1F
100
AcDbEntity
  8
0
  6
Continuous
 62
     7
100
AcDbCircle
 10
413.1079548581772
 20
6.92371638858891
 30
0.0
 40
2.000000000000302
100
AcDbArc
 50
84.70508283238522
 51
103.9999966194177
  0
ARC
  5
124
330
1F
100
AcDbEntity
  8
0
  6
Continuous
 62
     7
100
AcDbCircle
 10
409.6616483887772
 20
7.47583277878891
 30
0.0
 40
4.000000000000149
100
AcDbArc
 50
135.0489633727966
 51
180.0
  0
ARC
  5
125
330
1F
100
AcDbEntity
  8
0
  6
Continuous
 62
     7
100
AcDbCircle
 10
416.6616483887772
 20
16.89811377878891
 30
0.0
 40
2.000000000000035
100
AcDbArc
 50
-126.870412298713
 51
-90.0
  0
ARC
  5
126
330
1F
100
AcDbEntity
  8
0
  6
Continuous
 62
     7
100
AcDbCircle
 10
418.9682483887772
 20
10.09811377878891
 30
0.0
 40
2.000000238100184
100
AcDbArc
 50
90.00006261560044
 51
97.03835364540178
  0
ARC
  5
127
330
1F
100
AcDbEntity
  8
0
  6
Continuous
 62
     7
100
AcDbCircle
 10
411.5498983887772
 20
6.53524977878891
 30
0.0
 40
2.000000587400057
100
AcDbArc
 50
104.0002493777079
 51
-154.9999960591356
  0
ARC
  5
128
330
1F
100
AcDbEntity
  8
0
  6
Continuous
 62
     7
100
AcDbCircle
 10
390.1616483887772
 20
2.3452888937889
 30
0.0
 40
2.0
100
AcDbArc
 50
180.0
 51
-97.9999999993627
  0
ARC
  5
129
330
1F
100
AcDbEntity
  8
0
  6
Continuous
 62
     7
100
AcDbCircle
 10
390.1616483887772
 20
15.05093866388891
 30
0.0
 40
2.000000000013898
100
AcDbArc
 50
97.99999999936269
 51
180.0
  0
ARC
  5
12A
330
1F
100
AcDbEntity
  8
0
  6
Continuous
 62
     3
100
AcDbCircle
 10
390.1616483887772
 20
15.05093866388891
 30
0.0
 40
1.49999999998219
100
AcDbArc
 50
97.9999999985506
 51
180.0
  0
ARC
  5
12B
330
1F
100
AcDbEntity
  8
0
  6
Continuous
 62
     3
100
AcDbCircle
 10
390.1616483887772
 20
2.3452888937889
 30
0.0
 40
1.5
100
AcDbArc
 50
180.0
 51
-97.9999999985506
  0
ARC
  5
12C
330
1F
100
AcDbEntity
  8
0
  6
Continuous
 62
     7
100
AcDbCircle
 10
439.8616483887772
 20
1.91555931108891
 30
0.0
 40
1.499999999982166
100
AcDbArc
 50
-82.00000000145585
 51
0.0
  0
ARC
  5
12D
330
1F
100
AcDbEntity
  8
0
  6
Continuous
 62
     7
100
AcDbCircle
 10
439.8616483887772
 20
13.48066824648891
 30
0.0
 40
1.5
100
AcDbArc
 50
0.0
 51
82.00000000198739
  0
ARC
  5
12E
330
1F
100
AcDbEntity
  8
0
  6
Continuous
 62
     3
100
AcDbCircle
 10
439.8616483887772
 20
2.5155593110889
 30
0.0
 40
1.499999999982167
100
AcDbArc
 50
-82.00000000145586
 51
0.0
  0
ARC
  5
12F
330
1F
100
AcDbEntity
  8
0
  6
Continuous
 62
     3
100
AcDbCircle
 10
439.8616483887772
 20
12.88066824648891
 30
0.0
 40
1.5
100
AcDbArc
 50
0.0
 51
82.00000000198746
  0
ARC
  5
130
330
1F
100
AcDbEntity
  8
0
  6
Continuous
 62
     7
100
AcDbCircle
 10
420.9542119274772
 20
9.4325913855889
 30
0.0
 40
1.000000000004724
100
AcDbArc
 50
73.14178242945532
 51
118.010340804482
  0
ARC
  5
131
330
1F
100
AcDbEntity
  8
0
  6
Continuous
 62
     7
100
AcDbCircle
 10
426.1670404558772
 20
26.63512154058891
 30
0.0
 40
16.97500000000043
100
AcDbArc
 50
-106.8582175739006
 51
-75.32764301149959
  0
ARC
  5
132
330
1F
100
AcDbEntity
  8
0
  6
Continuous
 62
     7
100
AcDbCircle
 10
434.2881109455772
 20
10.5992605065889
 30
0.0
 40
1.000000000029505
100
AcDbArc
 50
20.47082586302256
 51
92.93306124610024
  0
ARC
  5
133
330
1F
100
AcDbEntity
  8
0
  6
Continuous
 62
     7
100
AcDbCircle
 10
435.7117298965772
 20
6.7857001767889
 30
0.0
 40
1.000000000066214
100
AcDbArc
 50
-64.31920239197761
 51
20.47082585765357
  0
ARC
  5
134
330
1F
100
AcDbEntity
  8
0
  6
Continuous
 62
     7
100
AcDbCircle
 10
426.1670404558772
 20
26.63512154058891
 30
0.0
 40
23.02499999999987
100
AcDbArc
 50
-101.2941943747994
 51
-64.31920239159888
  0
ARC
  5
135
330
1F
100
AcDbEntity
  8
0
  6
Continuous
 62
     7
100
AcDbCircle
 10
422.3616483887772
 20
0.19811377878891
 30
0.0
 40
0.2000000000000028
100
AcDbArc
 50
90.0
 51
180.0
  0
ARC
  5
136
330
1F
100
AcDbEntity
  8
0
  6
Continuous
 62
     7
100
AcDbCircle
 10
391.6115668808772
 20
6.7857001767889
 30
0.0
 40
0.9999999999008583
100
AcDbArc
 50
159.5291741403417
 51
-115.6807976028594
  0
ARC
  5
137
330
1F
100
AcDbEntity
  8
0
  6
Continuous
 62
     7
100
AcDbCircle
 10
393.0351858319772
 20
10.5992605065889
 30
0.0
 40
1.00000000000017
100
AcDbArc
 50
87.06693875389325
 51
159.5291741369774
  0
ARC
  5
138
330
1F
100
AcDbEntity
  8
0
  6
Continuous
 62
     7
100
AcDbCircle
 10
401.1562563216772
 20
26.63512154058891
 30
0.0
 40
16.97500000000009
100
AcDbArc
 50
-104.6723569885004
 51
-73.1417824262973
  0
ARC
  5
139
330
1F
100
AcDbEntity
  8
0
  6
Continuous
 62
     7
100
AcDbCircle
 10
406.3690848500772
 20
9.4325913855889
 30
0.0
 40
0.9999999999995989
100
AcDbArc
 50
61.98969175200656
 51
106.8582175739048
  0
ARC
  5
13A
330
1F
100
AcDbEntity
  8
0
  6
Continuous
 62
     7
100
AcDbCircle
 10
401.1562563216772
 20
26.63512154058891
 30
0.0
 40
23.02500000000015
100
AcDbArc
 50
-115.6807976084011
 51
-78.70580562520048
  0
ARC
  5
13B
330
1F
100
AcDbEntity
  8
0
  6
Continuous
 62
     7
100
AcDbCircle
 10
403.6616483887772
 20
1.69811377878891
 30
0.0
 40
0.5
100
AcDbArc
 50
0.0
 51
90.0
  0
ARC
  5
13C
330
1F
100
AcDbEntity
  8
0
  6
Continuous
 62
     7
100
AcDbCircle
 10
398.1616483887772
 20
-2.90188622121121
 30
0.0
 40
3.5
100
AcDbArc
 50
-90.0
 51
-76.27086732458832
  0
ARC
  5
13D
330
1F
100
AcDbEntity
  8
0
  6
Continuous
 62
     7
100
AcDbCircle
 10
387.6616483887772
 20
17.99811377878879
 30
0.0
 40
0.5
100
AcDbArc
 50
90.0
 51
180.0
  0
ARC
  5
13E
330
1F
100
AcDbEntity
  8
0
  6
Continuous
 62
     7
100
AcDbCircle
 10
387.6616483887772
 20
17.99811377878879
 30
0.0
 40
3.0
100
AcDbArc
 50
90.0
 51
180.0
  0
ARC
  5
13F
330
1F
100
AcDbEntity
  8
0
  6
DASHED
 62
     2
100
AcDbCircle
 10
398.1616483887772
 20
-2.90188622121121
 30
0.0
 40
0.5
100
AcDbArc
 50
-90.0
 51
0.0
  0
ARC
  5
140
330
1F
100
AcDbEntity
  8
0
  6
DASHED
 62
     2
100
AcDbCircle
 10
398.1616483887772
 20
-2.90188622121121
 30
0.0
 40
3.499999999999992
100
AcDbArc
 50
-76.27086732458832
 51
0.0
  0
CIRCLE
  5
141
330
1F
100
AcDbEntity
  8
0
  6
Continuous
 62
     7
100
AcDbCircle
 10
408.6616483887772
 20
0.89811377878891
 30
0.0
 40
1.699999999999989
  0
CIRCLE
  5
142
330
1F
100
AcDbEntity
  8
0
  6
Continuous
 62
     7
100
AcDbCircle
 10
408.6616483887772
 20
0.89811377878891
 30
0.0
 40
3.0
  0
CIRCLE
  5
143
330
1F
100
AcDbEntity
  8
0
  6
Continuous
 62
     7
100
AcDbCircle
 10
394.1616483887772
 20
7.89811377878891
 30
0.0
 40
1.949999999999989
  0
CIRCLE
  5
144
330
1F
100
AcDbEntity
  8
0
  6
Continuous
 62
     7
100
AcDbCircle
 10
433.1616483887772
 20
7.89811377878891
 30
0.0
 40
1.949999999999989
  0
CIRCLE
  5
145
330
1F
100
AcDbEntity
  8
0
  6
Continuous
 62
     7
100
AcDbCircle
 10
413.6616483887772
 20
12.89811377878891
 30
0.0
 40
1.699999999999989
  0
CIRCLE
  5
146
330
1F
100
AcDbEntity
  8
0
  6
Continuous
 62
     7
100
AcDbCircle
 10
418.6616483887772
 20
0.89811377878891
 30
0.0
 40
1.699999999999989
  0
SPLINE
  5
147
330
1F
100
AcDbEntity
  8
1
  6
Continuous
 62
     2
100
AcDbSpline
210
0.0
220
0.0
230
1.0
 70
     8
 71
     3
 72
    12
 73
     8
 74
     6
 42
0.0000000001
 43
0.0000000001
 44
0.00000001
 40
0.0
 40
0.0
 40
0.0
 40
0.0
 40
0.2775291599796334
 40
0.5641738536599625
 40
0.8992522958634162
 40
1.297504019331686
 40
1.680834346735589
 40
1.680834346735589
 40
1.680834346735589
 40
1.680834346735589
 10
425.6616483887776
 20
60.29081661648903
 30
0.0
 10
425.7495922627286
 20
60.3600163232601
 30
0.0
 10
425.928368555196
 20
60.50068862322324
 30
0.0
 10
426.1295161388109
 20
60.13594064452819
 30
0.0
 10
426.4990997821192
 20
60.30009285263623
 30
0.0
 10
426.8179475975449
 20
60.56487504643436
 30
0.0
 10
427.0485489494642
 20
60.38099928570765
 30
0.0
 10
427.1616483887776
 20
60.29081661648903
 30
0.0
 11
425.6616483887776
 21
60.29081661648903
 31
0.0
 11
425.9127563283194
 21
60.40899968354215
 31
0.0
 11
426.1370075963695
 21
60.23045963427301
 31
0.0
 11
426.4644492702802
 21
60.30158988533412
 31
0.0
 11
426.8241375181607
 21
60.47255420787567
 31
0.0
 11
427.1616483887776
 21
60.29081661648903
 31
0.0
  0
XLINE
  5
148
330
1F
100
AcDbEntity
  8
1
  6
DOT_CENTER
 62
     3
 60
     1
100
AcDbXline
 10
401.1562563216772
 20
26.63512154058891
 30
0.0
 11
0.0
 21
1.0
 31
0.0
  0
XLINE
  5
149
330
1F
100
AcDbEntity
  8
1
  6
DOT_CENTER
 62
     3
 60
     1
100
AcDbXline
 10
413.6616483887772
 20
12.1556137787889
 30
0.0
 11
0.0
 21
1.0
 31
0.0
  0
XLINE
  5
14A
330
1F
100
AcDbEntity
  8
1
  6
DOT_CENTER
 62
     3
 60
     1
100
AcDbXline
 10
413.6616483887772
 20
12.1556137787889
 30
0.0
 11
0.0
 21
1.0
 31
0.0
  0
XLINE
  5
14B
330
1F
100
AcDbEntity
  8
1
  6
DOT_CENTER
 62
     3
 60
     1
100
AcDbXline
 10
413.6616483887772
 20
12.1556137787889
 30
0.0
 11
0.0
 21
1.0
 31
0.0
  0
XLINE
  5
14C
330
1F
100
AcDbEntity
  8
1
  6
DOT_CENTER
 62
     3
 60
     1
100
AcDbXline
 10
413.6616483887772
 20
12.1556137787889
 30
0.0
 11
0.0
 21
1.0
 31
0.0
  0
ARC
  5
14D
330
1F
100
AcDbEntity
  8
1
  6
Continuous
 62
     7
100
AcDbCircle
 10
412.1616483887776
 20
50.6981137787885
 30
0.0
 40
1.500000000000064
100
AcDbArc
 50
90.0
 51
179.9999999999995
  0
ARC
  5
14E
330
1F
100
AcDbEntity
  8
1
  6
Continuous
 62
     7
100
AcDbCircle
 10
412.6616483887776
 20
50.1981137787885
 30
0.0
 40
0.5
100
AcDbArc
 50
90.0
 51
180.0
  0
ARC
  5
14F
330
1F
100
AcDbEntity
  8
1
  6
Continuous
 62
     7
100
AcDbCircle
 10
425.1616483887775
 20
39.19811377878854
 30
0.0
 40
2.000000000000071
100
AcDbArc
 50
-90.0
 51
-0.00000000000102
  0
ARC
  5
150
330
1F
100
AcDbEntity
  8
1
  6
Continuous
 62
     7
100
AcDbCircle
 10
423.1507850366399
 20
39.19811377878857
 30
0.0
 40
2.000000000000015
100
AcDbArc
 50
-109.1881364537212
 51
-90.0
  0
ARC
  5
151
330
1F
100
AcDbEntity
  8
1
  6
Continuous
 62
     7
100
AcDbCircle
 10
424.6616483887776
 20
39.6981137787885
 30
0.0
 40
1.0
100
AcDbArc
 50
-90.0
 51
0.0
  0
ARC
  5
152
330
1F
100
AcDbEntity
  8
1
  6
Continuous
 62
     7
100
AcDbCircle
 10
423.8023977230605
 20
39.6981137787885
 30
0.0
 40
1.000000000000038
100
AcDbArc
 50
164.9999999999977
 51
-90.0
  0
ARC
  5
153
330
1F
100
AcDbEntity
  8
1
  6
Continuous
 62
     7
100
AcDbCircle
 10
424.1616483887776
 20
50.6981137787885
 30
0.0
 40
1.500000000000101
100
AcDbArc
 50
-15.00000000000018
 51
90.0
  0
ARC
  5
154
330
1F
100
AcDbEntity
  8
1
  6
Continuous
 62
     7
100
AcDbCircle
 10
423.5100357023571
 20
50.1981137787885
 30
0.0
 40
0.5000000000000152
100
AcDbArc
 50
-15.00000000000074
 51
90.0
  0
ARC
  5
155
330
1F
100
AcDbEntity
  8
1
  6
Continuous
 62
     7
100
AcDbCircle
 10
423.1507850366399
 20
39.19811377878857
 30
0.0
 40
1.99999999999981
100
AcDbArc
 50
165.0000000000009
 51
-109.1881364537212
  0
ARC
  5
156
330
1F
100
AcDbEntity
  8
1
  6
Continuous
 62
     7
100
AcDbCircle
 10
423.1507850366399
 20
39.19811377878857
 30
0.0
 40
2.999999999999896
100
AcDbArc
 50
165.0000000000007
 51
-109.1881364537205
  0
ARC
  5
157
330
1F
100
AcDbEntity
  8
1
  6
Continuous
 62
     7
100
AcDbCircle
 10
384.6616483887769
 20
-5.80188622121119
 30
0.0
 40
1.0
100
AcDbArc
 50
180.0
 51
-89.99999999999349
  0
ARC
  5
158
330
1F
100
AcDbEntity
  8
1
  6
Continuous
 62
     7
100
AcDbCircle
 10
384.6616483887769
 20
-5.80188622121119
 30
0.0
 40
2.5
100
AcDbArc
 50
-180.0
 51
-90.0
  0
ARC
  5
159
330
1F
100
AcDbEntity
  8
1
  6
Continuous
 62
     7
100
AcDbCircle
 10
409.6616483887776
 20
-5.80188622121111
 30
0.0
 40
2.499999999999984
100
AcDbArc
 50
-90.0
 51
0.0
  0
ARC
  5
15A
330
1F
100
AcDbEntity
  8
1
  6
Continuous
 62
     7
100
AcDbCircle
 10
409.6616483887776
 20
-5.80188622121111
 30
0.0
 40
1.000000000000068
100
AcDbArc
 50
-90.0
 51
0.0
  0
ARC
  5
15B
330
1F
100
AcDbEntity
  8
1
  6
DASHED
 62
     2
100
AcDbCircle
 10
419.535503418207
 20
5.63218504308911
 30
0.0
 40
0.9999999999999144
100
AcDbArc
 50
159.5291741406996
 51
-107.5231640688569
  0
ARC
  5
15C
330
1F
100
AcDbEntity
  8
1
  6
DASHED
 62
     2
100
AcDbCircle
 10
407.7877933593474
 20
5.63218504308911
 30
0.0
 40
1.000000000000056
100
AcDbArc
 50
-72.47683593114621
 51
20.47082585929811
  0
DIMENSION
  5
169
330
1F
100
AcDbEntity
  8
1
100
AcDbDimension
  2
*D1
 10
415.1616483887773
 20
-27.1550506699423
 30
0.0
 11
427.461448658871
 21
-23.4050506699423
 31
0.0
 70
    32
  1
27
 71
     5
 42
-1.0
 53
0.00013888888889
  3
ME10_DIM_10
100
AcDbAlignedDimension
 13
441.8616483887772
 23
5.69811377878891
 33
0.0
 14
415.1616483887773
 24
-2.30188622121105
 34
0.0
100
AcDbRotatedDimension
  0
DIMENSION
  5
174
330
1F
100
AcDbEntity
  8
1
100
AcDbDimension
  2
*D2
 10
388.1616483887772
 20
-27.1550506699423
 30
0.0
 11
402.207287733311
 21
-23.4050506699423
 31
0.0
 70
    32
  1
<>
 71
     5
 42
-1.0
 53
0.00013888888889
  3
ME10_DIM_11
100
AcDbAlignedDimension
 13
412.1616483887772
 23
-3.2518862212111
 33
0.0
 14
388.1616483887772
 24
2.3452888937889
 34
0.0
100
AcDbRotatedDimension
  0
DIMENSION
  5
17F
330
1F
100
AcDbEntity
  8
1
100
AcDbDimension
  2
*D3
 10
469.993503543405
 20
15.69811377878891
 30
0.0
 11
466.243503543405
 21
7.47583277878891
 31
0.0
 70
    32
  1
<>
 71
     5
 42
-1.0
 53
90.0
  3
ME10_DIM_12
100
AcDbAlignedDimension
 13
434.8616483887772
 23
-0.30188622121109
 33
0.0
 14
434.8616483887772
 24
15.69811377878891
 34
0.0
 50
90.0
100
AcDbRotatedDimension
  0
DIMENSION
  5
18C
330
1F
100
AcDbEntity
  8
1
100
AcDbDimension
  2
*D4
 10
479.834030863908
 20
-6.30188622121109
 30
0.0
 11
476.084030863908
 21
-9.0889444850404
 31
0.0
 70
    32
  1
<>
 71
     5
 42
-1.0
 53
90.0
  3
ME10_DIM_13
100
AcDbAlignedDimension
 13
425.1616483887772
 23
-2.30188622121109
 33
0.0
 14
460.1616483887774
 24
-6.30188622121109
 34
0.0
 50
90.0
100
AcDbRotatedDimension
  0
DIMENSION
  5
198
330
1F
100
AcDbEntity
  8
1
100
AcDbDimension
  2
*D5
 10
479.834030863908
 20
-2.3018862212111
 30
0.0
 11
476.084030863908
 21
5.74600727190575
 31
0.0
 70
    32
  1
<>
 71
     5
 42
-1.0
 53
90.0
  3
ME10_DIM_14
100
AcDbAlignedDimension
 13
434.8616483887772
 23
15.69811377878891
 33
0.0
 14
425.1616483887772
 24
-2.30188622121109
 34
0.0
 50
90.0
100
AcDbRotatedDimension
  0
DIMENSION
  5
1A5
330
1F
100
AcDbEntity
  8
1
100
AcDbDimension
  2
*D6
 10
372.774330163835
 20
-8.3018862212112
 30
0.0
 11
369.024330163835
 21
-11.08894448504042
 31
0.0
 70
    32
  1
<>
 71
     5
 42
-1.0
 53
90.0
  3
ME10_DIM_15
100
AcDbAlignedDimension
 13
402.1616483887772
 23
-3.30188622121109
 33
0.0
 14
384.6616483887769
 24
-8.30188622121119
 34
0.0
 50
90.0
100
AcDbRotatedDimension
  0
DIMENSION
  5
1B0
330
1F
100
AcDbEntity
  8
1
100
AcDbDimension
  2
*D7
 10
372.774330163835
 20
-3.3018862212111
 30
0.0
 11
369.024330163835
 21
7.81917132692653
 31
0.0
 70
    32
  1
<>
 71
     5
 42
-1.0
 53
90.0
  3
ME10_DIM_16
100
AcDbAlignedDimension
 13
394.6266849827773
 23
17.69811377878891
 33
0.0
 14
402.1616483887772
 24
-3.30188622121109
 34
0.0
 50
90.0
100
AcDbRotatedDimension
  0
DIMENSION
  5
1BD
330
1F
100
AcDbEntity
  8
1
100
AcDbDimension
  2
*D8
 10
412.1616483887776
 20
-17.24546376525274
 30
0.0
 11
407.7738618538805
 21
-13.49546376525274
 31
0.0
 70
    32
  1
<>
 71
     5
 42
-1.0
 53
0.00013888888889
  3
ME10_DIM_17
100
AcDbAlignedDimension
 13
415.1616483887772
 23
-6.30188622121109
 33
0.0
 14
412.1616483887776
 24
-5.80188622121111
 34
0.0
100
AcDbRotatedDimension
  0
ENDSEC
  0
SECTION
  2
OBJECTS
  0
DICTIONARY
  5
C
330
0
100
AcDbDictionary
281
     1
  3
ACAD_GROUP
350
D
  3
ACAD_LAYOUT
350
1A
  3
ACAD_MLINESTYLE
350
17
  3
ACAD_PLOTSETTINGS
350
19
  3
ACAD_PLOTSTYLENAME
350
E
  0
DICTIONARY
  5
D
102
{ACAD_REACTORS
330
C
102
}
330
C
100
AcDbDictionary
281
     1
  0
DICTIONARY
  5
1A
102
{ACAD_REACTORS
330
C
102
}
330
C
100
AcDbDictionary
281
     1
  3
Layout1
350
1E
  3
Layout2
350
26
  3
Model
350
22
  0
DICTIONARY
  5
17
102
{ACAD_REACTORS
330
C
102
}
330
C
100
AcDbDictionary
281
     1
  3
Standard
350
18
  0
DICTIONARY
  5
19
102
{ACAD_REACTORS
330
C
102
}
330
C
100
AcDbDictionary
281
     1
  0
ACDBDICTIONARYWDFLT
  5
E
102
{ACAD_REACTORS
330
C
102
}
330
C
100
AcDbDictionary
281
     1
  3
Normal
350
F
100
AcDbDictionaryWithDefault
340
F
  0
LAYOUT
  5
1E
102
{ACAD_REACTORS
330
1A
102
}
330
1A
100
AcDbPlotSettings
  1

  2

  4

  6

 40
0.0
 41
0.0
 42
0.0
 43
0.0
 44
0.0
 45
0.0
 46
0.0
 47
0.0
 48
0.0
 49
0.0
140
0.0
141
0.0
142
1.0
143
1.0
 70
   688
 72
     0
 73
     0
 74
     5
  7

 75
    16
 76
     0
 77
     2
 78
   300
147
1.0
148
0.0
149
0.0
100
AcDbLayout
  1
Layout1
 70
     1
 71
     1
 10
0.0
 20
0.0
 11
0.0
 21
0.0
 12
0.0
 22
0.0
 32
0.0
 14
0.0
 24
0.0
 34
0.0
 15
0.0
 25
0.0
 35
0.0
146
0.0
 13
0.0
 23
0.0
 33
0.0
 16
1.0
 26
0.0
 36
0.0
 17
0.0
 27
1.0
 37
0.0
 76
     0
330
1B
  0
LAYOUT
  5
26
102
{ACAD_REACTORS
330
1A
102
}
330
1A
100
AcDbPlotSettings
  1

  2

  4

  6

 40
0.0
 41
0.0
 42
0.0
 43
0.0
 44
0.0
 45
0.0
 46
0.0
 47
0.0
 48
0.0
 49
0.0
140
0.0
141
0.0
142
1.0
143
1.0
 70
   688
 72
     0
 73
     0
 74
     5
  7

 75
    16
 76
     0
 77
     2
 78
   300
147
1.0
148
0.0
149
0.0
100
AcDbLayout
  1
Layout2
 70
     1
 71
     2
 10
0.0
 20
0.0
 11
0.0
 21
0.0
 12
0.0
 22
0.0
 32
0.0
 14
0.0
 24
0.0
 34
0.0
 15
0.0
 25
0.0
 35
0.0
146
0.0
 13
0.0
 23
0.0
 33
0.0
 16
1.0
 26
0.0
 36
0.0
 17
0.0
 27
1.0
 37
0.0
 76
     0
330
23
  0
LAYOUT
  5
22
102
{ACAD_REACTORS
330
1A
102
}
330
1A
100
AcDbPlotSettings
  1

  2

  4

  6

 40
0.0
 41
0.0
 42
0.0
 43
0.0
 44
0.0
 45
0.0
 46
0.0
 47
0.0
 48
0.0
 49
0.0
140
0.0
141
0.0
142
1.0
143
1.0
 70
  1712
 72
     0
 73
     0
 74
     0
  7

 75
     0
 76
     0
 77
     2
 78
   300
147
1.0
148
0.0
149
0.0
100
AcDbLayout
  1
Model
 70
     1
 71
     0
 10
0.0
 20
0.0
 11
0.0
 21
0.0
 12
0.0
 22
0.0
 32
0.0
 14
367.274330163835
 24
-29.1550506699423
 34
0.0
 15
481.834030863908
 25
60.48695689143428
 35
0.0
146
0.0
 13
0.0
 23
0.0
 33
0.0
 16
1.0
 26
0.0
 36
0.0
 17
0.0
 27
1.0
 37
0.0
 76
     0
330
1F
  0
MLINESTYLE
  5
18
102
{ACAD_REACTORS
330
17
102
}
330
17
100
AcDbMlineStyle
  2
Standard
 70
     0
  3

 62
   256
 51
90.0
 52
90.0
 71
     2
 49
0.5
 62
   256
  6
BYLAYER
 49
-0.5
 62
   256
  6
BYLAYER
  0
ACDBPLACEHOLDER
  5
F
102
{ACAD_REACTORS
330
E
102
}
330
E
  0
ENDSEC
  0
EOF
