  0
SECTION
  2
HEADER
  9
$ACADVER
  1
AC1015
  9
$ACADMAINTVER
 70
     6
  9
$DWGCODEPAGE
  3
ANSI_1252
  9
$INSBASE
 10
0.0
 20
0.0
 30
0.0
  9
$EXTMIN
 10
-226.4130699746456
 20
-201.1114976387062
 30
0.0
  9
$EXTMAX
 10
183.5869300253544
 20
84.88850236129383
 30
0.0
  9
$LIMMIN
 10
0.0
 20
0.0
  9
$LIMMAX
 10
12.0
 20
9.0
  9
$ORTHOMODE
 70
     0
  9
$REGENMODE
 70
     1
  9
$FILLMODE
 70
     1
  9
$QTEXTMODE
 70
     0
  9
$MIRRTEXT
 70
     1
  9
$LTSCALE
 40
1.0
  9
$ATTMODE
 70
     1
  9
$TEXTSIZE
 40
0.2
  9
$TRACEWID
 40
0.05
  9
$TEXTSTYLE
  7
Standard
  9
$CLAYER
  8
0
  9
$CELTYPE
  6
ByLayer
  9
$CECOLOR
 62
   256
  9
$CELTSCALE
 40
1.0
  9
$DISPSILH
 70
     0
  9
$DIMSCALE
 40
1.0
  9
$DIMASZ
 40
0.18
  9
$DIMEXO
 40
0.0625
  9
$DIMDLI
 40
0.38
  9
$DIMRND
 40
0.0
  9
$DIMDLE
 40
0.0
  9
$DIMEXE
 40
0.18
  9
$DIMTP
 40
0.0
  9
$DIMTM
 40
0.0
  9
$DIMTXT
 40
0.18
  9
$DIMCEN
 40
0.09
  9
$DIMTSZ
 40
0.0
  9
$DIMTOL
 70
     0
  9
$DIMLIM
 70
     0
  9
$DIMTIH
 70
     1
  9
$DIMTOH
 70
     1
  9
$DIMSE1
 70
     0
  9
$DIMSE2
 70
     0
  9
$DIMTAD
 70
     0
  9
$DIMZIN
 70
     0
  9
$DIMBLK
  1

  9
$DIMASO
 70
     1
  9
$DIMSHO
 70
     1
  9
$DIMPOST
  1

  9
$DIMAPOST
  1

  9
$DIMALT
 70
     0
  9
$DIMALTD
 70
     2
  9
$DIMALTF
 40
25.4
  9
$DIMLFAC
 40
1.0
  9
$DIMTOFL
 70
     0
  9
$DIMTVP
 40
0.0
  9
$DIMTIX
 70
     0
  9
$DIMSOXD
 70
     0
  9
$DIMSAH
 70
     0
  9
$DIMBLK1
  1

  9
$DIMBLK2
  1

  9
$DIMSTYLE
  2
Standard
  9
$DIMCLRD
 70
     0
  9
$DIMCLRE
 70
     0
  9
$DIMCLRT
 70
     0
  9
$DIMTFAC
 40
1.0
  9
$DIMGAP
 40
0.09
  9
$DIMJUST
 70
     0
  9
$DIMSD1
 70
     0
  9
$DIMSD2
 70
     0
  9
$DIMTOLJ
 70
     1
  9
$DIMTZIN
 70
     0
  9
$DIMALTZ
 70
     0
  9
$DIMALTTZ
 70
     0
  9
$DIMUPT
 70
     0
  9
$DIMDEC
 70
     4
  9
$DIMTDEC
 70
     4
  9
$DIMALTU
 70
     2
  9
$DIMALTTD
 70
     2
  9
$DIMTXSTY
  7
Standard
  9
$DIMAUNIT
 70
     0
  9
$DIMADEC
 70
     0
  9
$DIMALTRND
 40
0.0
  9
$DIMAZIN
 70
     0
  9
$DIMDSEP
 70
    46
  9
$DIMATFIT
 70
     3
  9
$DIMFRAC
 70
     0
  9
$DIMLDRBLK
  1

  9
$DIMLUNIT
 70
     2
  9
$DIMLWD
 70
    -2
  9
$DIMLWE
 70
    -2
  9
$DIMTMOVE
 70
     0
  9
$LUNITS
 70
     2
  9
$LUPREC
 70
     4
  9
$SKETCHINC
 40
0.1
  9
$FILLETRAD
 40
0.5
  9
$AUNITS
 70
     0
  9
$AUPREC
 70
     0
  9
$MENU
  1
.
  9
$ELEVATION
 40
0.0
  9
$PELEVATION
 40
0.0
  9
$THICKNESS
 40
0.0
  9
$LIMCHECK
 70
     0
  9
$CHAMFERA
 40
0.5
  9
$CHAMFERB
 40
0.5
  9
$CHAMFERC
 40
1.0
  9
$CHAMFERD
 40
0.0
  9
$SKPOLY
 70
     0
  9
$TDCREATE
 40
2455131.640956586
  9
$TDUCREATE
 40
2455131.599289919
  9
$TDUPDATE
 40
2455131.640956597
  9
$TDUUPDATE
 40
2455131.59928993
  9
$TDINDWG
 40
0.0000000116
  9
$TDUSRTIMER
 40
0.0000000116
  9
$USRTIMER
 70
     1
  9
$ANGBASE
 50
0.0
  9
$ANGDIR
 70
     0
  9
$PDMODE
 70
     0
  9
$PDSIZE
 40
0.0
  9
$PLINEWID
 40
0.0
  9
$SPLFRAME
 70
     0
  9
$SPLINETYPE
 70
     6
  9
$SPLINESEGS
 70
     8
  9
$HANDSEED
  5
38E
  9
$SURFTAB1
 70
     6
  9
$SURFTAB2
 70
     6
  9
$SURFTYPE
 70
     6
  9
$SURFU
 70
     6
  9
$SURFV
 70
     6
  9
$UCSBASE
  2

  9
$UCSNAME
  2

  9
$UCSORG
 10
0.0
 20
0.0
 30
0.0
  9
$UCSXDIR
 10
1.0
 20
0.0
 30
0.0
  9
$UCSYDIR
 10
0.0
 20
1.0
 30
0.0
  9
$UCSORTHOREF
  2

  9
$UCSORTHOVIEW
 70
     0
  9
$UCSORGTOP
 10
0.0
 20
0.0
 30
0.0
  9
$UCSORGBOTTOM
 10
0.0
 20
0.0
 30
0.0
  9
$UCSORGLEFT
 10
0.0
 20
0.0
 30
0.0
  9
$UCSORGRIGHT
 10
0.0
 20
0.0
 30
0.0
  9
$UCSORGFRONT
 10
0.0
 20
0.0
 30
0.0
  9
$UCSORGBACK
 10
0.0
 20
0.0
 30
0.0
  9
$PUCSBASE
  2

  9
$PUCSNAME
  2

  9
$PUCSORG
 10
0.0
 20
0.0
 30
0.0
  9
$PUCSXDIR
 10
1.0
 20
0.0
 30
0.0
  9
$PUCSYDIR
 10
0.0
 20
1.0
 30
0.0
  9
$PUCSORTHOREF
  2

  9
$PUCSORTHOVIEW
 70
     0
  9
$PUCSORGTOP
 10
0.0
 20
0.0
 30
0.0
  9
$PUCSORGBOTTOM
 10
0.0
 20
0.0
 30
0.0
  9
$PUCSORGLEFT
 10
0.0
 20
0.0
 30
0.0
  9
$PUCSORGRIGHT
 10
0.0
 20
0.0
 30
0.0
  9
$PUCSORGFRONT
 10
0.0
 20
0.0
 30
0.0
  9
$PUCSORGBACK
 10
0.0
 20
0.0
 30
0.0
  9
$USERI1
 70
     0
  9
$USERI2
 70
     0
  9
$USERI3
 70
     0
  9
$USERI4
 70
     0
  9
$USERI5
 70
     0
  9
$USERR1
 40
14.5
  9
$USERR2
 40
0.0
  9
$USERR3
 40
0.0
  9
$USERR4
 40
0.0
  9
$USERR5
 40
0.0
  9
$WORLDVIEW
 70
     1
  9
$SHADEDGE
 70
     3
  9
$SHADEDIF
 70
    70
  9
$TILEMODE
 70
     1
  9
$MAXACTVP
 70
    64
  9
$PINSBASE
 10
0.0
 20
0.0
 30
0.0
  9
$PLIMCHECK
 70
     0
  9
$PEXTMIN
 10
1.00000000000000E+20
 20
1.00000000000000E+20
 30
1.00000000000000E+20
  9
$PEXTMAX
 10
-1.00000000000000E+20
 20
-1.00000000000000E+20
 30
-1.00000000000000E+20
  9
$PLIMMIN
 10
0.0
 20
0.0
  9
$PLIMMAX
 10
12.0
 20
9.0
  9
$UNITMODE
 70
     0
  9
$VISRETAIN
 70
     1
  9
$PLINEGEN
 70
     0
  9
$PSLTSCALE
 70
     1
  9
$TREEDEPTH
 70
  3020
  9
$CMLSTYLE
  2
Standard
  9
$CMLJUST
 70
     0
  9
$CMLSCALE
 40
1.0
  9
$PROXYGRAPHICS
 70
     1
  9
$MEASUREMENT
 70
     1
  9
$CELWEIGHT
370
    -1
  9
$ENDCAPS
280
     0
  9
$JOINSTYLE
280
     0
  9
$LWDISPLAY
290
     0
  9
$INSUNITS
 70
     1
  9
$HYPERLINKBASE
  1

  9
$STYLESHEET
  1

  9
$XEDIT
290
     1
  9
$CEPSNTYPE
380
     0
  9
$PSTYLEMODE
290
     1
  9
$FINGERPRINTGUID
  2
{E960E36B-5900-4600-B9EE-736E0E63F385}
  9
$VERSIONGUID
  2
{FAEB1C32-E019-11D5-929B-00C0DF256EC4}
  9
$EXTNAMES
290
     1
  9
$PSVPSCALE
 40
0.0
  9
$OLESTARTUP
290
     0
  0
ENDSEC
  0
SECTION
  2
CLASSES
  0
CLASS
  1
ACDBDICTIONARYWDFLT
  2
AcDbDictionaryWithDefault
  3
ObjectDBX Classes
 90
        0
280
     0
281
     0
  0
CLASS
  1

  2
exOdDbCircle
  3

 90
        0
280
     0
281
     1
  0
CLASS
  1

  2
exOdDbSpline
  3

 90
        0
280
     0
281
     1
  0
CLASS
  1

  2
exOdDbPolyline
  3

 90
        0
280
     0
281
     1
  0
CLASS
  1
ACDBPLACEHOLDER
  2
AcDbPlaceHolder
  3
ObjectDBX Classes
 90
        0
280
     0
281
     0
  0
CLASS
  1
LAYOUT
  2
AcDbLayout
  3
ObjectDBX Classes
 90
        0
280
     0
281
     0
  0
ENDSEC
  0
SECTION
  2
TABLES
  0
TABLE
  2
VPORT
  5
8
330
0
100
AcDbSymbolTable
 70
     1
  0
VPORT
  5
29
330
8
100
AcDbSymbolTableRecord
100
AcDbViewportTableRecord
  2
*Active
 70
     0
 10
0.0
 20
0.0
 11
1.0
 21
1.0
 12
-21.41306997464559
 22
-58.11149763870618
 13
0.0
 23
0.0
 14
0.5
 24
0.5
 15
0.5
 25
0.5
 16
0.0
 26
0.0
 36
1.0
 17
0.0
 27
0.0
 37
0.0
 40
314.6
 41
1.60267857142857
 42
50.0
 43
0.0
 44
0.0
 50
0.0
 51
0.0
 71
     0
 72
   100
 73
     1
 74
     3
 75
     0
 76
     0
 77
     0
 78
     0
281
     0
 65
     1
110
0.0
120
0.0
130
0.0
111
1.0
121
0.0
131
0.0
112
0.0
122
1.0
132
0.0
 79
     0
146
0.0
  0
ENDTAB
  0
TABLE
  2
LTYPE
  5
5
330
0
100
AcDbSymbolTable
 70
     9
  0
LTYPE
  5
14
330
5
100
AcDbSymbolTableRecord
100
AcDbLinetypeTableRecord
  2
ByBlock
 70
     0
  3

 72
    65
 73
     0
 40
0.0
  0
LTYPE
  5
15
330
5
100
AcDbSymbolTableRecord
100
AcDbLinetypeTableRecord
  2
ByLayer
 70
     0
  3

 72
    65
 73
     0
 40
0.0
  0
LTYPE
  5
16
330
5
100
AcDbSymbolTableRecord
100
AcDbLinetypeTableRecord
  2
Continuous
 70
     0
  3
Solid line
 72
    65
 73
     0
 40
0.0
  0
LTYPE
  5
2A
330
5
100
AcDbSymbolTableRecord
100
AcDbLinetypeTableRecord
  2
DASHED
 70
     0
  3
Dashed
 72
    65
 73
     2
 40
15.0
 49
7.0
 74
     0
 49
-8.0
 74
     0
  0
LTYPE
  5
2B
330
5
100
AcDbSymbolTableRecord
100
AcDbLinetypeTableRecord
  2
DOTTED
 70
     0
  3
Dotted
 72
    65
 73
     2
 40
1.0
 49
0.0
 74
     0
 49
-1.0
 74
     0
  0
LTYPE
  5
2C
330
5
100
AcDbSymbolTableRecord
100
AcDbLinetypeTableRecord
  2
DOT_CENTER
 70
     0
  3
Dot_Center
 72
    65
 73
     4
 40
14.0
 49
12.0
 74
     0
 49
-1.0
 74
     0
 49
0.0
 74
     0
 49
-1.0
 74
     0
  0
LTYPE
  5
2D
330
5
100
AcDbSymbolTableRecord
100
AcDbLinetypeTableRecord
  2
LONG_DASHED
 70
     0
  3
Long_Dashed
 72
    65
 73
     2
 40
15.0
 49
10.0
 74
     0
 49
-5.0
 74
     0
  0
LTYPE
  5
2E
330
5
100
AcDbSymbolTableRecord
100
AcDbLinetypeTableRecord
  2
DASH_CENTER
 70
     0
  3
Dash_Center
 72
    65
 73
     4
 40
14.0
 49
11.0
 74
     0
 49
-1.0
 74
     0
 49
1.0
 74
     0
 49
-1.0
 74
     0
  0
LTYPE
  5
2F
330
5
100
AcDbSymbolTableRecord
100
AcDbLinetypeTableRecord
  2
PHANTOM
 70
     0
  3
Phantom
 72
    65
 73
     6
 40
13.0
 49
10.0
 74
     0
 49
-1.0
 74
     0
 49
0.0
 74
     0
 49
-1.0
 74
     0
 49
0.0
 74
     0
 49
-1.0
 74
     0
  0
LTYPE
  5
30
330
5
100
AcDbSymbolTableRecord
100
AcDbLinetypeTableRecord
  2
CENTER_DASH_DASH
 70
     0
  3
Center_Dash_Dash
 72
    65
 73
     6
 40
14.0
 49
9.0
 74
     0
 49
-1.0
 74
     0
 49
1.0
 74
     0
 49
-1.0
 74
     0
 49
1.0
 74
     0
 49
-1.0
 74
     0
  0
LTYPE
  5
31
330
5
100
AcDbSymbolTableRecord
100
AcDbLinetypeTableRecord
  2
CENTER
 70
     0
  3
CENTER
 72
    65
 73
     4
 40
14.0
 49
8.0
 74
     0
 49
-2.0
 74
     0
 49
2.0
 74
     0
 49
-2.0
 74
     0
  0
ENDTAB
  0
TABLE
  2
LAYER
  5
2
330
0
100
AcDbSymbolTable
 70
     3
  0
LAYER
  5
10
330
2
100
AcDbSymbolTableRecord
100
AcDbLayerTableRecord
  2
0
 70
     0
 62
     7
  6
Continuous
370
    -3
390
F
  0
LAYER
  5
32
330
2
100
AcDbSymbolTableRecord
100
AcDbLayerTableRecord
  2
1
 70
     0
 62
     7
  6
Continuous
370
    -3
390
F
  0
LAYER
  5
33
330
2
100
AcDbSymbolTableRecord
100
AcDbLayerTableRecord
  2
DEFAULT_1
 70
     0
 62
     7
  6
Continuous
370
    -3
390
F
  0
ENDTAB
  0
TABLE
  2
STYLE
  5
3
330
0
100
AcDbSymbolTable
 70
     5
  0
STYLE
  5
11
330
3
100
AcDbSymbolTableRecord
100
AcDbTextStyleTableRecord
  2
Standard
 70
     0
 40
0.0
 41
1.0
 50
0.0
 71
     0
 42
0.2
  3
txt
  4

  0
STYLE
  5
12A
330
3
100
AcDbSymbolTableRecord
100
AcDbTextStyleTableRecord
  2
CONVERTER_11
 70
     0
 40
0.0
 41
0.9
 50
0.0
 71
     0
 42
0.2
  3
txt.shx
  4

  0
STYLE
  5
12F
330
3
100
AcDbSymbolTableRecord
100
AcDbTextStyleTableRecord
  2
CONVERTER_12
 70
     0
 40
0.0
 41
0.72
 50
0.0
 71
     0
 42
0.2
  3
txt.shx
  4

  0
STYLE
  5
131
330
3
100
AcDbSymbolTableRecord
100
AcDbTextStyleTableRecord
  2
CONVERTER_13
 70
     0
 40
0.0
 41
0.81
 50
0.0
 71
     0
 42
0.2
  3
txt.shx
  4

  0
STYLE
  5
13D
330
3
100
AcDbSymbolTableRecord
100
AcDbTextStyleTableRecord
  2
CONVERTER_14
 70
     0
 40
0.0
 41
0.855
 50
0.0
 71
     0
 42
0.2
  3
txt.shx
  4

  0
ENDTAB
  0
TABLE
  2
VIEW
  5
6
330
0
100
AcDbSymbolTable
 70
     0
  0
ENDTAB
  0
TABLE
  2
UCS
  5
7
330
0
100
AcDbSymbolTable
 70
     0
  0
ENDTAB
  0
TABLE
  2
APPID
  5
9
330
0
100
AcDbSymbolTable
 70
     1
  0
APPID
  5
12
330
9
100
AcDbSymbolTableRecord
100
AcDbRegAppTableRecord
  2
ACAD
 70
     0
  0
ENDTAB
  0
TABLE
  2
DIMSTYLE
  5
A
330
0
100
AcDbSymbolTable
 70
    17
100
AcDbDimStyleTable
  0
DIMSTYLE
105
27
330
A
100
AcDbSymbolTableRecord
100
AcDbDimStyleTableRecord
  2
Standard
 70
     0
340
11
  0
DIMSTYLE
105
2C8
102
{ACAD_REACTORS
330
2C9
102
}
330
A
100
AcDbSymbolTableRecord
100
AcDbDimStyleTableRecord
  2
ME10_DIM_10
 70
     0
 41
3.5
 42
0.0
 44
2.0
 73
     0
 74
     0
 77
     1
 78
     8
140
3.5
147
2.0
172
     1
173
     1
176
     2
177
     2
178
     2
271
     2
340
12A
  0
DIMSTYLE
105
2D5
102
{ACAD_REACTORS
330
2D6
102
}
330
A
100
AcDbSymbolTableRecord
100
AcDbDimStyleTableRecord
  2
ME10_DIM_11
 70
     0
 41
3.5
 42
0.0
 44
2.0
 73
     0
 74
     0
 77
     1
 78
     8
140
3.5
147
2.0
172
     1
173
     1
176
     2
177
     2
178
     2
271
     2
340
12A
  0
DIMSTYLE
105
2E0
102
{ACAD_REACTORS
330
2E1
102
}
330
A
100
AcDbSymbolTableRecord
100
AcDbDimStyleTableRecord
  2
ME10_DIM_12
 70
     0
 41
3.5
 42
0.0
 44
2.0
 73
     0
 74
     0
 77
     1
 78
     8
140
3.5
147
2.0
172
     1
173
     1
176
     2
177
     2
178
     2
271
     2
340
12A
  0
DIMSTYLE
105
2EB
102
{ACAD_REACTORS
330
2EC
102
}
330
A
100
AcDbSymbolTableRecord
100
AcDbDimStyleTableRecord
  2
ME10_DIM_13
 70
     0
 41
3.5
 42
0.0
 44
2.0
 73
     0
 74
     0
 77
     1
 78
     8
140
3.5
147
2.0
172
     1
173
     1
176
     2
177
     2
178
     2
271
     2
340
12A
  0
DIMSTYLE
105
2F6
102
{ACAD_REACTORS
330
2F7
102
}
330
A
100
AcDbSymbolTableRecord
100
AcDbDimStyleTableRecord
  2
ME10_DIM_14
 70
     0
 41
3.5
 42
0.0
 44
2.0
 73
     0
 74
     0
 77
     1
 78
     8
140
3.5
147
2.0
172
     1
173
     1
176
     2
177
     2
178
     2
271
     3
340
12A
  0
DIMSTYLE
105
301
102
{ACAD_REACTORS
330
302
102
}
330
A
100
AcDbSymbolTableRecord
100
AcDbDimStyleTableRecord
  2
ME10_DIM_15
 70
     0
 41
3.5
 42
0.0
 44
2.0
 73
     0
 74
     0
 77
     1
 78
     8
140
3.5
147
2.0
172
     1
173
     1
176
     2
177
     2
178
     2
271
     2
340
12A
  0
DIMSTYLE
105
30C
102
{ACAD_REACTORS
330
30D
102
}
330
A
100
AcDbSymbolTableRecord
100
AcDbDimStyleTableRecord
  2
ME10_DIM_16
 70
     0
 41
3.5
 42
0.0
 44
2.0
 73
     0
 74
     0
 77
     1
 78
     8
140
3.5
147
2.0
172
     1
173
     1
176
     2
177
     2
178
     2
271
     2
340
12A
  0
DIMSTYLE
105
317
102
{ACAD_REACTORS
330
318
102
}
330
A
100
AcDbSymbolTableRecord
100
AcDbDimStyleTableRecord
  2
ME10_DIM_17
 70
     0
 41
3.5
 42
0.0
 44
2.0
 73
     0
 74
     0
 77
     1
 78
     8
140
3.5
147
2.0
172
     1
173
     1
176
     2
177
     2
178
     2
271
     2
340
12A
  0
DIMSTYLE
105
322
102
{ACAD_REACTORS
330
323
102
}
330
A
100
AcDbSymbolTableRecord
100
AcDbDimStyleTableRecord
  2
ME10_DIM_18
 70
     0
 41
3.5
 42
0.0
 44
2.0
 73
     0
 74
     0
 77
     1
 78
     8
140
3.5
147
2.0
172
     1
173
     1
176
     2
177
     2
178
     2
271
     3
340
12A
  0
DIMSTYLE
105
32F
102
{ACAD_REACTORS
330
330
102
}
330
A
100
AcDbSymbolTableRecord
100
AcDbDimStyleTableRecord
  2
ME10_DIM_19
 70
     0
 41
3.5
 42
0.0
 44
2.0
 73
     0
 74
     0
 77
     1
 78
     8
140
3.5
147
2.0
172
     1
173
     1
176
     2
177
     2
178
     2
271
     3
340
12A
  0
DIMSTYLE
105
33A
102
{ACAD_REACTORS
330
33B
102
}
330
A
100
AcDbSymbolTableRecord
100
AcDbDimStyleTableRecord
  2
ME10_DIM_20
 70
     0
 41
3.5
 42
0.0
 44
2.0
 73
     0
 74
     0
 77
     1
 78
     8
140
3.5
147
2.0
172
     1
173
     1
176
     2
177
     2
178
     2
271
     3
340
12A
  0
DIMSTYLE
105
345
102
{ACAD_REACTORS
330
346
102
}
330
A
100
AcDbSymbolTableRecord
100
AcDbDimStyleTableRecord
  2
ME10_DIM_21
 70
     0
 41
3.5
 42
0.0
 44
2.0
 73
     0
 74
     0
 77
     1
 78
     8
140
3.5
147
2.0
172
     1
173
     1
176
     2
177
     2
178
     2
271
     3
340
12A
  0
DIMSTYLE
105
350
102
{ACAD_REACTORS
330
351
102
}
330
A
100
AcDbSymbolTableRecord
100
AcDbDimStyleTableRecord
  2
ME10_DIM_22
 70
     0
 41
3.5
 42
0.0
 44
2.0
 73
     0
 74
     0
 77
     1
 78
     8
140
3.5
147
2.0
172
     1
173
     1
176
     2
177
     2
178
     2
271
     3
340
12A
  0
DIMSTYLE
105
35D
102
{ACAD_REACTORS
330
35E
102
}
330
A
100
AcDbSymbolTableRecord
100
AcDbDimStyleTableRecord
  2
ME10_DIM_23
 70
     0
 41
3.5
 42
0.0
 44
2.0
 73
     0
 74
     0
 77
     1
 78
     8
140
3.5
147
2.0
172
     1
173
     1
176
     2
177
     2
178
     2
271
     3
340
12A
  0
DIMSTYLE
105
36A
102
{ACAD_REACTORS
330
36B
102
}
330
A
100
AcDbSymbolTableRecord
100
AcDbDimStyleTableRecord
  2
ME10_DIM_24
 70
     0
 41
3.5
 42
0.0
 44
2.0
 73
     0
 74
     0
 77
     1
 78
     8
140
3.5
147
2.0
172
     1
173
     1
176
     2
177
     2
178
     2
271
     2
340
12A
  0
DIMSTYLE
105
375
102
{ACAD_REACTORS
330
376
102
}
330
A
100
AcDbSymbolTableRecord
100
AcDbDimStyleTableRecord
  2
ME10_DIM_25
 70
     0
 41
3.5
 42
0.0
 44
2.0
 73
     0
 74
     0
 77
     1
 78
     8
140
3.5
147
2.0
172
     1
173
     1
176
     2
177
     2
178
     2
271
     2
340
12A
  0
ENDTAB
  0
TABLE
  2
BLOCK_RECORD
  5
1
330
0
100
AcDbSymbolTable
 70
    20
  0
BLOCK_RECORD
  5
1F
330
1
100
AcDbSymbolTableRecord
100
AcDbBlockTableRecord
  2
*Model_Space
340
22
  0
BLOCK_RECORD
  5
1B
330
1
100
AcDbSymbolTableRecord
100
AcDbBlockTableRecord
  2
*Paper_Space
340
1E
  0
BLOCK_RECORD
  5
23
330
1
100
AcDbSymbolTableRecord
100
AcDbBlockTableRecord
  2
*Paper_Space0
340
26
  0
BLOCK_RECORD
  5
34
330
1
100
AcDbSymbolTableRecord
100
AcDbBlockTableRecord
  2
_art_A3_me10_pdm
340
0
102
{BLKREFS
331
37
102
}
  0
BLOCK_RECORD
  5
2BF
330
1
100
AcDbSymbolTableRecord
100
AcDbBlockTableRecord
  2
*D2
340
0
  0
BLOCK_RECORD
  5
2CA
330
1
100
AcDbSymbolTableRecord
100
AcDbBlockTableRecord
  2
*D3
340
0
  0
BLOCK_RECORD
  5
2D7
330
1
100
AcDbSymbolTableRecord
100
AcDbBlockTableRecord
  2
*D4
340
0
  0
BLOCK_RECORD
  5
2E2
330
1
100
AcDbSymbolTableRecord
100
AcDbBlockTableRecord
  2
*D5
340
0
  0
BLOCK_RECORD
  5
2ED
330
1
100
AcDbSymbolTableRecord
100
AcDbBlockTableRecord
  2
*D6
340
0
  0
BLOCK_RECORD
  5
2F8
330
1
100
AcDbSymbolTableRecord
100
AcDbBlockTableRecord
  2
*D7
340
0
  0
BLOCK_RECORD
  5
303
330
1
100
AcDbSymbolTableRecord
100
AcDbBlockTableRecord
  2
*D8
340
0
  0
BLOCK_RECORD
  5
30E
330
1
100
AcDbSymbolTableRecord
100
AcDbBlockTableRecord
  2
*D9
340
0
  0
BLOCK_RECORD
  5
319
330
1
100
AcDbSymbolTableRecord
100
AcDbBlockTableRecord
  2
*D10
340
0
  0
BLOCK_RECORD
  5
324
330
1
100
AcDbSymbolTableRecord
100
AcDbBlockTableRecord
  2
*D11
340
0
  0
BLOCK_RECORD
  5
331
330
1
100
AcDbSymbolTableRecord
100
AcDbBlockTableRecord
  2
*D12
340
0
  0
BLOCK_RECORD
  5
33C
330
1
100
AcDbSymbolTableRecord
100
AcDbBlockTableRecord
  2
*D13
340
0
  0
BLOCK_RECORD
  5
347
330
1
100
AcDbSymbolTableRecord
100
AcDbBlockTableRecord
  2
*D14
340
0
  0
BLOCK_RECORD
  5
352
330
1
100
AcDbSymbolTableRecord
100
AcDbBlockTableRecord
  2
*D15
340
0
  0
BLOCK_RECORD
  5
35F
330
1
100
AcDbSymbolTableRecord
100
AcDbBlockTableRecord
  2
*D16
340
0
  0
BLOCK_RECORD
  5
36C
330
1
100
AcDbSymbolTableRecord
100
AcDbBlockTableRecord
  2
*D17
340
0
  0
BLOCK_RECORD
  5
377
330
1
100
AcDbSymbolTableRecord
100
AcDbBlockTableRecord
  2
*D18
340
0
102
{BLKREFS
331
37E
102
}
  0
BLOCK_RECORD
  5
37F
330
1
100
AcDbSymbolTableRecord
100
AcDbBlockTableRecord
  2
*D19
340
0
102
{BLKREFS
331
386
102
}
  0
ENDTAB
  0
ENDSEC
  0
SECTION
  2
BLOCKS
  0
BLOCK
  5
20
330
1F
100
AcDbEntity
  8
0
100
AcDbBlockBegin
  2
*Model_Space
 70
     0
 71
     0
 10
0.0
 20
0.0
 30
0.0
  3
*Model_Space
  1

  0
ENDBLK
  5
21
330
1F
100
AcDbEntity
  8
0
100
AcDbBlockEnd
  0
BLOCK
  5
1C
330
1B
100
AcDbEntity
 67
     1
  8
0
100
AcDbBlockBegin
  2
*Paper_Space
 70
     0
 71
     0
 10
0.0
 20
0.0
 30
0.0
  3
*Paper_Space
  1

  0
ENDBLK
  5
1D
330
1B
100
AcDbEntity
 67
     1
  8
0
100
AcDbBlockEnd
  0
BLOCK
  5
24
330
23
100
AcDbEntity
  8
0
100
AcDbBlockBegin
  2
*Paper_Space0
 70
     0
 71
     0
 10
0.0
 20
0.0
 30
0.0
  3
*Paper_Space0
  1

  0
ENDBLK
  5
25
330
23
100
AcDbEntity
  8
0
100
AcDbBlockEnd
  0
BLOCK
  5
35
330
34
100
AcDbEntity
  8
0
100
AcDbBlockBegin
  2
_art_A3_me10_pdm
 70
     0
 71
     0
 10
-13.91306997464562
 20
-30.61149763870617
 30
0.0
  3
_art_A3_me10_pdm
  1

  0
POINT
  5
38
330
34
100
AcDbEntity
  8
1
 62
     3
 60
     1
100
AcDbPoint
 10
60.51684515956004
 20
-201.1114976387062
 30
0.0
  0
POINT
  5
39
330
34
100
AcDbEntity
  8
1
 62
     3
 60
     1
100
AcDbPoint
 10
170.5869300253544
 20
-180.1127976387061
 30
0.0
  0
POINT
  5
3A
330
34
100
AcDbEntity
  8
1
 62
     3
 60
     1
100
AcDbPoint
 10
157.5869300253544
 20
-180.1127976387061
 30
0.0
  0
POINT
  5
3B
330
34
100
AcDbEntity
  8
1
 62
     3
 60
     1
100
AcDbPoint
 10
157.5869300253544
 20
-188.7787976387062
 30
0.0
  0
POINT
  5
3C
330
34
100
AcDbEntity
  8
1
 62
     3
 60
     1
100
AcDbPoint
 10
60.51684515956004
 20
-146.1114976387062
 30
0.0
  0
POINT
  5
3D
330
34
100
AcDbEntity
  8
1
 62
     3
 60
     1
100
AcDbPoint
 10
60.51684515956004
 20
-197.4448309453055
 30
0.0
  0
POINT
  5
3E
330
34
100
AcDbEntity
  8
1
 62
     3
 60
     1
100
AcDbPoint
 10
170.5869300253544
 20
-188.7787976387062
 30
0.0
  0
LINE
  5
3F
330
34
100
AcDbEntity
  8
1
  6
Continuous
 62
     7
100
AcDbLine
 10
60.51684515956004
 20
-201.1114976387062
 30
0.0
 11
183.5869300253544
 21
-201.1114976387062
 31
0.0
  0
LINE
  5
40
330
34
100
AcDbEntity
  8
1
  6
Continuous
 62
     7
100
AcDbLine
 10
60.51684515956004
 20
-201.1114976387062
 30
0.0
 11
0.58693002535438
 21
-201.1114976387062
 31
0.0
  0
LINE
  5
41
330
34
100
AcDbEntity
  8
1
  6
Continuous
 62
     2
100
AcDbLine
 10
60.51684515956004
 20
-197.4448309453055
 30
0.0
 11
60.51684515956004
 21
-201.1114976387062
 31
0.0
  0
LINE
  5
42
102
{ACAD_REACTORS
330
19E
330
19E
102
}
330
34
100
AcDbEntity
  8
0
  6
Continuous
 62
   250
100
AcDbLine
 10
89.88647309613589
 20
-198.173106071733
 30
0.0
 11
89.11173081271409
 21
-197.2547992712907
 31
0.0
  0
LINE
  5
43
102
{ACAD_REACTORS
330
19E
330
19E
102
}
330
34
100
AcDbEntity
  8
0
  6
Continuous
 62
   250
100
AcDbLine
 10
89.68602861264662
 20
-198.173106071733
 30
0.0
 11
89.88647309613589
 21
-198.173106071733
 31
0.0
  0
LINE
  5
44
102
{ACAD_REACTORS
330
19E
330
19E
102
}
330
34
100
AcDbEntity
  8
0
  6
Continuous
 62
   250
100
AcDbLine
 10
88.91942947208008
 20
-197.2547992712907
 30
0.0
 11
89.68602861264662
 21
-198.173106071733
 31
0.0
  0
LINE
  5
45
102
{ACAD_REACTORS
330
19E
330
19E
102
}
330
34
100
AcDbEntity
  8
0
  6
Continuous
 62
   250
100
AcDbLine
 10
89.63721043328405
 20
-196.369064096345
 30
0.0
 11
88.91942947208008
 21
-197.2547992712907
 31
0.0
  0
LINE
  5
46
102
{ACAD_REACTORS
330
19E
330
19E
102
}
330
34
100
AcDbEntity
  8
0
  6
Continuous
 62
   250
100
AcDbLine
 10
89.83496828506031
 20
-196.369064096345
 30
0.0
 11
89.63721043328405
 21
-196.369064096345
 31
0.0
  0
LINE
  5
47
102
{ACAD_REACTORS
330
19E
330
19E
102
}
330
34
100
AcDbEntity
  8
0
  6
Continuous
 62
   250
100
AcDbLine
 10
89.11173081271409
 20
-197.2547992712907
 30
0.0
 11
89.83496828506031
 21
-196.369064096345
 31
0.0
  0
LINE
  5
48
102
{ACAD_REACTORS
330
1AF
330
1AF
102
}
330
34
100
AcDbEntity
  8
0
  6
Continuous
 62
   250
100
AcDbLine
 10
77.1673030048405
 20
-195.1227905138885
 30
0.0
 11
77.93445271569362
 21
-195.1227905138885
 31
0.0
  0
LINE
  5
49
102
{ACAD_REACTORS
330
1AF
330
1AF
102
}
330
34
100
AcDbEntity
  8
0
  6
Continuous
 62
   250
100
AcDbLine
 10
77.1673030048405
 20
-191.7165965301529
 30
0.0
 11
77.1673030048405
 21
-195.1227905138885
 31
0.0
  0
LINE
  5
4A
102
{ACAD_REACTORS
330
1A3
330
1A3
102
}
330
34
100
AcDbEntity
  8
0
  6
Continuous
 62
   250
100
AcDbLine
 10
96.35179838452314
 20
-195.1227905138885
 30
0.0
 11
98.49479962801706
 21
-195.1227905138885
 31
0.0
  0
LINE
  5
4B
102
{ACAD_REACTORS
330
1A3
330
1A3
102
}
330
34
100
AcDbEntity
  8
0
  6
Continuous
 62
   250
100
AcDbLine
 10
98.49479962801706
 20
-195.1227905138885
 30
0.0
 11
98.49479962801706
 21
-194.4426100986748
 31
0.0
  0
LINE
  5
4C
102
{ACAD_REACTORS
330
1A3
330
1A3
102
}
330
34
100
AcDbEntity
  8
0
  6
Continuous
 62
   250
100
AcDbLine
 10
98.49479962801706
 20
-192.3967769453648
 30
0.0
 11
98.49479962801706
 21
-191.7165965301529
 31
0.0
  0
LINE
  5
4D
102
{ACAD_REACTORS
330
1A3
330
1A3
102
}
330
34
100
AcDbEntity
  8
0
  6
Continuous
 62
   250
100
AcDbLine
 10
98.49479962801706
 20
-191.7165965301529
 30
0.0
 11
96.35179838452314
 21
-191.7165965301529
 31
0.0
  0
LINE
  5
4E
102
{ACAD_REACTORS
330
1A3
330
1A3
102
}
330
34
100
AcDbEntity
  8
0
  6
Continuous
 62
   250
100
AcDbLine
 10
97.11896796133078
 20
-192.3967769453648
 30
0.0
 11
98.49479962801706
 21
-192.3967769453648
 31
0.0
  0
LINE
  5
4F
102
{ACAD_REACTORS
330
1A3
330
1A3
102
}
330
34
100
AcDbEntity
  8
0
  6
Continuous
 62
   250
100
AcDbLine
 10
97.11896796133078
 20
-193.020830407766
 30
0.0
 11
97.11896796133078
 21
-192.3967769453648
 31
0.0
  0
LINE
  5
50
102
{ACAD_REACTORS
330
1A3
330
1A3
102
}
330
34
100
AcDbEntity
  8
0
  6
Continuous
 62
   250
100
AcDbLine
 10
98.38743179731682
 20
-193.7010098769815
 30
0.0
 11
98.38743179731682
 21
-193.020830407766
 31
0.0
  0
LINE
  5
51
102
{ACAD_REACTORS
330
1A3
330
1A3
102
}
330
34
100
AcDbEntity
  8
0
  6
Continuous
 62
   250
100
AcDbLine
 10
98.38743179731682
 20
-193.020830407766
 30
0.0
 11
97.11896796133078
 21
-193.020830407766
 31
0.0
  0
LINE
  5
52
102
{ACAD_REACTORS
330
1AE
330
1AE
102
}
330
34
100
AcDbEntity
  8
0
  6
Continuous
 62
   250
100
AcDbLine
 10
81.92895093215338
 20
-195.1227905138885
 30
0.0
 11
81.78573265006708
 21
-191.7165965301529
 31
0.0
  0
LINE
  5
53
102
{ACAD_REACTORS
330
1AE
330
1AE
102
}
330
34
100
AcDbEntity
  8
0
  6
Continuous
 62
   250
100
AcDbLine
 10
81.78573265006708
 20
-191.7165965301529
 30
0.0
 11
81.01846090560139
 21
-191.7165965301529
 31
0.0
  0
LINE
  5
54
102
{ACAD_REACTORS
330
19F
330
19F
102
}
330
34
100
AcDbEntity
  8
0
  6
Continuous
 62
   250
100
AcDbLine
 10
71.25107320815005
 20
-192.9139913894314
 30
0.0
 11
71.25107320815005
 21
-193.4901830755161
 31
0.0
  0
LINE
  5
55
102
{ACAD_REACTORS
330
19F
330
19F
102
}
330
34
100
AcDbEntity
  8
0
  6
Continuous
 62
   250
100
AcDbLine
 10
73.1718474393565
 20
-192.9139913894314
 30
0.0
 11
71.25107320815005
 21
-192.9139913894314
 31
0.0
  0
LINE
  5
56
102
{ACAD_REACTORS
330
19F
330
19F
102
}
330
34
100
AcDbEntity
  8
0
  6
Continuous
 62
   250
100
AcDbLine
 10
73.1718474393565
 20
-191.6654984978231
 30
0.0
 11
73.1718474393565
 21
-192.9139913894314
 31
0.0
  0
LINE
  5
57
102
{ACAD_REACTORS
330
19F
330
19F
102
}
330
34
100
AcDbEntity
  8
0
  6
Continuous
 62
   250
100
AcDbLine
 10
69.71447406754305
 20
-191.6654984978231
 30
0.0
 11
73.1718474393565
 21
-191.6654984978231
 31
0.0
  0
LINE
  5
58
102
{ACAD_REACTORS
330
19F
330
19F
102
}
330
34
100
AcDbEntity
  8
0
  6
Continuous
 62
   250
100
AcDbLine
 10
69.71447406754305
 20
-193.4901830755161
 30
0.0
 11
69.71447406754305
 21
-191.6654984978231
 31
0.0
  0
LINE
  5
59
102
{ACAD_REACTORS
330
19F
330
19F
102
}
330
34
100
AcDbEntity
  8
0
  6
Continuous
 62
   250
100
AcDbLine
 10
71.25107320815005
 20
-193.4901830755161
 30
0.0
 11
69.71447406754305
 21
-193.4901830755161
 31
0.0
  0
LINE
  5
5A
102
{ACAD_REACTORS
330
1A0
330
1A0
102
}
330
34
100
AcDbEntity
  8
0
  6
Continuous
 62
   250
100
AcDbLine
 10
73.1718474393565
 20
-195.1227905138885
 30
0.0
 11
69.71447406754305
 21
-195.1227905138885
 31
0.0
  0
LINE
  5
5B
102
{ACAD_REACTORS
330
1A0
330
1A0
102
}
330
34
100
AcDbEntity
  8
0
  6
Continuous
 62
   250
100
AcDbLine
 10
73.1718474393565
 20
-193.2981059361955
 30
0.0
 11
73.1718474393565
 21
-195.1227905138885
 31
0.0
  0
LINE
  5
5C
102
{ACAD_REACTORS
330
1A0
330
1A0
102
}
330
34
100
AcDbEntity
  8
0
  6
Continuous
 62
   250
100
AcDbLine
 10
71.6352482987204
 20
-193.2981059361955
 30
0.0
 11
73.1718474393565
 21
-193.2981059361955
 31
0.0
  0
LINE
  5
5D
102
{ACAD_REACTORS
330
1A0
330
1A0
102
}
330
34
100
AcDbEntity
  8
0
  6
Continuous
 62
   250
100
AcDbLine
 10
71.6352482987204
 20
-193.8743174882175
 30
0.0
 11
71.6352482987204
 21
-193.2981059361955
 31
0.0
  0
LINE
  5
5E
102
{ACAD_REACTORS
330
1A0
330
1A0
102
}
330
34
100
AcDbEntity
  8
0
  6
Continuous
 62
   250
100
AcDbLine
 10
69.71447406754305
 20
-193.8743174882175
 30
0.0
 11
71.6352482987204
 21
-193.8743174882175
 31
0.0
  0
LINE
  5
5F
102
{ACAD_REACTORS
330
1A0
330
1A0
102
}
330
34
100
AcDbEntity
  8
0
  6
Continuous
 62
   250
100
AcDbLine
 10
69.71447406754305
 20
-195.1227905138885
 30
0.0
 11
69.71447406754305
 21
-193.8743174882175
 31
0.0
  0
LINE
  5
60
102
{ACAD_REACTORS
330
1AE
330
1AE
102
}
330
34
100
AcDbEntity
  8
0
  6
Continuous
 62
   250
100
AcDbLine
 10
80.54287790107628
 20
-194.6829359271187
 30
0.0
 11
81.13617037638323
 21
-193.2304766048737
 31
0.0
  0
LINE
  5
61
102
{ACAD_REACTORS
330
1AE
330
1AE
102
}
330
34
100
AcDbEntity
  8
0
  6
Continuous
 62
   250
100
AcDbLine
 10
81.01846090560139
 20
-191.7165965301529
 30
0.0
 11
80.20019235045038
 21
-193.8850867189867
 31
0.0
  0
LINE
  5
62
102
{ACAD_REACTORS
330
1AE
330
1AE
102
}
330
34
100
AcDbEntity
  8
0
  6
Continuous
 62
   250
100
AcDbLine
 10
80.20019235045038
 20
-193.8850867189867
 30
0.0
 11
79.38184243960131
 21
-191.7165965301529
 31
0.0
  0
LINE
  5
63
102
{ACAD_REACTORS
330
1AE
330
1AE
102
}
330
34
100
AcDbEntity
  8
0
  6
Continuous
 62
   250
100
AcDbLine
 10
79.38184243960131
 20
-191.7165965301529
 30
0.0
 11
78.61461231898284
 21
-191.7165965301529
 31
0.0
  0
LINE
  5
64
102
{ACAD_REACTORS
330
1AE
330
1AE
102
}
330
34
100
AcDbEntity
  8
0
  6
Continuous
 62
   250
100
AcDbLine
 10
78.61461231898284
 20
-191.7165965301529
 30
0.0
 11
78.47139403691108
 21
-195.1227905138885
 31
0.0
  0
LINE
  5
65
102
{ACAD_REACTORS
330
1AE
330
1AE
102
}
330
34
100
AcDbEntity
  8
0
  6
Continuous
 62
   250
100
AcDbLine
 10
78.47139403691108
 20
-195.1227905138885
 30
0.0
 11
79.21303493647429
 21
-195.1227905138885
 31
0.0
  0
LINE
  5
66
102
{ACAD_REACTORS
330
1AE
330
1AE
102
}
330
34
100
AcDbEntity
  8
0
  6
Continuous
 62
   250
100
AcDbLine
 10
79.21303493647429
 20
-195.1227905138885
 30
0.0
 11
79.26423513647023
 21
-193.2304766048737
 31
0.0
  0
LINE
  5
67
102
{ACAD_REACTORS
330
1AE
330
1AE
102
}
330
34
100
AcDbEntity
  8
0
  6
Continuous
 62
   250
100
AcDbLine
 10
79.26423513647023
 20
-193.2304766048737
 30
0.0
 11
79.85750679986086
 21
-194.6829359271187
 31
0.0
  0
LINE
  5
68
102
{ACAD_REACTORS
330
1AE
330
1AE
102
}
330
34
100
AcDbEntity
  8
0
  6
Continuous
 62
   250
100
AcDbLine
 10
79.85750679986086
 20
-194.6829359271187
 30
0.0
 11
80.54287790107628
 21
-194.6829359271187
 31
0.0
  0
LINE
  5
69
102
{ACAD_REACTORS
330
1AE
330
1AE
102
}
330
34
100
AcDbEntity
  8
0
  6
Continuous
 62
   250
100
AcDbLine
 10
81.13617037638323
 20
-193.2304766048737
 30
0.0
 11
81.18728922064474
 21
-195.1227905138885
 31
0.0
  0
LINE
  5
6A
102
{ACAD_REACTORS
330
1A1
330
1A1
102
}
330
34
100
AcDbEntity
  8
0
  6
Continuous
 62
   250
100
AcDbLine
 10
87.33496855515114
 20
-195.1227905138885
 30
0.0
 11
88.2811661875312
 21
-195.1227905138885
 31
0.0
  0
LINE
  5
6B
102
{ACAD_REACTORS
330
1A1
330
1A1
102
}
330
34
100
AcDbEntity
  8
0
  6
Continuous
 62
   250
100
AcDbLine
 10
88.2811661875312
 20
-195.1227905138885
 30
0.0
 11
88.2811661875312
 21
-191.7165965301529
 31
0.0
  0
LINE
  5
6C
102
{ACAD_REACTORS
330
1A1
330
1A1
102
}
330
34
100
AcDbEntity
  8
0
  6
Continuous
 62
   250
100
AcDbLine
 10
88.2811661875312
 20
-191.7165965301529
 30
0.0
 11
87.54982625019329
 21
-191.7165965301529
 31
0.0
  0
LINE
  5
6D
102
{ACAD_REACTORS
330
1A1
330
1A1
102
}
330
34
100
AcDbEntity
  8
0
  6
Continuous
 62
   250
100
AcDbLine
 10
87.54982625019329
 20
-191.7165965301529
 30
0.0
 11
87.54982625019329
 21
-194.0641147745728
 31
0.0
  0
LINE
  5
6E
102
{ACAD_REACTORS
330
1A1
330
1A1
102
}
330
34
100
AcDbEntity
  8
0
  6
Continuous
 62
   250
100
AcDbLine
 10
87.54982625019329
 20
-194.0641147745728
 30
0.0
 11
86.42964934863994
 21
-191.7165965301529
 31
0.0
  0
LINE
  5
6F
102
{ACAD_REACTORS
330
1A1
330
1A1
102
}
330
34
100
AcDbEntity
  8
0
  6
Continuous
 62
   250
100
AcDbLine
 10
86.42964934863994
 20
-191.7165965301529
 30
0.0
 11
85.4886026703607
 21
-191.7165965301529
 31
0.0
  0
LINE
  5
70
102
{ACAD_REACTORS
330
1A1
330
1A1
102
}
330
34
100
AcDbEntity
  8
0
  6
Continuous
 62
   250
100
AcDbLine
 10
85.4886026703607
 20
-191.7165965301529
 30
0.0
 11
85.4886026703607
 21
-195.1227905138885
 31
0.0
  0
LINE
  5
71
102
{ACAD_REACTORS
330
1A1
330
1A1
102
}
330
34
100
AcDbEntity
  8
0
  6
Continuous
 62
   250
100
AcDbLine
 10
85.4886026703607
 20
-195.1227905138885
 30
0.0
 11
86.21996247365314
 21
-195.1227905138885
 31
0.0
  0
LINE
  5
72
102
{ACAD_REACTORS
330
1A1
330
1A1
102
}
330
34
100
AcDbEntity
  8
0
  6
Continuous
 62
   250
100
AcDbLine
 10
86.21996247365314
 20
-195.1227905138885
 30
0.0
 11
86.21996247365314
 21
-192.882660912107
 31
0.0
  0
LINE
  5
73
102
{ACAD_REACTORS
330
1A1
330
1A1
102
}
330
34
100
AcDbEntity
  8
0
  6
Continuous
 62
   250
100
AcDbLine
 10
86.21996247365314
 20
-192.882660912107
 30
0.0
 11
87.33496855515114
 21
-195.1227905138885
 31
0.0
  0
LINE
  5
74
102
{ACAD_REACTORS
330
1A2
330
1A2
102
}
330
34
100
AcDbEntity
  8
0
  6
Continuous
 62
   250
100
AcDbLine
 10
93.61055710098299
 20
-192.5349057631511
 30
0.0
 11
94.18338955144281
 21
-195.1227905138885
 31
0.0
  0
LINE
  5
75
102
{ACAD_REACTORS
330
1A2
330
1A2
102
}
330
34
100
AcDbEntity
  8
0
  6
Continuous
 62
   250
100
AcDbLine
 10
94.18338955144281
 20
-195.1227905138885
 30
0.0
 11
95.16020532533003
 21
-195.1227905138885
 31
0.0
  0
LINE
  5
76
102
{ACAD_REACTORS
330
1A2
330
1A2
102
}
330
34
100
AcDbEntity
  8
0
  6
Continuous
 62
   250
100
AcDbLine
 10
95.16020532533003
 20
-195.1227905138885
 30
0.0
 11
95.99390498486173
 21
-191.7165965301529
 31
0.0
  0
LINE
  5
77
102
{ACAD_REACTORS
330
1A2
330
1A2
102
}
330
34
100
AcDbEntity
  8
0
  6
Continuous
 62
   250
100
AcDbLine
 10
95.99390498486173
 20
-191.7165965301529
 30
0.0
 11
95.2369956924158
 21
-191.7165965301529
 31
0.0
  0
LINE
  5
78
102
{ACAD_REACTORS
330
1A2
330
1A2
102
}
330
34
100
AcDbEntity
  8
0
  6
Continuous
 62
   250
100
AcDbLine
 10
95.2369956924158
 20
-191.7165965301529
 30
0.0
 11
94.66412256407057
 21
-194.1510433923431
 31
0.0
  0
LINE
  5
79
102
{ACAD_REACTORS
330
1A2
330
1A2
102
}
330
34
100
AcDbEntity
  8
0
  6
Continuous
 62
   250
100
AcDbLine
 10
94.66412256407057
 20
-194.1510433923431
 30
0.0
 11
94.08107050716353
 21
-191.7165965301529
 31
0.0
  0
LINE
  5
7A
102
{ACAD_REACTORS
330
1A2
330
1A2
102
}
330
34
100
AcDbEntity
  8
0
  6
Continuous
 62
   250
100
AcDbLine
 10
94.08107050716353
 20
-191.7165965301529
 30
0.0
 11
93.14509248123068
 21
-191.7165965301529
 31
0.0
  0
LINE
  5
7B
102
{ACAD_REACTORS
330
1A2
330
1A2
102
}
330
34
100
AcDbEntity
  8
0
  6
Continuous
 62
   250
100
AcDbLine
 10
93.14509248123068
 20
-191.7165965301529
 30
0.0
 11
92.5518198718637
 21
-194.1510433923431
 31
0.0
  0
LINE
  5
7C
102
{ACAD_REACTORS
330
1A2
330
1A2
102
}
330
34
100
AcDbEntity
  8
0
  6
Continuous
 62
   250
100
AcDbLine
 10
92.5518198718637
 20
-194.1510433923431
 30
0.0
 11
91.9738572792412
 21
-191.7165965301529
 31
0.0
  0
LINE
  5
7D
102
{ACAD_REACTORS
330
1A2
330
1A2
102
}
330
34
100
AcDbEntity
  8
0
  6
Continuous
 62
   250
100
AcDbLine
 10
91.9738572792412
 20
-191.7165965301529
 30
0.0
 11
91.21690730891714
 21
-191.7165965301529
 31
0.0
  0
LINE
  5
7E
102
{ACAD_REACTORS
330
1A2
330
1A2
102
}
330
34
100
AcDbEntity
  8
0
  6
Continuous
 62
   250
100
AcDbLine
 10
91.21690730891714
 20
-191.7165965301529
 30
0.0
 11
92.05573711059697
 21
-195.1227905138885
 31
0.0
  0
LINE
  5
7F
102
{ACAD_REACTORS
330
1A2
330
1A2
102
}
330
34
100
AcDbEntity
  8
0
  6
Continuous
 62
   250
100
AcDbLine
 10
92.05573711059697
 20
-195.1227905138885
 30
0.0
 11
93.03255383050418
 21
-195.1227905138885
 31
0.0
  0
LINE
  5
80
102
{ACAD_REACTORS
330
1A2
330
1A2
102
}
330
34
100
AcDbEntity
  8
0
  6
Continuous
 62
   250
100
AcDbLine
 10
93.03255383050418
 20
-195.1227905138885
 30
0.0
 11
93.61055710098299
 21
-192.5349057631511
 31
0.0
  0
LINE
  5
81
102
{ACAD_REACTORS
330
1A3
330
1A3
102
}
330
34
100
AcDbEntity
  8
0
  6
Continuous
 62
   250
100
AcDbLine
 10
98.49479962801706
 20
-194.4426100986748
 30
0.0
 11
97.11896796133078
 21
-194.4426100986748
 31
0.0
  0
LINE
  5
82
102
{ACAD_REACTORS
330
1A3
330
1A3
102
}
330
34
100
AcDbEntity
  8
0
  6
Continuous
 62
   250
100
AcDbLine
 10
97.11896796133078
 20
-194.4426100986748
 30
0.0
 11
97.11896796133078
 21
-193.7010098769815
 31
0.0
  0
LINE
  5
83
102
{ACAD_REACTORS
330
1A3
330
1A3
102
}
330
34
100
AcDbEntity
  8
0
  6
Continuous
 62
   250
100
AcDbLine
 10
97.11896796133078
 20
-193.7010098769815
 30
0.0
 11
98.38743179731682
 21
-193.7010098769815
 31
0.0
  0
LINE
  5
84
102
{ACAD_REACTORS
330
1A3
330
1A3
102
}
330
34
100
AcDbEntity
  8
0
  6
Continuous
 62
   250
100
AcDbLine
 10
96.35179838452314
 20
-191.7165965301529
 30
0.0
 11
96.35179838452314
 21
-195.1227905138885
 31
0.0
  0
LINE
  5
85
102
{ACAD_REACTORS
330
1A4
330
1A4
102
}
330
34
100
AcDbEntity
  8
0
  6
Continuous
 62
   250
100
AcDbLine
 10
102.0648147642642
 20
-191.7165965301529
 30
0.0
 11
102.0648147642642
 21
-195.1227905138885
 31
0.0
  0
LINE
  5
86
102
{ACAD_REACTORS
330
1A4
330
1A4
102
}
330
34
100
AcDbEntity
  8
0
  6
Continuous
 62
   250
100
AcDbLine
 10
102.0648147642642
 20
-195.1227905138885
 30
0.0
 11
102.8319436631718
 21
-195.1227905138885
 31
0.0
  0
LINE
  5
87
102
{ACAD_REACTORS
330
1A4
330
1A4
102
}
330
34
100
AcDbEntity
  8
0
  6
Continuous
 62
   250
100
AcDbLine
 10
102.8319436631718
 20
-195.1227905138885
 30
0.0
 11
102.8319436631718
 21
-191.7165965301529
 31
0.0
  0
LINE
  5
88
102
{ACAD_REACTORS
330
1A4
330
1A4
102
}
330
34
100
AcDbEntity
  8
0
  6
Continuous
 62
   250
100
AcDbLine
 10
102.8319436631718
 20
-191.7165965301529
 30
0.0
 11
102.0648147642642
 21
-191.7165965301529
 31
0.0
  0
LINE
  5
89
102
{ACAD_REACTORS
330
1A5
330
1A5
102
}
330
34
100
AcDbEntity
  8
0
  6
Continuous
 62
   250
100
AcDbLine
 10
103.9213794435636
 20
-195.1227905138885
 30
0.0
 11
104.7857379224806
 21
-195.1227905138885
 31
0.0
  0
LINE
  5
8A
102
{ACAD_REACTORS
330
1A5
330
1A5
102
}
330
34
100
AcDbEntity
  8
0
  6
Continuous
 62
   250
100
AcDbLine
 10
102.9291325652957
 20
-193.38393435936
 30
0.0
 11
103.9213794435636
 21
-195.1227905138885
 31
0.0
  0
LINE
  5
8B
102
{ACAD_REACTORS
330
1A5
330
1A5
102
}
330
34
100
AcDbEntity
  8
0
  6
Continuous
 62
   250
100
AcDbLine
 10
104.7857379224806
 20
-195.1227905138885
 30
0.0
 11
103.7576604587521
 21
-193.38393435936
 31
0.0
  0
LINE
  5
8C
102
{ACAD_REACTORS
330
1A5
330
1A5
102
}
330
34
100
AcDbEntity
  8
0
  6
Continuous
 62
   250
100
AcDbLine
 10
103.7576604587521
 20
-193.38393435936
 30
0.0
 11
104.7141193214702
 21
-191.7165965301529
 31
0.0
  0
LINE
  5
8D
102
{ACAD_REACTORS
330
1A5
330
1A5
102
}
330
34
100
AcDbEntity
  8
0
  6
Continuous
 62
   250
100
AcDbLine
 10
104.7141193214702
 20
-191.7165965301529
 30
0.0
 11
103.8498005744332
 21
-191.7165965301529
 31
0.0
  0
LINE
  5
8E
102
{ACAD_REACTORS
330
1A5
330
1A5
102
}
330
34
100
AcDbEntity
  8
0
  6
Continuous
 62
   250
100
AcDbLine
 10
103.8498005744332
 20
-191.7165965301529
 30
0.0
 11
102.9291325652957
 21
-193.38393435936
 31
0.0
  0
LINE
  5
8F
102
{ACAD_REACTORS
330
1A6
330
1A6
102
}
330
34
100
AcDbEntity
  8
0
  6
Continuous
 62
   250
100
AcDbLine
 10
76.02878321991011
 20
-197.6990508524932
 30
0.0
 11
76.86848901487247
 21
-197.6990508524932
 31
0.0
  0
LINE
  5
90
102
{ACAD_REACTORS
330
1A6
330
1A6
102
}
330
34
100
AcDbEntity
  8
0
  6
Continuous
 62
   250
100
AcDbLine
 10
76.81971765311027
 20
-197.5609012227733
 30
0.0
 11
76.07757539207523
 21
-197.5609012227733
 31
0.0
  0
LINE
  5
91
102
{ACAD_REACTORS
330
1A6
330
1A6
102
}
330
34
100
AcDbEntity
  8
0
  6
Continuous
 62
   250
100
AcDbLine
 10
76.44862618441402
 20
-196.4611635341598
 30
0.0
 11
76.81971765311027
 21
-197.5609012227733
 31
0.0
  0
LINE
  5
92
102
{ACAD_REACTORS
330
1A6
330
1A6
102
}
330
34
100
AcDbEntity
  8
0
  6
Continuous
 62
   250
100
AcDbLine
 10
76.07757539207523
 20
-197.5609012227733
 30
0.0
 11
76.44862618441402
 21
-196.4611635341598
 31
0.0
  0
LINE
  5
93
102
{ACAD_REACTORS
330
1A6
330
1A6
102
}
330
34
100
AcDbEntity
  8
0
  6
Continuous
 62
   250
100
AcDbLine
 10
76.33213799585064
 20
-196.369064096345
 30
0.0
 11
75.70374808284396
 21
-198.173106071733
 31
0.0
  0
LINE
  5
94
102
{ACAD_REACTORS
330
1A6
330
1A6
102
}
330
34
100
AcDbEntity
  8
0
  6
Continuous
 62
   250
100
AcDbLine
 10
76.56782181661401
 20
-196.369064096345
 30
0.0
 11
76.33213799585064
 21
-196.369064096345
 31
0.0
  0
LINE
  5
95
102
{ACAD_REACTORS
330
1A6
330
1A6
102
}
330
34
100
AcDbEntity
  8
0
  6
Continuous
 62
   250
100
AcDbLine
 10
77.19625240752066
 20
-198.173106071733
 30
0.0
 11
76.56782181661401
 21
-196.369064096345
 31
0.0
  0
LINE
  5
96
102
{ACAD_REACTORS
330
1A6
330
1A6
102
}
330
34
100
AcDbEntity
  8
0
  6
Continuous
 62
   250
100
AcDbLine
 10
77.0391497262899
 20
-198.173106071733
 30
0.0
 11
77.19625240752066
 21
-198.173106071733
 31
0.0
  0
LINE
  5
97
102
{ACAD_REACTORS
330
1A6
330
1A6
102
}
330
34
100
AcDbEntity
  8
0
  6
Continuous
 62
   250
100
AcDbLine
 10
76.86848901487247
 20
-197.6990508524932
 30
0.0
 11
77.0391497262899
 21
-198.173106071733
 31
0.0
  0
LINE
  5
98
102
{ACAD_REACTORS
330
1A6
330
1A6
102
}
330
34
100
AcDbEntity
  8
0
  6
Continuous
 62
   250
100
AcDbLine
 10
75.86081008620386
 20
-198.173106071733
 30
0.0
 11
76.02878321991011
 21
-197.6990508524932
 31
0.0
  0
LINE
  5
99
102
{ACAD_REACTORS
330
1A6
330
1A6
102
}
330
34
100
AcDbEntity
  8
0
  6
Continuous
 62
   250
100
AcDbLine
 10
75.70374808284396
 20
-198.173106071733
 30
0.0
 11
75.86081008620386
 21
-198.173106071733
 31
0.0
  0
LINE
  5
9A
102
{ACAD_REACTORS
330
1A7
330
1A7
102
}
330
34
100
AcDbEntity
  8
0
  6
Continuous
 62
   250
100
AcDbLine
 10
78.56956015399192
 20
-198.018630424388
 30
0.0
 11
77.71354820734996
 21
-196.369064096345
 31
0.0
  0
LINE
  5
9B
102
{ACAD_REACTORS
330
1A7
330
1A7
102
}
330
34
100
AcDbEntity
  8
0
  6
Continuous
 62
   250
100
AcDbLine
 10
78.56956015399192
 20
-196.369064096345
 30
0.0
 11
78.56956015399192
 21
-198.018630424388
 31
0.0
  0
LINE
  5
9C
102
{ACAD_REACTORS
330
1A7
330
1A7
102
}
330
34
100
AcDbEntity
  8
0
  6
Continuous
 62
   250
100
AcDbLine
 10
77.71354820734996
 20
-196.369064096345
 30
0.0
 11
77.48061250808678
 21
-196.369064096345
 31
0.0
  0
LINE
  5
9D
102
{ACAD_REACTORS
330
1A7
330
1A7
102
}
330
34
100
AcDbEntity
  8
0
  6
Continuous
 62
   250
100
AcDbLine
 10
77.48061250808678
 20
-196.369064096345
 30
0.0
 11
77.48061250808678
 21
-198.173106071733
 31
0.0
  0
LINE
  5
9E
102
{ACAD_REACTORS
330
1A7
330
1A7
102
}
330
34
100
AcDbEntity
  8
0
  6
Continuous
 62
   250
100
AcDbLine
 10
77.48061250808678
 20
-198.173106071733
 30
0.0
 11
77.63229935603158
 21
-198.173106071733
 31
0.0
  0
LINE
  5
9F
102
{ACAD_REACTORS
330
1A7
330
1A7
102
}
330
34
100
AcDbEntity
  8
0
  6
Continuous
 62
   250
100
AcDbLine
 10
77.63229935603158
 20
-198.173106071733
 30
0.0
 11
77.63229935603158
 21
-196.5261875895194
 31
0.0
  0
LINE
  5
A0
102
{ACAD_REACTORS
330
1A7
330
1A7
102
}
330
34
100
AcDbEntity
  8
0
  6
Continuous
 62
   250
100
AcDbLine
 10
77.63229935603158
 20
-196.5261875895194
 30
0.0
 11
78.48826934831595
 21
-198.1730653938585
 31
0.0
  0
LINE
  5
A1
102
{ACAD_REACTORS
330
1A7
330
1A7
102
}
330
34
100
AcDbEntity
  8
0
  6
Continuous
 62
   250
100
AcDbLine
 10
78.48826934831595
 20
-198.1730653938585
 30
0.0
 11
78.721247001944
 21
-198.1730653938585
 31
0.0
  0
LINE
  5
A2
102
{ACAD_REACTORS
330
1A7
330
1A7
102
}
330
34
100
AcDbEntity
  8
0
  6
Continuous
 62
   250
100
AcDbLine
 10
78.721247001944
 20
-198.1730653938585
 30
0.0
 11
78.721247001944
 21
-196.369064096345
 31
0.0
  0
LINE
  5
A3
102
{ACAD_REACTORS
330
1A7
330
1A7
102
}
330
34
100
AcDbEntity
  8
0
  6
Continuous
 62
   250
100
AcDbLine
 10
78.721247001944
 20
-196.369064096345
 30
0.0
 11
78.56956015399192
 21
-196.369064096345
 31
0.0
  0
LINE
  5
A4
102
{ACAD_REACTORS
330
1A8
330
1A8
102
}
330
34
100
AcDbEntity
  8
0
  6
Continuous
 62
   250
100
AcDbLine
 10
81.23759356142546
 20
-198.173106071733
 30
0.0
 11
81.23759356142546
 21
-196.5125879354828
 31
0.0
  0
LINE
  5
A5
102
{ACAD_REACTORS
330
1A8
330
1A8
102
}
330
34
100
AcDbEntity
  8
0
  6
Continuous
 62
   250
100
AcDbLine
 10
81.79287776601996
 20
-196.5125879354828
 30
0.0
 11
81.79287776601996
 21
-196.369064096345
 31
0.0
  0
LINE
  5
A6
102
{ACAD_REACTORS
330
1A8
330
1A8
102
}
330
34
100
AcDbEntity
  8
0
  6
Continuous
 62
   250
100
AcDbLine
 10
81.23759356142546
 20
-196.5125879354828
 30
0.0
 11
81.79287776601996
 21
-196.5125879354828
 31
0.0
  0
LINE
  5
A7
102
{ACAD_REACTORS
330
1A8
330
1A8
102
}
330
34
100
AcDbEntity
  8
0
  6
Continuous
 62
   250
100
AcDbLine
 10
81.79287776601996
 20
-196.369064096345
 30
0.0
 11
80.52245950006181
 21
-196.369064096345
 31
0.0
  0
LINE
  5
A8
102
{ACAD_REACTORS
330
1A8
330
1A8
102
}
330
34
100
AcDbEntity
  8
0
  6
Continuous
 62
   250
100
AcDbLine
 10
80.52245950006181
 20
-196.369064096345
 30
0.0
 11
80.52245950006181
 21
-196.5126286133573
 31
0.0
  0
LINE
  5
A9
102
{ACAD_REACTORS
330
1A8
330
1A8
102
}
330
34
100
AcDbEntity
  8
0
  6
Continuous
 62
   250
100
AcDbLine
 10
80.52245950006181
 20
-196.5126286133573
 30
0.0
 11
81.07778343654354
 21
-196.5126286133573
 31
0.0
  0
LINE
  5
AA
102
{ACAD_REACTORS
330
1A8
330
1A8
102
}
330
34
100
AcDbEntity
  8
0
  6
Continuous
 62
   250
100
AcDbLine
 10
81.07778343654354
 20
-196.5126286133573
 30
0.0
 11
81.07778343654354
 21
-198.173106071733
 31
0.0
  0
LINE
  5
AB
102
{ACAD_REACTORS
330
1A8
330
1A8
102
}
330
34
100
AcDbEntity
  8
0
  6
Continuous
 62
   250
100
AcDbLine
 10
81.07778343654354
 20
-198.173106071733
 30
0.0
 11
81.23759356142546
 21
-198.173106071733
 31
0.0
  0
LINE
  5
AC
102
{ACAD_REACTORS
330
1A9
330
1A9
102
}
330
34
100
AcDbEntity
  8
0
  6
Continuous
 62
   250
100
AcDbLine
 10
82.05018235008174
 20
-198.173106071733
 30
0.0
 11
83.06871186527133
 21
-198.173106071733
 31
0.0
  0
LINE
  5
AD
102
{ACAD_REACTORS
330
1A9
330
1A9
102
}
330
34
100
AcDbEntity
  8
0
  6
Continuous
 62
   250
100
AcDbLine
 10
83.06871186527133
 20
-198.173106071733
 30
0.0
 11
83.06871186527133
 21
-198.0295008768462
 31
0.0
  0
LINE
  5
AE
102
{ACAD_REACTORS
330
1A9
330
1A9
102
}
330
34
100
AcDbEntity
  8
0
  6
Continuous
 62
   250
100
AcDbLine
 10
83.06871186527133
 20
-198.0295008768462
 30
0.0
 11
82.21001234089636
 21
-198.0295008768462
 31
0.0
  0
LINE
  5
AF
102
{ACAD_REACTORS
330
1A9
330
1A9
102
}
330
34
100
AcDbEntity
  8
0
  6
Continuous
 62
   250
100
AcDbLine
 10
82.21001234089636
 20
-198.0295008768462
 30
0.0
 11
82.21001234089636
 21
-197.3252372679453
 31
0.0
  0
LINE
  5
B0
102
{ACAD_REACTORS
330
1A9
330
1A9
102
}
330
34
100
AcDbEntity
  8
0
  6
Continuous
 62
   250
100
AcDbLine
 10
82.21001234089636
 20
-197.3252372679453
 30
0.0
 11
83.00635552166204
 21
-197.3252372679453
 31
0.0
  0
LINE
  5
B1
102
{ACAD_REACTORS
330
1A9
330
1A9
102
}
330
34
100
AcDbEntity
  8
0
  6
Continuous
 62
   250
100
AcDbLine
 10
83.00635552166204
 20
-197.3252372679453
 30
0.0
 11
83.00635552166204
 21
-197.1816736969295
 31
0.0
  0
LINE
  5
B2
102
{ACAD_REACTORS
330
1A9
330
1A9
102
}
330
34
100
AcDbEntity
  8
0
  6
Continuous
 62
   250
100
AcDbLine
 10
83.00635552166204
 20
-197.1816736969295
 30
0.0
 11
82.21001234089636
 21
-197.1816736969295
 31
0.0
  0
LINE
  5
B3
102
{ACAD_REACTORS
330
1A9
330
1A9
102
}
330
34
100
AcDbEntity
  8
0
  6
Continuous
 62
   250
100
AcDbLine
 10
82.21001234089636
 20
-197.1816736969295
 30
0.0
 11
82.21001234089636
 21
-196.5125879354828
 31
0.0
  0
LINE
  5
B4
102
{ACAD_REACTORS
330
1A9
330
1A9
102
}
330
34
100
AcDbEntity
  8
0
  6
Continuous
 62
   250
100
AcDbLine
 10
83.06598360969656
 20
-196.5125879354828
 30
0.0
 11
83.06598360969656
 21
-196.369064096345
 31
0.0
  0
LINE
  5
B5
102
{ACAD_REACTORS
330
1A9
330
1A9
102
}
330
34
100
AcDbEntity
  8
0
  6
Continuous
 62
   250
100
AcDbLine
 10
82.21001234089636
 20
-196.5125879354828
 30
0.0
 11
83.06598360969656
 21
-196.5125879354828
 31
0.0
  0
LINE
  5
B6
102
{ACAD_REACTORS
330
1A9
330
1A9
102
}
330
34
100
AcDbEntity
  8
0
  6
Continuous
 62
   250
100
AcDbLine
 10
83.06598360969656
 20
-196.369064096345
 30
0.0
 11
82.05018235008174
 21
-196.369064096345
 31
0.0
  0
LINE
  5
B7
102
{ACAD_REACTORS
330
1A9
330
1A9
102
}
330
34
100
AcDbEntity
  8
0
  6
Continuous
 62
   250
100
AcDbLine
 10
82.05018235008174
 20
-196.369064096345
 30
0.0
 11
82.05018235008174
 21
-198.173106071733
 31
0.0
  0
LINE
  5
B8
102
{ACAD_REACTORS
330
1AA
330
1AA
102
}
330
34
100
AcDbEntity
  8
0
  6
Continuous
 62
   250
100
AcDbLine
 10
85.80985098111705
 20
-197.3171348029464
 30
0.0
 11
85.80985098111705
 21
-198.1730653938585
 31
0.0
  0
LINE
  5
B9
102
{ACAD_REACTORS
330
1AA
330
1AA
102
}
330
34
100
AcDbEntity
  8
0
  6
Continuous
 62
   250
100
AcDbLine
 10
85.80985098111705
 20
-198.1730653938585
 30
0.0
 11
85.96968191793712
 21
-198.1730653938585
 31
0.0
  0
LINE
  5
BA
102
{ACAD_REACTORS
330
1AA
330
1AA
102
}
330
34
100
AcDbEntity
  8
0
  6
Continuous
 62
   250
100
AcDbLine
 10
85.96968191793712
 20
-198.1730653938585
 30
0.0
 11
85.96968191793712
 21
-196.369064096345
 31
0.0
  0
LINE
  5
BB
102
{ACAD_REACTORS
330
1AA
330
1AA
102
}
330
34
100
AcDbEntity
  8
0
  6
Continuous
 62
   250
100
AcDbLine
 10
85.96968191793712
 20
-196.369064096345
 30
0.0
 11
85.80985098111705
 21
-196.369064096345
 31
0.0
  0
LINE
  5
BC
102
{ACAD_REACTORS
330
1AA
330
1AA
102
}
330
34
100
AcDbEntity
  8
0
  6
Continuous
 62
   250
100
AcDbLine
 10
85.80985098111705
 20
-196.369064096345
 30
0.0
 11
85.80985098111705
 21
-197.1735296080587
 31
0.0
  0
LINE
  5
BD
102
{ACAD_REACTORS
330
1AA
330
1AA
102
}
330
34
100
AcDbEntity
  8
0
  6
Continuous
 62
   250
100
AcDbLine
 10
85.80985098111705
 20
-197.1735296080587
 30
0.0
 11
84.93767478234076
 21
-197.1735296080587
 31
0.0
  0
LINE
  5
BE
102
{ACAD_REACTORS
330
1AA
330
1AA
102
}
330
34
100
AcDbEntity
  8
0
  6
Continuous
 62
   250
100
AcDbLine
 10
84.93767478234076
 20
-197.1735296080587
 30
0.0
 11
84.93767478234076
 21
-196.369064096345
 31
0.0
  0
LINE
  5
BF
102
{ACAD_REACTORS
330
1AA
330
1AA
102
}
330
34
100
AcDbEntity
  8
0
  6
Continuous
 62
   250
100
AcDbLine
 10
84.93767478234076
 20
-196.369064096345
 30
0.0
 11
84.77784479150432
 21
-196.369064096345
 31
0.0
  0
LINE
  5
C0
102
{ACAD_REACTORS
330
1AA
330
1AA
102
}
330
34
100
AcDbEntity
  8
0
  6
Continuous
 62
   250
100
AcDbLine
 10
84.77784479150432
 20
-196.369064096345
 30
0.0
 11
84.77784479150432
 21
-198.173106071733
 31
0.0
  0
LINE
  5
C1
102
{ACAD_REACTORS
330
1AA
330
1AA
102
}
330
34
100
AcDbEntity
  8
0
  6
Continuous
 62
   250
100
AcDbLine
 10
84.77784479150432
 20
-198.173106071733
 30
0.0
 11
84.93767478234076
 21
-198.173106071733
 31
0.0
  0
LINE
  5
C2
102
{ACAD_REACTORS
330
1AA
330
1AA
102
}
330
34
100
AcDbEntity
  8
0
  6
Continuous
 62
   250
100
AcDbLine
 10
84.93767478234076
 20
-198.173106071733
 30
0.0
 11
84.93767478234076
 21
-197.3171348029464
 31
0.0
  0
LINE
  5
C3
102
{ACAD_REACTORS
330
1AA
330
1AA
102
}
330
34
100
AcDbEntity
  8
0
  6
Continuous
 62
   250
100
AcDbLine
 10
84.93767478234076
 20
-197.3171348029464
 30
0.0
 11
85.80985098111705
 21
-197.3171348029464
 31
0.0
  0
LINE
  5
C4
102
{ACAD_REACTORS
330
1AB
330
1AB
102
}
330
34
100
AcDbEntity
  8
0
  6
Continuous
 62
   250
100
AcDbLine
 10
87.4920097465947
 20
-196.369064096345
 30
0.0
 11
87.4920097465947
 21
-198.018630424388
 31
0.0
  0
LINE
  5
C5
102
{ACAD_REACTORS
330
1AB
330
1AB
102
}
330
34
100
AcDbEntity
  8
0
  6
Continuous
 62
   250
100
AcDbLine
 10
87.41080285122007
 20
-198.173106071733
 30
0.0
 11
87.64367672859225
 21
-198.173106071733
 31
0.0
  0
LINE
  5
C6
102
{ACAD_REACTORS
330
1AB
330
1AB
102
}
330
34
100
AcDbEntity
  8
0
  6
Continuous
 62
   250
100
AcDbLine
 10
86.40306210068229
 20
-198.1730653938585
 30
0.0
 11
86.55476976056525
 21
-198.1730653938585
 31
0.0
  0
LINE
  5
C7
102
{ACAD_REACTORS
330
1AB
330
1AB
102
}
330
34
100
AcDbEntity
  8
0
  6
Continuous
 62
   250
100
AcDbLine
 10
86.55476976056525
 20
-198.1730653938585
 30
0.0
 11
86.55476976056525
 21
-196.5262276285475
 31
0.0
  0
LINE
  5
C8
102
{ACAD_REACTORS
330
1AB
330
1AB
102
}
330
34
100
AcDbEntity
  8
0
  6
Continuous
 62
   250
100
AcDbLine
 10
86.40306210068229
 20
-196.369064096345
 30
0.0
 11
86.40306210068229
 21
-198.1730653938585
 31
0.0
  0
LINE
  5
C9
102
{ACAD_REACTORS
330
1AB
330
1AB
102
}
330
34
100
AcDbEntity
  8
0
  6
Continuous
 62
   250
100
AcDbLine
 10
86.63601861185452
 20
-196.369064096345
 30
0.0
 11
86.40306210068229
 21
-196.369064096345
 31
0.0
  0
LINE
  5
CA
102
{ACAD_REACTORS
330
1AB
330
1AB
102
}
330
34
100
AcDbEntity
  8
0
  6
Continuous
 62
   250
100
AcDbLine
 10
87.64367672859225
 20
-198.173106071733
 30
0.0
 11
87.64367672859225
 21
-196.369064096345
 31
0.0
  0
LINE
  5
CB
102
{ACAD_REACTORS
330
1AB
330
1AB
102
}
330
34
100
AcDbEntity
  8
0
  6
Continuous
 62
   250
100
AcDbLine
 10
87.64367672859225
 20
-196.369064096345
 30
0.0
 11
87.4920097465947
 21
-196.369064096345
 31
0.0
  0
LINE
  5
CC
102
{ACAD_REACTORS
330
1AB
330
1AB
102
}
330
34
100
AcDbEntity
  8
0
  6
Continuous
 62
   250
100
AcDbLine
 10
87.4920097465947
 20
-198.018630424388
 30
0.0
 11
86.63601861185452
 21
-196.369064096345
 31
0.0
  0
LINE
  5
CD
102
{ACAD_REACTORS
330
1AB
330
1AB
102
}
330
34
100
AcDbEntity
  8
0
  6
Continuous
 62
   250
100
AcDbLine
 10
86.55476976056525
 20
-196.5262276285475
 30
0.0
 11
87.41080285122007
 21
-198.173106071733
 31
0.0
  0
LINE
  5
CE
102
{ACAD_REACTORS
330
1AC
330
1AC
102
}
330
34
100
AcDbEntity
  8
0
  6
Continuous
 62
   250
100
AcDbLine
 10
88.09057520963688
 20
-198.173106071733
 30
0.0
 11
88.25042601239693
 21
-198.173106071733
 31
0.0
  0
LINE
  5
CF
102
{ACAD_REACTORS
330
1AC
330
1AC
102
}
330
34
100
AcDbEntity
  8
0
  6
Continuous
 62
   250
100
AcDbLine
 10
88.25042601239693
 20
-196.369064096345
 30
0.0
 11
88.09057520963688
 21
-196.369064096345
 31
0.0
  0
LINE
  5
D0
102
{ACAD_REACTORS
330
1AC
330
1AC
102
}
330
34
100
AcDbEntity
  8
0
  6
Continuous
 62
   250
100
AcDbLine
 10
88.25042601239693
 20
-198.173106071733
 30
0.0
 11
88.25042601239693
 21
-196.369064096345
 31
0.0
  0
LINE
  5
D1
102
{ACAD_REACTORS
330
1AC
330
1AC
102
}
330
34
100
AcDbEntity
  8
0
  6
Continuous
 62
   250
100
AcDbLine
 10
88.09057520963688
 20
-196.369064096345
 30
0.0
 11
88.09057520963688
 21
-198.173106071733
 31
0.0
  0
LINE
  5
D2
102
{ACAD_REACTORS
330
1AD
330
1AD
102
}
330
34
100
AcDbEntity
  8
0
  6
Continuous
 62
   250
100
AcDbLine
 10
88.85713367232529
 20
-196.369064096345
 30
0.0
 11
88.69728286955069
 21
-196.369064096345
 31
0.0
  0
LINE
  5
D3
102
{ACAD_REACTORS
330
1AD
330
1AD
102
}
330
34
100
AcDbEntity
  8
0
  6
Continuous
 62
   250
100
AcDbLine
 10
88.69728286955069
 20
-198.173106071733
 30
0.0
 11
88.85713367232529
 21
-198.173106071733
 31
0.0
  0
LINE
  5
D4
102
{ACAD_REACTORS
330
1AD
330
1AD
102
}
330
34
100
AcDbEntity
  8
0
  6
Continuous
 62
   250
100
AcDbLine
 10
88.85713367232529
 20
-198.173106071733
 30
0.0
 11
88.85713367232529
 21
-196.369064096345
 31
0.0
  0
LINE
  5
D5
102
{ACAD_REACTORS
330
1AD
330
1AD
102
}
330
34
100
AcDbEntity
  8
0
  6
Continuous
 62
   250
100
AcDbLine
 10
88.69728286955069
 20
-196.369064096345
 30
0.0
 11
88.69728286955069
 21
-198.173106071733
 31
0.0
  0
LINE
  5
D6
330
34
100
AcDbEntity
  8
0
  6
PHANTOM
 62
   250
100
AcDbLine
 10
77.93445271569362
 20
-195.1227905138885
 30
0.0
 11
77.93445271569362
 21
-191.7165965301529
 31
0.0
  0
LINE
  5
D7
330
34
100
AcDbEntity
  8
0
  6
PHANTOM
 62
   250
100
AcDbLine
 10
77.93445271569362
 20
-191.7165965301529
 30
0.0
 11
77.1673030048405
 21
-191.7165965301529
 31
0.0
  0
LINE
  5
D8
330
34
100
AcDbEntity
  8
0
  6
Continuous
 62
   250
100
AcDbLine
 10
81.18728922064474
 20
-195.1227905138885
 30
0.0
 11
81.92895093215338
 21
-195.1227905138885
 31
0.0
  0
LINE
  5
D9
330
34
100
AcDbEntity
  8
0
  6
Continuous
 62
   250
100
AcDbLine
 10
77.93445271569362
 20
-195.1227905138885
 30
0.0
 11
77.93445271569362
 21
-191.7165965301529
 31
0.0
  0
LINE
  5
DA
330
34
100
AcDbEntity
  8
0
  6
Continuous
 62
   250
100
AcDbLine
 10
77.93445271569362
 20
-191.7165965301529
 30
0.0
 11
77.1673030048405
 21
-191.7165965301529
 31
0.0
  0
LINE
  5
DB
330
34
100
AcDbEntity
  8
0
  6
Continuous
 62
   250
100
AcDbLine
 10
77.93445271569362
 20
-195.1227905138885
 30
0.0
 11
77.93445271569362
 21
-191.7165965301529
 31
0.0
  0
LINE
  5
DC
102
{ACAD_REACTORS
330
1AE
330
1AE
102
}
330
34
100
AcDbEntity
  8
0
  6
Continuous
 62
   250
100
AcDbLine
 10
81.18728922064474
 20
-195.1227905138885
 30
0.0
 11
81.92895093215338
 21
-195.1227905138885
 31
0.0
  0
LINE
  5
DD
330
34
100
AcDbEntity
  8
0
  6
Continuous
 62
   250
100
AcDbLine
 10
77.93445271569362
 20
-195.1227905138885
 30
0.0
 11
77.93445271569362
 21
-191.7165965301529
 31
0.0
  0
LINE
  5
DE
102
{ACAD_REACTORS
330
1AF
330
1AF
102
}
330
34
100
AcDbEntity
  8
0
  6
Continuous
 62
   250
100
AcDbLine
 10
77.93445271569362
 20
-191.7165965301529
 30
0.0
 11
77.1673030048405
 21
-191.7165965301529
 31
0.0
  0
LINE
  5
DF
102
{ACAD_REACTORS
330
1AF
330
1AF
102
}
330
34
100
AcDbEntity
  8
0
  6
Continuous
 62
   250
100
AcDbLine
 10
77.93445271569362
 20
-195.1227905138885
 30
0.0
 11
77.93445271569362
 21
-191.7165965301529
 31
0.0
  0
LINE
  5
E0
330
34
100
AcDbEntity
  8
0
  6
Continuous
 62
     2
100
AcDbLine
 10
-218.4130653325483
 20
70.28851496129391
 30
0.0
 11
-211.4130699746456
 21
70.28851496129391
 31
0.0
  0
LINE
  5
E1
330
34
100
AcDbEntity
  8
0
  6
Continuous
 62
     2
100
AcDbLine
 10
-211.4130699746456
 20
84.88850236129383
 30
0.0
 11
-218.4130653325483
 21
84.88850236129383
 31
0.0
  0
LINE
  5
E2
330
34
100
AcDbEntity
  8
0
  6
Continuous
 62
     2
100
AcDbLine
 10
-218.4130653325483
 20
84.88850236129383
 30
0.0
 11
-218.4130653325483
 21
70.28851496129391
 31
0.0
  0
LINE
  5
E3
330
34
100
AcDbEntity
  8
1
  6
Continuous
 62
     7
100
AcDbLine
 10
183.5869300253544
 20
84.88850236129383
 30
0.0
 11
183.5869300253544
 21
-201.1114976387062
 31
0.0
  0
LINE
  5
E4
330
34
100
AcDbEntity
  8
1
  6
Continuous
 62
     7
100
AcDbLine
 10
-226.4130699746456
 20
-58.11149763870617
 30
0.0
 11
-211.4130699746456
 21
-58.11149763870617
 31
0.0
  0
LINE
  5
E5
330
34
100
AcDbEntity
  8
1
  6
Continuous
 62
     7
100
AcDbLine
 10
-211.4130699746456
 20
84.88850236129383
 30
0.0
 11
-211.4130699746456
 21
-201.1114976387062
 31
0.0
  0
LINE
  5
E6
330
34
100
AcDbEntity
  8
1
  6
Continuous
 62
     7
100
AcDbLine
 10
-211.4130699746456
 20
84.88850236129383
 30
0.0
 11
183.5869300253544
 21
84.88850236129383
 31
0.0
  0
LINE
  5
E7
330
34
100
AcDbEntity
  8
1
  6
Continuous
 62
     7
100
AcDbLine
 10
-211.4130699746456
 20
-201.1114976387062
 30
0.0
 11
60.51684515956004
 21
-201.1114976387062
 31
0.0
  0
LINE
  5
E8
330
34
100
AcDbEntity
  8
1
  6
Continuous
 62
     7
100
AcDbLine
 10
170.5869300253544
 20
-188.7781642853061
 30
0.0
 11
183.5869300253544
 21
-188.7781642853061
 31
0.0
  0
LINE
  5
E9
330
34
100
AcDbEntity
  8
1
  6
Continuous
 62
     2
100
AcDbLine
 10
170.5869300253544
 20
-188.7781642853061
 30
0.0
 11
170.5869300253544
 21
-188.7787976387062
 31
0.0
  0
LINE
  5
EA
330
34
100
AcDbEntity
  8
1
  6
Continuous
 62
     7
100
AcDbLine
 10
68.58693002535438
 20
-188.7781642853061
 30
0.0
 11
170.5869300253544
 21
-188.7781642853061
 31
0.0
  0
LINE
  5
EB
330
34
100
AcDbEntity
  8
1
  6
Continuous
 62
     7
100
AcDbLine
 10
68.58693002535438
 20
-180.1114976387062
 30
0.0
 11
105.5869300253544
 21
-180.1114976387062
 31
0.0
  0
LINE
  5
EC
330
34
100
AcDbEntity
  8
1
  6
Continuous
 62
     7
100
AcDbLine
 10
0.58693002535438
 20
-146.1114976387062
 30
0.0
 11
8.58693002535438
 21
-146.1114976387062
 31
0.0
  0
LINE
  5
ED
330
34
100
AcDbEntity
  8
1
  6
Continuous
 62
     7
100
AcDbLine
 10
68.58693002535438
 20
-154.1114976387062
 30
0.0
 11
183.5869300253544
 21
-154.1114976387062
 31
0.0
  0
LINE
  5
EE
330
34
100
AcDbEntity
  8
1
  6
Continuous
 62
     7
100
AcDbLine
 10
183.5869300253544
 20
-201.1114976387062
 30
0.0
 11
170.5869300253544
 21
-201.1114976387062
 31
0.0
  0
LINE
  5
EF
330
34
100
AcDbEntity
  8
1
  6
Continuous
 62
     7
100
AcDbLine
 10
163.5869300253544
 20
-146.1114976387062
 30
0.0
 11
163.5869300253544
 21
-154.1114976387062
 31
0.0
  0
LINE
  5
F0
330
34
100
AcDbEntity
  8
1
  6
Continuous
 62
     7
100
AcDbLine
 10
68.58693002535438
 20
-146.1114976387062
 30
0.0
 11
183.5869300253544
 21
-146.1114976387062
 31
0.0
  0
LINE
  5
F1
330
34
100
AcDbEntity
  8
1
  6
Continuous
 62
     7
100
AcDbLine
 10
105.5869300253544
 20
-180.1127976387061
 30
0.0
 11
183.5869300253544
 21
-180.1127976387061
 31
0.0
  0
LINE
  5
F2
330
34
100
AcDbEntity
  8
1
  6
Continuous
 62
     7
100
AcDbLine
 10
68.58693002535438
 20
-171.4444976387058
 30
0.0
 11
105.5869300253544
 21
-171.4444976387058
 31
0.0
  0
LINE
  5
F3
330
34
100
AcDbEntity
  8
1
  6
Continuous
 62
     7
100
AcDbLine
 10
105.5869300253544
 20
-146.1114976387062
 30
0.0
 11
105.5869300253544
 21
-201.1114976387062
 31
0.0
  0
LINE
  5
F4
330
34
100
AcDbEntity
  8
1
  6
Continuous
 62
     2
100
AcDbLine
 10
68.58693002535438
 20
-158.4448309720056
 30
0.0
 11
105.5869300253544
 21
-158.4448309720056
 31
0.0
  0
LINE
  5
F5
330
34
100
AcDbEntity
  8
1
  6
Continuous
 62
     2
100
AcDbLine
 10
68.58693002535438
 20
-162.7781643053058
 30
0.0
 11
105.5869300253544
 21
-162.7781643053058
 31
0.0
  0
LINE
  5
F6
330
34
100
AcDbEntity
  8
1
  6
Continuous
 62
     2
100
AcDbLine
 10
77.58693002535438
 20
-154.1114976387062
 30
0.0
 11
77.58693002535438
 21
-167.1114976387062
 31
0.0
  0
LINE
  5
F7
330
34
100
AcDbEntity
  8
1
  6
Continuous
 62
     2
100
AcDbLine
 10
92.58693002535438
 20
-154.1114976387062
 30
0.0
 11
92.58693002535438
 21
-167.1114976387062
 31
0.0
  0
LINE
  5
F8
330
34
100
AcDbEntity
  8
1
  6
Continuous
 62
     2
100
AcDbLine
 10
0.58693002535438
 20
-149.7781643120061
 30
0.0
 11
68.58693002535438
 21
-149.7781643120061
 31
0.0
  0
LINE
  5
F9
330
34
100
AcDbEntity
  8
1
  6
Continuous
 62
     2
100
AcDbLine
 10
0.58693002535438
 20
-154.1114976420058
 30
0.0
 11
68.58693002535438
 21
-154.1114976387062
 31
0.0
  0
LINE
  5
FA
330
34
100
AcDbEntity
  8
1
  6
Continuous
 62
     2
100
AcDbLine
 10
0.58693002535438
 20
-158.4448309720056
 30
0.0
 11
68.58693002535438
 21
-158.4448309720056
 31
0.0
  0
LINE
  5
FB
330
34
100
AcDbEntity
  8
1
  6
Continuous
 62
     2
100
AcDbLine
 10
0.58693002535438
 20
-162.7781643053058
 30
0.0
 11
68.58693002535438
 21
-162.7781643053058
 31
0.0
  0
LINE
  5
FC
330
34
100
AcDbEntity
  8
1
  6
Continuous
 62
     2
100
AcDbLine
 10
0.58693002535438
 20
-167.1114976353056
 30
0.0
 11
68.58693002535438
 21
-167.1114976387062
 31
0.0
  0
LINE
  5
FD
330
34
100
AcDbEntity
  8
1
  6
Continuous
 62
     2
100
AcDbLine
 10
0.58693002535438
 20
-171.4448309653062
 30
0.0
 11
68.58693002535438
 21
-171.4448309653062
 31
0.0
  0
LINE
  5
FE
330
34
100
AcDbEntity
  8
1
  6
Continuous
 62
     2
100
AcDbLine
 10
0.58693002535438
 20
-175.7781642953059
 30
0.0
 11
68.58693002535438
 21
-175.7781642953059
 31
0.0
  0
LINE
  5
FF
330
34
100
AcDbEntity
  8
1
  6
Continuous
 62
     2
100
AcDbLine
 10
0.58693002535438
 20
-180.1114976253048
 30
0.0
 11
68.58693002535438
 21
-180.1114976253048
 31
0.0
  0
LINE
  5
100
330
34
100
AcDbEntity
  8
1
  6
Continuous
 62
     2
100
AcDbLine
 10
0.58693002535438
 20
-184.4448309553063
 30
0.0
 11
68.58693002535438
 21
-184.4448309553063
 31
0.0
  0
LINE
  5
101
330
34
100
AcDbEntity
  8
1
  6
Continuous
 62
     2
100
AcDbLine
 10
0.58693002535438
 20
-188.7781642853061
 30
0.0
 11
68.58693002535438
 21
-188.7781642853061
 31
0.0
  0
LINE
  5
102
330
34
100
AcDbEntity
  8
1
  6
Continuous
 62
     2
100
AcDbLine
 10
0.58693002535438
 20
-193.1114976153058
 30
0.0
 11
68.58693002535438
 21
-193.1114976153058
 31
0.0
  0
LINE
  5
103
330
34
100
AcDbEntity
  8
1
  6
Continuous
 62
     2
100
AcDbLine
 10
0.58693002535438
 20
-197.4448309453055
 30
0.0
 11
60.51684515956004
 21
-197.4448309453055
 31
0.0
  0
LINE
  5
104
330
34
100
AcDbEntity
  8
1
  6
Continuous
 62
     7
100
AcDbLine
 10
68.58693002535438
 20
-201.1114976387062
 30
0.0
 11
68.58693002535438
 21
-146.1114976387062
 31
0.0
  0
LINE
  5
105
330
34
100
AcDbEntity
  8
1
  6
Continuous
 62
     2
100
AcDbLine
 10
8.58693002535438
 20
-146.1114976387062
 30
0.0
 11
8.58693002535438
 21
-201.1114976387062
 31
0.0
  0
LINE
  5
106
330
34
100
AcDbEntity
  8
1
  6
Continuous
 62
     2
100
AcDbLine
 10
48.58693002535438
 20
-146.1114976387062
 30
0.0
 11
48.58693002535438
 21
-201.1114976387062
 31
0.0
  0
LINE
  5
107
330
34
100
AcDbEntity
  8
1
  6
Continuous
 62
     7
100
AcDbLine
 10
0.58693002535438
 20
-146.1114976387062
 30
0.0
 11
0.58693002535438
 21
-201.1114976387062
 31
0.0
  0
LINE
  5
108
330
34
100
AcDbEntity
  8
1
  6
Continuous
 62
     7
100
AcDbLine
 10
8.58693002535438
 20
-146.1114976387062
 30
0.0
 11
60.51684515956004
 21
-146.1114976387062
 31
0.0
  0
LINE
  5
109
330
34
100
AcDbEntity
  8
1
  6
Continuous
 62
     7
100
AcDbLine
 10
170.5869300253544
 20
-201.1114976387062
 30
0.0
 11
60.51684515956004
 21
-201.1114976387062
 31
0.0
  0
LINE
  5
10A
330
34
100
AcDbEntity
  8
1
  6
Continuous
 62
     2
100
AcDbLine
 10
157.5869300253544
 20
-180.1127976387061
 30
0.0
 11
157.5869300253544
 21
-188.7787976387062
 31
0.0
  0
LINE
  5
10B
330
34
100
AcDbEntity
  8
1
  6
Continuous
 62
     2
100
AcDbLine
 10
170.5869300253544
 20
-180.1127976387061
 30
0.0
 11
170.5869300253544
 21
-188.7787976387062
 31
0.0
  0
LINE
  5
10C
330
34
100
AcDbEntity
  8
1
  6
Continuous
 62
     2
100
AcDbLine
 10
170.5869300253544
 20
-188.7787976387062
 30
0.0
 11
170.5869300253544
 21
-201.1114976387062
 31
0.0
  0
LINE
  5
10D
330
34
100
AcDbEntity
  8
0
  6
Continuous
 62
     2
100
AcDbLine
 10
162.1324865969655
 20
-184.6115767226047
 30
0.0
 11
159.9964123214522
 21
-185.3940003089065
 31
0.0
  0
LINE
  5
10E
330
34
100
AcDbEntity
  8
DEFAULT_1
  6
CENTER
 62
     2
100
AcDbLine
 10
165.6895571731657
 20
-184.3752270527048
 30
0.0
 11
165.6895571731657
 21
-187.9446636527064
 31
0.0
  0
LINE
  5
10F
330
34
100
AcDbEntity
  8
0
  6
Continuous
 62
     2
100
AcDbLine
 10
162.1324865969655
 20
-187.7288495982048
 30
0.0
 11
162.1324865969655
 21
-184.6115767226047
 31
0.0
  0
LINE
  5
110
330
34
100
AcDbEntity
  8
0
  6
Continuous
 62
     2
100
AcDbLine
 10
159.9964123214522
 20
-185.3940003089065
 30
0.0
 11
159.9964123214522
 21
-186.946426761906
 31
0.0
  0
LINE
  5
111
330
34
100
AcDbEntity
  8
0
  6
Continuous
 62
     2
100
AcDbLine
 10
159.9964123214522
 20
-186.946426761906
 30
0.0
 11
162.1324865969655
 21
-187.7288495982048
 31
0.0
  0
LINE
  5
112
330
34
100
AcDbEntity
  8
DEFAULT_1
  6
CENTER
 62
     2
100
AcDbLine
 10
163.8066221403569
 20
-186.169697911706
 30
0.0
 11
167.6010587403507
 21
-186.169697911706
 31
0.0
  0
LINE
  5
113
330
34
100
AcDbEntity
  8
DEFAULT_1
  6
CENTER
 62
     2
100
AcDbLine
 10
162.6793334701506
 20
-186.169697911706
 30
0.0
 11
159.3662790393501
 21
-186.169697911706
 31
0.0
  0
LINE
  5
114
330
34
100
AcDbEntity
  8
0
  6
Continuous
 62
     2
100
AcDbLine
 10
159.9964123214522
 20
-185.3940003089065
 30
0.0
 11
159.9964123214522
 21
-186.946426761906
 31
0.0
  0
LINE
  5
115
330
34
100
AcDbEntity
  8
0
  6
Continuous
 62
     2
100
AcDbLine
 10
159.9964123214522
 20
-186.946426761906
 30
0.0
 11
162.1324865969655
 21
-187.7288495982048
 31
0.0
  0
LINE
  5
116
330
34
100
AcDbEntity
  8
1
  6
Continuous
 62
     2
100
AcDbLine
 10
68.58693002535438
 20
-167.1114976387062
 30
0.0
 11
105.5869300253544
 21
-167.1114976387062
 31
0.0
  0
LINE
  5
117
330
34
100
AcDbEntity
  8
1
  6
Continuous
 62
     2
100
AcDbLine
 10
92.58693002535438
 20
-158.4448309721056
 30
0.0
 11
92.58693002535438
 21
-171.4448309721056
 31
0.0
  0
LINE
  5
118
330
34
100
AcDbEntity
  8
1
  6
Continuous
 62
     2
100
AcDbLine
 10
77.58693002535438
 20
-158.4448309721056
 30
0.0
 11
77.58693002535438
 21
-171.4448309721056
 31
0.0
  0
LINE
  5
119
330
34
100
AcDbEntity
  8
1
  6
Continuous
 62
     2
100
AcDbLine
 10
60.51684515956004
 20
-197.4448309453055
 30
0.0
 11
60.51684515956004
 21
-146.1114976387062
 31
0.0
  0
LINE
  5
11A
330
34
100
AcDbEntity
  8
1
  6
Continuous
 62
     2
100
AcDbLine
 10
60.51684515956004
 20
-197.4448309453055
 30
0.0
 11
68.58693002535438
 21
-197.4448309453055
 31
0.0
  0
LINE
  5
11B
330
34
100
AcDbEntity
  8
1
  6
Continuous
 62
     7
100
AcDbLine
 10
60.51684515956004
 20
-146.1114976387062
 30
0.0
 11
68.58693002535438
 21
-146.1114976387062
 31
0.0
  0
CIRCLE
  5
11C
330
34
100
AcDbEntity
  8
0
  6
Continuous
 62
     2
100
AcDbCircle
 10
165.6895571731657
 20
-186.169697911706
 30
0.0
 40
0.7762481014869991
  0
CIRCLE
  5
11D
330
34
100
AcDbEntity
  8
0
  6
Continuous
 62
     2
100
AcDbCircle
 10
165.6895571731657
 20
-186.169697911706
 30
0.0
 40
1.558121189089405
  0
SPLINE
  5
11E
102
{ACAD_REACTORS
330
1B0
330
1B0
102
}
330
34
100
AcDbEntity
  8
0
  6
Continuous
 62
   250
100
AcDbSpline
210
0.0
220
0.0
230
1.0
 70
    11
 71
     3
 72
    99
 73
    95
 74
    93
 42
0.0000000001
 43
0.0000000001
 44
0.00000001
 40
0.0
 40
0.0
 40
0.0
 40
0.0
 40
0.2058865780147674
 40
0.3802558940280119
 40
0.5295924281102353
 40
0.6639497481639882
 40
0.7981974139382951
 40
0.9497668026613064
 40
1.134316501007217
 40
1.364156598964878
 40
1.649145981489625
 40
1.854658565367975
 40
2.005118304764461
 40
2.112155837278237
 40
2.191303161446584
 40
2.265236695307815
 40
2.356357153045448
 40
2.478213504442029
 40
2.607364319186762
 40
2.704600041413758
 40
2.798194798014053
 40
2.92215871544079
 40
3.097569675892025
 40
3.320278193146803
 40
3.54076071202955
 40
3.777817256889274
 40
4.049964076873878
 40
4.077851712666452
 40
4.151373661574286
 40
4.255318485892202
 40
4.374474747915185
 40
4.493631009938168
 40
4.597575834256084
 40
4.671097783163891
 40
4.698985418956492
 40
5.074893807981978
 40
5.424148807298436
 40
5.739911003193852
 40
6.026947052101507
 40
6.268079625838931
 40
6.470402581445178
 40
6.643379948261166
 40
6.799454196879422
 40
6.953060992112266
 40
7.117582259697459
 40
7.302801600080852
 40
7.514778803621027
 40
7.73994701753424
 40
7.928433879635463
 40
8.087733113002997
 40
8.228542352422005
 40
8.36542348075378
 40
8.51454253908366
 40
8.689860884778332
 40
8.901809334336459
 40
9.15823761668872
 40
9.347768156407215
 40
9.493039108210622
 40
9.60179566794981
 40
9.683502780258287
 40
9.751054056304639
 40
9.819893170325702
 40
9.902273957924473
 40
10.0053477754882
 40
10.13191876994673
 40
10.23076108064033
 40
10.31667665043294
 40
10.41307294214304
 40
10.54070016440417
 40
10.71247660285187
 40
11.05520966766501
 40
11.38523983025182
 40
11.71146710544388
 40
11.73754500712034
 40
11.80629583881281
 40
11.90349529051601
 40
12.01491905222447
 40
12.12634281393296
 40
12.22354226563613
 40
12.2922930973286
 40
12.31837099900506
 40
12.57432624621825
 40
12.855057723277
 40
13.14962999357013
 40
13.44700399602038
 40
13.7608018282782
 40
14.02197667869467
 40
14.2393123470933
 40
14.42395217001398
 40
14.58972154951988
 40
14.75169157294848
 40
14.9229619773092
 40
15.11242230479246
 40
15.32497318704246
 40
15.32497318704246
 40
15.32497318704246
 40
15.32497318704246
 10
76.70698888514016
 20
-194.1664136995778
 30
0.0
 10
76.70677267144922
 20
-194.0977800730599
 30
0.0
 10
76.70637334221107
 20
-193.9710193037879
 30
0.0
 10
76.6953970180836
 20
-193.7946373667631
 30
0.0
 10
76.66735543939096
 20
-193.6438728347432
 30
0.0
 10
76.61261273381524
 20
-193.5140656793235
 30
0.0
 10
76.52236362069861
 20
-193.4044214770852
 30
0.0
 10
76.39304072637611
 20
-193.3133828179578
 30
0.0
 10
76.22089950669759
 20
-193.2347257272043
 30
0.0
 10
75.99909282927011
 20
-193.1620565702276
 30
0.0
 10
75.76626511462035
 20
-193.1030005035219
 30
0.0
 10
75.5582237480954
 20
-193.0544540638523
 30
0.0
 10
75.40916114374429
 20
-193.0140712332344
 30
0.0
 10
75.30390940548781
 20
-192.9743605063731
 30
0.0
 10
75.23230978302247
 20
-192.921019380368
 30
0.0
 10
75.19739313646565
 20
-192.8445398074245
 30
0.0
 10
75.18828696527828
 20
-192.7487981544003
 30
0.0
 10
75.18720739305459
 20
-192.6348312440105
 30
0.0
 10
75.19039551440517
 20
-192.5187335464071
 30
0.0
 10
75.2280346942144
 20
-192.4139969119545
 30
0.0
 10
75.31866461747683
 20
-192.3511475485825
 30
0.0
 10
75.44915396673292
 20
-192.3279497409708
 30
0.0
 10
75.6234586612607
 20
-192.3239485124107
 30
0.0
 10
75.8276327610473
 20
-192.3266350605613
 30
0.0
 10
76.06211143321728
 20
-192.356479441421
 30
0.0
 10
76.26809142830004
 20
-192.3413105955882
 30
0.0
 10
76.54962489494028
 20
-192.5108278511347
 30
0.0
 10
76.55765297963822
 20
-192.3782607685197
 30
0.0
 10
76.56728932334755
 20
-192.3123465174268
 30
0.0
 10
76.57824089716493
 20
-192.2132141399242
 30
0.0
 10
76.5920300432623
 20
-192.1002063052917
 30
0.0
 10
76.60521946749171
 20
-191.9869981454993
 30
0.0
 10
76.61759761375251
 20
-191.8883422861431
 30
0.0
 10
76.62423485016916
 20
-191.8214262429192
 30
0.0
 10
76.65107221382856
 20
-191.6575744252079
 30
0.0
 10
76.21462222213671
 20
-191.7485001078216
 30
0.0
 10
75.93690128516413
 20
-191.6643334061635
 30
0.0
 10
75.60378662703185
 20
-191.6643557019373
 30
0.0
 10
75.3259435375362
 20
-191.6700977059931
 30
0.0
 10
75.08296140117508
 20
-191.6998686659124
 30
0.0
 10
74.88343782584266
 20
-191.7517790665376
 30
0.0
 10
74.72238750275754
 20
-191.8291221341398
 30
0.0
 10
74.59821651131236
 20
-191.9346099640873
 30
0.0
 10
74.51018389559674
 20
-192.068240905379
 30
0.0
 10
74.45462527213078
 20
-192.2278818167672
 30
0.0
 10
74.42532205738448
 20
-192.4135144239179
 30
0.0
 10
74.41892757466704
 20
-192.6211299159258
 30
0.0
 10
74.42312770803284
 20
-192.829680213258
 30
0.0
 10
74.43993216869016
 20
-193.0202091758844
 30
0.0
 10
74.47597718790071
 20
-193.1798255574767
 30
0.0
 10
74.53805119661266
 20
-193.313302001568
 30
0.0
 10
74.63247675270388
 20
-193.4221913706763
 30
0.0
 10
74.76103745606058
 20
-193.5089419195071
 30
0.0
 10
74.92574039394671
 20
-193.5800271895145
 30
0.0
 10
75.13130022552676
 20
-193.642476656275
 30
0.0
 10
75.34519907535686
 20
-193.6911394357321
 30
0.0
 10
75.53757117032963
 20
-193.7338745034421
 30
0.0
 10
75.68057922448428
 20
-193.7718240145457
 30
0.0
 10
75.78608554586599
 20
-193.8096562971467
 30
0.0
 10
75.86149032702264
 20
-193.8530259841917
 30
0.0
 10
75.90979197058286
 20
-193.9097605631416
 30
0.0
 10
75.93251645921922
 20
-193.9804204107779
 30
0.0
 10
75.93957359224814
 20
-194.0650753568455
 30
0.0
 10
75.94047456459809
 20
-194.1690992178364
 30
0.0
 10
75.93739588651403
 20
-194.2785930422888
 30
0.0
 10
75.91344144206009
 20
-194.3813845680738
 30
0.0
 10
75.85414409990561
 20
-194.458529416196
 30
0.0
 10
75.75733097221189
 20
-194.502067834902
 30
0.0
 10
75.62624443345516
 20
-194.5215220832831
 30
0.0
 10
75.41347104593214
 20
-194.52980863473
 30
0.0
 10
75.1204727640667
 20
-194.4933736504548
 30
0.0
 10
74.83716797765601
 20
-194.511643553345
 30
0.0
 10
74.50388902137229
 20
-194.2553888201345
 30
0.0
 10
74.47944992288932
 20
-194.4012096673867
 30
0.0
 10
74.46497239135492
 20
-194.4621319757156
 30
0.0
 10
74.4459634780459
 20
-194.5532744999844
 30
0.0
 10
74.42324489146029
 20
-194.6573431152575
 30
0.0
 10
74.40109491471091
 20
-194.7615459854189
 30
0.0
 10
74.38073343587651
 20
-194.8523691544426
 30
0.0
 10
74.36909942564355
 20
-194.9139628486857
 30
0.0
 10
74.33638521941114
 20
-195.0325300852584
 30
0.0
 10
74.64931339939919
 20
-195.0295920183956
 30
0.0
 10
74.86158222798598
 20
-195.1255590274678
 30
0.0
 10
75.16604892990503
 20
-195.1616079811659
 30
0.0
 10
75.46346746752917
 20
-195.1788588683157
 30
0.0
 10
75.7556506677435
 20
-195.1673954647569
 30
0.0
 10
76.01780869872107
 20
-195.1332114953251
 30
0.0
 10
76.23166456679337
 20
-195.0730504680669
 30
0.0
 10
76.40155339919667
 20
-194.9859671448566
 30
0.0
 10
76.53011336996698
 20
-194.8702730450429
 30
0.0
 10
76.61935737451525
 20
-194.7275852603982
 30
0.0
 10
76.67433683330185
 20
-194.5610243674836
 30
0.0
 10
76.70311517379659
 20
-194.3713793546422
 30
0.0
 10
76.70564913318606
 20
-194.2373025997933
 30
0.0
 10
76.70698888514016
 20
-194.1664136995778
 30
0.0
 11
76.70698888514016
 21
-194.1664136995778
 31
0.0
 11
76.70414686820551
 21
-193.9605467378127
 31
0.0
 11
76.69107493024364
 21
-193.7866680939117
 31
0.0
 11
76.66095424051767
 21
-193.6404007207142
 31
0.0
 11
76.60696596829074
 21
-193.5173675710594
 31
0.0
 11
76.52229128282596
 21
-193.4131915977868
 31
0.0
 11
76.40011135338648
 21
-193.3234957537357
 31
0.0
 11
76.2336073492354
 21
-193.2439029917456
 31
0.0
 11
76.01596043963588
 21
-193.1700362646557
 31
0.0
 11
75.740351793851
 21
-193.0975185253055
 31
0.0
 11
75.54066741942226
 21
-193.0489225096112
 31
0.0
 11
75.3959987054678
 21
-193.0075812906884
 31
0.0
 11
75.29749046963319
 21
-192.9657105271488
 31
0.0
 11
75.23628752956401
 21
-192.9155258776044
 31
0.0
 11
75.2035347029058
 21
-192.8492430006669
 31
0.0
 11
75.19037680730412
 21
-192.7590775549482
 31
0.0
 11
75.18795866040455
 21
-192.6372451990601
 31
0.0
 11
75.19867998073425
 21
-192.5085401632627
 31
0.0
 11
75.23689921666997
 21
-192.4191305682435
 31
0.0
 11
75.31169928063161
 21
-192.362872867487
 31
0.0
 11
75.43216308503912
 21
-192.3336235144779
 31
0.0
 11
75.60737354231242
 21
-192.3252389627005
 31
0.0
 11
75.83000574642972
 21
-192.331068658035
 31
0.0
 11
76.04976747850469
 21
-192.3488821991846
 31
0.0
 11
76.28488166477212
 21
-192.3791662688688
 31
0.0
 11
76.55357123146678
 21
-192.4224075498069
 31
0.0
 11
76.55686731407172
 21
-192.394715383594
 31
0.0
 11
76.56555698639386
 21
-192.3217087635782
 31
0.0
 11
76.57784238519412
 21
-192.2184925076938
 31
0.0
 11
76.59192564723344
 21
-192.100171433875
 31
0.0
 11
76.60600890927276
 21
-191.9818503600563
 31
0.0
 11
76.61829430807302
 21
-191.8786341041718
 31
0.0
 11
76.62698398039515
 21
-191.805627484156
 31
0.0
 11
76.6302800630001
 21
-191.7779353179431
 31
0.0
 11
76.26012241417118
 21
-191.7124339290023
 31
0.0
 11
75.91272497999819
 21
-191.6764606433925
 31
0.0
 11
75.59715384124138
 21
-191.6654778959937
 31
0.0
 11
75.31030008394912
 21
-191.6757060580881
 31
0.0
 11
75.07122622929874
 21
-191.7071482294483
 31
0.0
 11
74.87618540560975
 21
-191.7609409376899
 31
0.0
 11
74.72143074120159
 21
-191.8382207104284
 31
0.0
 11
74.6032153643937
 21
-191.9401240752792
 31
0.0
 11
74.51779240350555
 21
-192.0677875598581
 31
0.0
 11
74.4614149868566
 21
-192.2223476917803
 31
0.0
 11
74.43033624276629
 21
-192.4049409986616
 31
0.0
 11
74.4208092995541
 21
-192.6167040081173
 31
0.0
 11
74.42614596405993
 21
-192.8418089715651
 31
0.0
 11
74.44532822619337
 21
-193.0293172060621
 31
0.0
 11
74.4831144888783
 21
-193.1840700545134
 31
0.0
 11
74.54426315503859
 21
-193.3109088598239
 31
0.0
 11
74.63353262759817
 21
-193.4146749648983
 31
0.0
 11
74.75568130948092
 21
-193.5002097126415
 31
0.0
 11
74.91546760361071
 21
-193.5723544459585
 31
0.0
 11
75.11764991291145
 21
-193.6359505077542
 31
0.0
 11
75.366986640307
 21
-193.6958392409333
 31
0.0
 11
75.55165405650322
 21
-193.7384980135527
 31
0.0
 11
75.69167429933736
 21
-193.7772017735062
 31
0.0
 11
75.7932194119883
 21
-193.8161450576899
 31
0.0
 11
75.86246143763492
 21
-193.8595224029999
 31
0.0
 11
75.90557241945609
 21
-193.9115283463324
 31
0.0
 11
75.9287244006307
 21
-193.9763574245836
 31
0.0
 11
75.93808942433762
 21
-194.0582041746496
 31
0.0
 11
75.93983953375573
 21
-194.1612631334265
 31
0.0
 11
75.93233375759787
 21
-194.2876113821777
 31
0.0
 11
75.90536293501619
 21
-194.3827027966825
 31
0.0
 11
75.85224682484841
 21
-194.4502317828546
 31
0.0
 11
75.76630518593231
 21
-194.4938927466079
 31
0.0
 11
75.64085777710567
 21
-194.5173800938564
 31
0.0
 11
75.46922435720626
 21
-194.524388230514
 31
0.0
 11
75.12712527329697
 21
-194.5035514720178
 31
0.0
 11
74.80209069016726
 21
-194.4463463325041
 31
0.0
 11
74.48729843004548
 21
-194.3607305159358
 31
0.0
 11
74.4818023351869
 21
-194.3862226695748
 31
0.0
 11
74.46731263055972
 21
-194.4534292564411
 31
0.0
 11
74.44682718608681
 21
-194.5484454654591
 31
0.0
 11
74.42334387169103
 21
-194.6573664855528
 31
0.0
 11
74.39986055729526
 21
-194.7662875056465
 31
0.0
 11
74.37937511282234
 21
-194.8613037146645
 31
0.0
 11
74.36488540819516
 21
-194.9285103015308
 31
0.0
 11
74.35938931333658
 21
-194.9540024551698
 31
0.0
 11
74.59883051921588
 21
-195.0444513219567
 31
0.0
 11
74.87086038208508
 21
-195.11380487932
 31
0.0
 11
75.16206363574656
 21
-195.1582288309972
 31
0.0
 11
75.45902501400269
 21
-195.1738888807258
 31
0.0
 11
75.77258077362578
 21
-195.1615655233546
 31
0.0
 11
76.0311175716151
 21
-195.1245381473269
 31
0.0
 11
76.23947641574853
 21
-195.0627207967718
 31
0.0
 11
76.40249831380403
 21
-194.9760275158178
 31
0.0
 11
76.52502427355952
 21
-194.8643723485941
 31
0.0
 11
76.61189530279296
 21
-194.7276693392293
 31
0.0
 11
76.66795240928224
 21
-194.5658325318524
 31
0.0
 11
76.69803660080534
 21
-194.3787759705923
 31
0.0
 11
76.70698888514016
 21
-194.1664136995778
 31
0.0
  0
SPLINE
  5
11F
102
{ACAD_REACTORS
330
1B1
330
1B1
102
}
330
34
100
AcDbEntity
  8
0
  6
Continuous
 62
   250
100
AcDbSpline
210
0.0
220
0.0
230
1.0
 70
    11
 71
     3
 72
    21
 73
    17
 74
    15
 42
0.0000000001
 43
0.0000000001
 44
0.00000001
 40
0.0
 40
0.0
 40
0.0
 40
0.0
 40
0.341255245342811
 40
0.7767617679045002
 40
1.212268290469706
 40
1.553523535813901
 40
1.887662654731578
 40
2.508206732721539
 40
2.842345851639215
 40
3.18360109705941
 40
3.619107619627822
 40
4.054614142192732
 40
4.39586938761149
 40
4.730008506529138
 40
5.350552584519128
 40
5.684691703436804
 40
5.684691703436804
 40
5.684691703436804
 40
5.684691703436804
 10
84.23554912682448
 20
-194.0641149042695
 30
0.0
 10
84.2059922730152
 20
-194.1842663955821
 30
0.0
 10
84.13871525872186
 20
-194.4577540154266
 30
0.0
 10
83.68059502055236
 20
-194.5133865305873
 30
0.0
 10
83.23684547565622
 20
-194.459583050698
 30
0.0
 10
83.10682084141266
 20
-194.061157168302
 30
0.0
 10
83.14165137395024
 20
-193.6377797376022
 30
0.0
 10
83.1415743600696
 20
-193.2016159101058
 30
0.0
 10
83.10694636057761
 20
-192.7782765363028
 30
0.0
 10
83.23630857739953
 20
-192.3797085336077
 30
0.0
 10
83.68322212680033
 20
-192.3265896894647
 30
0.0
 10
84.12988083605504
 20
-192.3797406410351
 30
0.0
 10
84.25984256526222
 20
-192.7781806331343
 30
0.0
 10
84.22260644507865
 20
-193.2020976394729
 30
0.0
 10
84.23751866535103
 20
-193.6349339159449
 30
0.0
 10
84.23605974792395
 20
-193.9528457591483
 30
0.0
 10
84.23554912682448
 20
-194.0641149042695
 30
0.0
 11
84.23554912682448
 21
-194.0641149042695
 31
0.0
 11
84.1032070595138
 21
-194.3786633420242
 31
0.0
 11
83.68317635123094
 21
-194.4937291288297
 31
0.0
 11
83.26314564294444
 21
-194.3786633420242
 31
0.0
 11
83.13080357563013
 21
-194.0641149042695
 31
0.0
 11
83.13080357563014
 21
-193.7299757853518
 31
0.0
 11
83.13080357563013
 21
-193.1094317073619
 31
0.0
 11
83.13080357563013
 21
-192.7752925884442
 31
0.0
 11
83.26314564294444
 21
-192.4607441506071
 31
0.0
 11
83.68317635123094
 21
-192.3456783637894
 31
0.0
 11
84.1032070595138
 21
-192.4607441506071
 31
0.0
 11
84.23554912682448
 21
-192.7752925884442
 31
0.0
 11
84.23554912682448
 21
-193.1094317073618
 31
0.0
 11
84.23554912682448
 21
-193.7299757853518
 31
0.0
 11
84.23554912682448
 21
-194.0641149042695
 31
0.0
  0
SPLINE
  5
120
102
{ACAD_REACTORS
330
1B1
330
1B1
102
}
330
34
100
AcDbEntity
  8
0
  6
Continuous
 62
   250
100
AcDbSpline
210
0.0
220
0.0
230
1.0
 70
    11
 71
     3
 72
    21
 73
    17
 74
    15
 42
0.0000000001
 43
0.0000000001
 44
0.00000001
 40
0.0
 40
0.0
 40
0.0
 40
0.0
 40
0.775404439407058
 40
1.847167968754805
 40
2.918946034233409
 40
3.694344582237207
 40
4.062970101028625
 40
4.747560350212623
 40
5.116185869004013
 40
5.891546854204427
 40
6.96333114876871
 40
8.035100907286623
 40
8.810467784175705
 40
9.179093302967095
 40
9.863683552151121
 40
10.23230907094251
 40
10.23230907094251
 40
10.23230907094251
 40
10.23230907094251
 10
85.00273920338077
 20
-192.7087831029248
 30
0.0
 10
84.93418229273024
 20
-192.4408502559481
 30
0.0
 10
84.77086606321879
 20
-191.8025807960893
 30
0.0
 10
83.67404716719989
 20
-191.5871080113619
 30
0.0
 10
82.62692760213383
 20
-191.7986232183202
 30
0.0
 10
82.33869565468855
 20
-192.5767804755739
 30
0.0
 10
82.3716360323787
 20
-193.1812109371257
 30
0.0
 10
82.37156257151833
 20
-193.6582034473397
 30
0.0
 10
82.33886995961346
 20
-194.2625931721185
 30
0.0
 10
82.62517282676522
 20
-195.0409858324373
 30
0.0
 10
83.68327987221453
 20
-195.2510195450043
 30
0.0
 10
84.74079649361511
 20
-195.0409321369389
 30
0.0
 10
85.02818920442995
 20
-194.2626935374053
 30
0.0
 10
84.9932418677569
 20
-193.6579876296842
 30
0.0
 10
85.00418445010614
 20
-193.1825307996208
 30
0.0
 10
85.00311389697623
 20
-192.831606579846
 30
0.0
 10
85.00273920338077
 20
-192.7087831029248
 30
0.0
 11
85.00273920338077
 21
-192.7087831029248
 31
0.0
 11
84.70353812677786
 21
-191.9934295117464
 31
0.0
 11
83.68317635123094
 21
-191.6654982539458
 31
0.0
 11
82.6627993072916
 21
-191.9934295117464
 31
0.0
 11
82.36361349908111
 21
-192.7087831029248
 31
0.0
 11
82.36361349908111
 21
-193.0774086217162
 31
0.0
 11
82.36361349908111
 21
-193.7619988709002
 31
0.0
 11
82.36361349908111
 21
-194.1306243896916
 31
0.0
 11
82.6627993072916
 21
-194.8459372649681
 31
0.0
 11
83.68317635123094
 21
-195.1738888807231
 31
0.0
 11
84.70353812677786
 21
-194.8459372649681
 31
0.0
 11
85.00273920338077
 21
-194.1306243896916
 31
0.0
 11
85.00273920338077
 21
-193.7619988709002
 31
0.0
 11
85.00273920338077
 21
-193.0774086217162
 31
0.0
 11
85.00273920338077
 21
-192.7087831029248
 31
0.0
  0
SPLINE
  5
121
102
{ACAD_REACTORS
330
1B2
330
1B2
102
}
330
34
100
AcDbEntity
  8
0
  6
Continuous
 62
   250
100
AcDbSpline
210
0.0
220
0.0
230
1.0
 70
    11
 71
     3
 72
   100
 73
    96
 74
    94
 42
0.0000000001
 43
0.0000000001
 44
0.00000001
 40
0.0
 40
0.0
 40
0.0
 40
0.0
 40
0.186799517489239
 40
0.3476296850620643
 40
0.4869324351435724
 40
0.6112224347066285
 40
0.7301389440907944
 40
0.855998185451919
 40
1.00129609649321
 40
1.176591637421221
 40
1.390310174631775
 40
1.649435668550086
 40
1.854960965008749
 40
2.005426185475224
 40
2.112464178547605
 40
2.191609553932874
 40
2.265540883322664
 40
2.35665815458218
 40
2.478508054744324
 40
2.607650889826954
 40
2.704883281831998
 40
2.798472513061099
 40
2.922426590498449
 40
3.097825602678758
 40
3.320545631082183
 40
3.541031983084713
 40
3.778083321099171
 40
4.050213732335607
 40
4.078098969102668
 40
4.151614593306713
 40
4.25555047580212
 40
4.374696487443178
 40
4.493842499084237
 40
4.597778381579643
 40
4.671294005783717
 40
4.69917924255075
 40
5.075100995887318
 40
5.42435599520987
 40
5.740104627403075
 40
6.027141324267032
 40
6.268275265149717
 40
6.470599391733564
 40
6.643576762308461
 40
6.799649158021642
 40
6.953252401170636
 40
7.117769507451309
 40
7.302985472787397
 40
7.514961312823157
 40
7.740135613518293
 40
7.928627384867274
 40
8.08793070466593
 40
8.228743612216544
 40
8.365628433716838
 40
8.514751623757954
 40
8.690074879970668
 40
8.902029307551317
 40
9.158464906469039
 40
9.34799726448215
 40
9.49326594744634
 40
9.602017205947917
 40
9.683717463645234
 40
9.751262642785711
 40
9.820098395033673
 40
9.902478136999656
 40
10.00555184603492
 40
10.13213845283847
 40
10.23098801874642
 40
10.31690411123261
 40
10.41329669627945
 40
10.54091781656118
 40
10.71268563162491
 40
11.05541935737166
 40
11.38546625508887
 40
11.71168673955345
 40
11.73776274674536
 40
11.80650858388762
 40
11.90370097433016
 40
12.0151166414228
 40
12.12653230851543
 40
12.22372469895797
 40
12.29247053610026
 40
12.31854654329214
 40
12.57450149804837
 40
12.85523082020362
 40
13.14979711690446
 40
13.44715936644981
 40
13.76095789740455
 40
14.02213462765628
 40
14.23947304388131
 40
14.42411618739816
 40
14.58988921184229
 40
14.75186310253242
 40
14.92313774472978
 40
15.11260302890605
 40
15.32515999509529
 40
15.32515999509529
 40
15.32515999509529
 40
15.32515999509529
 10
90.98682174751593
 20
-194.1663933416257
 30
0.0
 10
90.98663359548401
 20
-194.1041238179939
 30
0.0
 10
90.98628344880015
 20
-193.9882416402452
 30
0.0
 10
90.97781050428853
 20
-193.8260302994501
 30
0.0
 10
90.95679359240498
 20
-193.6857534108861
 30
0.0
 10
90.91690758606612
 20
-193.5637131455619
 30
0.0
 10
90.85138980593261
 20
-193.4579880525501
 30
0.0
 10
90.75581776908754
 20
-193.3679629032357
 30
0.0
 10
90.62774074573636
 20
-193.2906830060484
 30
0.0
 10
90.46318800750538
 20
-193.2215644559643
 30
0.0
 10
90.25700949050426
 20
-193.1564013877472
 30
0.0
 10
90.03769916760962
 20
-193.1010465815715
 30
0.0
 10
89.8380459702766
 20
-193.0544530857255
 30
0.0
 10
89.68897760970839
 20
-193.0140689396489
 30
0.0
 10
89.58372532879648
 20
-192.9743551946393
 30
0.0
 10
89.51212935834674
 20
-192.921010684453
 30
0.0
 10
89.47721978901909
 20
-192.8445306364326
 30
0.0
 10
89.46811884310891
 20
-192.7487928129955
 30
0.0
 10
89.46704062505707
 20
-192.6348316976523
 30
0.0
 10
89.47022807284088
 20
-192.5187401593717
 30
0.0
 10
89.50785912667924
 20
-192.4140078014994
 30
0.0
 10
89.59847731935426
 20
-192.351153189118
 30
0.0
 10
89.7289574403744
 20
-192.3279505268479
 30
0.0
 10
89.9032585561901
 20
-192.3239476299314
 30
0.0
 10
90.10743377334597
 20
-192.3266374839273
 30
0.0
 10
90.34191554019694
 20
-192.3564826095342
 30
0.0
 10
90.54789305092453
 20
-192.3413092831251
 30
0.0
 10
90.82941080476797
 20
-192.5107802461878
 30
0.0
 10
90.83744800454154
 20
-192.3782244135878
 30
0.0
 10
90.84708837613888
 20
-192.3123161385263
 30
0.0
 10
90.85804627873388
 20
-192.2131932806457
 30
0.0
 10
90.8718425320277
 20
-192.1001961174153
 30
0.0
 10
90.88503915410055
 20
-191.9869986804419
 30
0.0
 10
90.89742341351482
 20
-191.8883522184011
 30
0.0
 10
90.90406513112967
 20
-191.8214424083359
 30
0.0
 10
90.93091401393602
 20
-191.657591031272
 30
0.0
 10
90.4944416168474
 20
-191.7485218916354
 30
0.0
 10
90.21672525186898
 20
-191.6643546218017
 30
0.0
 10
89.8836146160186
 20
-191.6643761506784
 30
0.0
 10
89.6057755836539
 20
-191.670117422052
 30
0.0
 10
89.36279198947656
 20
-191.6998845850096
 30
0.0
 10
89.16326624344389
 20
-191.7517893901888
 30
0.0
 10
89.00221296569188
 20
-191.8291254030344
 30
0.0
 10
88.87803810321009
 20
-191.9346058595016
 30
0.0
 10
88.79000150150905
 20
-192.0682305354426
 30
0.0
 10
88.73443988545594
 20
-192.2278666645101
 30
0.0
 10
88.70513483204648
 20
-192.4134960788687
 30
0.0
 10
88.6987399605187
 20
-192.6211120500004
 30
0.0
 10
88.70294024127185
 20
-192.8296655472737
 30
0.0
 10
88.71974479923063
 20
-193.0201995466587
 30
0.0
 10
88.75579031825998
 20
-193.179820155408
 30
0.0
 10
88.81786538178078
 20
-193.3133003304987
 30
0.0
 10
88.9122927282268
 20
-193.4221932496794
 30
0.0
 10
89.04085610539782
 20
-193.5089473610339
 30
0.0
 10
89.20556261185533
 20
-193.5800371848462
 30
0.0
 10
89.41112774001256
 20
-193.6424895066943
 30
0.0
 10
89.62502865434189
 20
-193.6911660873735
 30
0.0
 10
89.81740757685861
 20
-193.7338810478587
 30
0.0
 10
89.96041622559731
 20
-193.7718211908856
 30
0.0
 10
90.06592022541307
 20
-193.8096456038396
 30
0.0
 10
90.1413212697164
 20
-193.8530104142073
 30
0.0
 10
90.18961700475627
 20
-193.9097434221818
 30
0.0
 10
90.21233440027501
 20
-193.98040184662
 30
0.0
 10
90.21938696912756
 20
-194.0650554177211
 30
0.0
 10
90.22028666966374
 20
-194.169084115218
 30
0.0
 10
90.21720857119038
 20
-194.2785854493345
 30
0.0
 10
90.19325580747453
 20
-194.381385211677
 30
0.0
 10
90.13396079364102
 20
-194.4585339643333
 30
0.0
 10
90.03715016053788
 20
-194.5020714370023
 30
0.0
 10
89.90606949032588
 20
-194.5215227758607
 30
0.0
 10
89.6933008190648
 20
-194.5298081134118
 30
0.0
 10
89.40029885913637
 20
-194.4933727665919
 30
0.0
 10
89.1169942597619
 20
-194.5116539487574
 30
0.0
 10
88.78369944832068
 20
-194.2554318601425
 30
0.0
 10
88.75926373623922
 20
-194.4012474688017
 30
0.0
 10
88.74478841596707
 20
-194.4621658040834
 30
0.0
 10
88.72578256968939
 20
-194.5533019767266
 30
0.0
 10
88.70306758233292
 20
-194.6573634799551
 30
0.0
 10
88.68092113510384
 20
-194.7615591993184
 30
0.0
 10
88.66056288911888
 20
-194.8523761089001
 30
0.0
 10
88.64893074154602
 20
-194.9139656362973
 30
0.0
 10
88.61621998191008
 20
-195.0325306581952
 30
0.0
 10
88.9291446372271
 20
-195.0295915860366
 30
0.0
 10
89.14141172832105
 20
-195.1255585785942
 30
0.0
 10
89.44587105806939
 20
-195.1616077875531
 30
0.0
 10
89.74328414491502
 20
-195.1788589962487
 30
0.0
 10
90.03546426527022
 20
-195.1673953528235
 30
0.0
 10
90.29762405763285
 20
-195.1332112428984
 30
0.0
 10
90.51148252385025
 20
-195.0730496561625
 30
0.0
 10
90.68137446793614
 20
-194.9859653341703
 30
0.0
 10
90.8099378215974
 20
-194.8702696039668
 30
0.0
 10
90.89918516664585
 20
-194.727579255453
 30
0.0
 10
90.95416741358311
 20
-194.5610146501323
 30
0.0
 10
90.98294768482847
 20
-194.371364717419
 30
0.0
 10
90.9854818730303
 20
-194.2372842741868
 30
0.0
 10
90.98682174751593
 20
-194.1663933416257
 30
0.0
 11
90.98682174751593
 21
-194.1663933416257
 31
0.0
 11
90.98461176775884
 21
-193.979606897461
 31
0.0
 11
90.9746678768628
 21
-193.8190844322565
 31
0.0
 11
90.95201914739074
 21
-193.6816352007796
 31
0.0
 11
90.91169465190556
 21
-193.5640684577982
 31
0.0
 11
90.84872346297016
 21
-193.4631934580799
 31
0.0
 11
90.75813465314744
 21
-193.3758194563923
 31
0.0
 11
90.63495729500028
 21
-193.2987557075032
 31
0.0
 11
90.4742204610916
 21
-193.2288114661801
 31
0.0
 11
90.27095322398432
 21
-193.1627959871908
 31
0.0
 11
90.02018465624133
 21
-193.0975185253028
 31
0.0
 11
89.82048745819706
 21
-193.0489214412576
 31
0.0
 11
89.67581375613176
 21
-193.007577729514
 31
0.0
 11
89.5773062308406
 21
-192.9657041170358
 31
0.0
 11
89.51610756311884
 21
-192.9155173307872
 31
0.0
 11
89.48336043376159
 21
-192.8492340977324
 31
0.0
 11
89.47020752356411
 21
-192.7590711448353
 31
0.0
 11
89.46779151332157
 21
-192.6372451990601
 31
0.0
 11
89.47851055448118
 21
-192.5085479807149
 31
0.0
 11
89.5167236034485
 21
-192.4191393628772
 31
0.0
 11
89.59151454845619
 21
-192.3628787305762
 31
0.0
 11
89.71196727773699
 21
-192.3336254688409
 31
0.0
 11
89.8871656795236
 21
-192.3252389627005
 31
0.0
 11
90.10980934042107
 21
-192.3310708846992
 31
0.0
 11
90.32957489240198
 21
-192.348884743964
 31
0.0
 11
90.5646852625988
 21
-192.3791576803984
 31
0.0
 11
90.83336337814399
 21
-192.4223668339055
 31
0.0
 11
90.83666121025317
 21
-192.3946772919639
 31
0.0
 11
90.84535549490465
 21
-192.3216775904816
 31
0.0
 11
90.85764741458433
 21
-192.2184711159721
 31
0.0
 11
90.87173815177812
 21
-192.1001612549489
 31
0.0
 11
90.8858288889719
 21
-191.9818513939258
 31
0.0
 11
90.89812080865158
 21
-191.8786449194163
 31
0.0
 11
90.90681509330307
 21
-191.8056452179339
 31
0.0
 11
90.91011292541225
 21
-191.7779556759924
 31
0.0
 11
90.53994170466494
 21
-191.7124542869836
 31
0.0
 11
90.19254427048845
 21
-191.6764810013484
 31
0.0
 11
89.87698670364625
 21
-191.6654982539458
 31
0.0
 11
89.5901322482027
 21
-191.6757250197473
 31
0.0
 11
89.35105652252344
 21
-191.7071634490424
 31
0.0
 11
89.15601299003606
 21
-191.7609507396672
 31
0.0
 11
89.00125511416827
 21
-191.8382240894581
 31
0.0
 11
88.88303635834774
 21
-191.9401206962509
 31
0.0
 11
88.79761018600213
 21
-192.0677777578819
 31
0.0
 11
88.7412300605591
 21
-192.2223324721872
 31
0.0
 11
88.71014944544635
 21
-192.404922037003
 31
0.0
 11
88.7006218040915
 21
-192.6166836501652
 31
0.0
 11
88.70595849621164
 21
-192.8417947014505
 31
0.0
 11
88.72514095304649
 21
-193.0293078508989
 31
0.0
 11
88.76292774530776
 21
-193.1840647765257
 31
0.0
 11
88.82407744370707
 21
-193.3109071563462
 31
0.0
 11
88.91334861895612
 21
-193.4146766683756
 31
0.0
 11
89.03549984176655
 21
-193.5002149906292
 31
0.0
 11
89.19528968285002
 21
-193.5723638011222
 31
0.0
 11
89.3974767129182
 21
-193.6359647778698
 31
0.0
 11
89.64681950268277
 21
-193.6958595988872
 31
0.0
 11
89.83149188906242
 21
-193.7385049320769
 31
0.0
 11
89.97151256927509
 21
-193.7771985925774
 31
0.0
 11
90.07305477934295
 21
-193.8161346401453
 31
0.0
 11
90.14229175528817
 21
-193.8595071345372
 31
0.0
 11
90.1853967331329
 21
-193.9115101355094
 31
0.0
 11
90.20854294889932
 21
-193.9763377028187
 31
0.0
 11
90.21790363860958
 21
-194.0581838962215
 31
0.0
 11
90.21965203828586
 21
-194.1612427754744
 31
0.0
 11
90.21214635637793
 21
-194.2876066696892
 31
0.0
 11
90.1851761935433
 21
-194.3827058126762
 31
0.0
 11
90.1320618741156
 21
-194.4502368723438
 31
0.0
 11
90.04612372242858
 21
-194.4938965166006
 31
0.0
 11
89.92068206281584
 21
-194.5173814133551
 31
0.0
 11
89.74905721961113
 21
-194.5243882305158
 31
0.0
 11
89.40695738169705
 21
-194.5035529800155
 31
0.0
 11
89.0819039486949
 21
-194.4463583964759
 31
0.0
 11
88.76711093458289
 21
-194.360771231839
 31
0.0
 11
88.76161571406968
 21
-194.3862616359665
 31
0.0
 11
88.74712831453485
 21
-194.4534636104844
 31
0.0
 11
88.7266461289856
 21
-194.548473298596
 31
0.0
 11
88.70316655042916
 21
-194.6573868435044
 31
0.0
 11
88.67968697187271
 21
-194.7663003884128
 31
0.0
 11
88.65920478632347
 21
-194.8613100765244
 31
0.0
 11
88.64471738678864
 21
-194.9285120510423
 31
0.0
 11
88.63922216627543
 21
-194.9540024551698
 31
0.0
 11
88.87866305952741
 21
-195.0444513219563
 31
0.0
 11
89.15069069856236
 21
-195.1138048793187
 31
0.0
 11
89.44188790952
 21
-195.158228830995
 31
0.0
 11
89.7388375185401
 21
-195.1738888807231
 31
0.0
 11
90.05239397630197
 21
-195.1615654954261
 31
0.0
 11
90.31093264531141
 21
-195.1245379239178
 31
0.0
 11
90.51929419823756
 21
-195.0627200427715
 31
0.0
 11
90.68231930774952
 21
-194.9760257285612
 31
0.0
 11
90.80484864651643
 21
-194.8643688578604
 31
0.0
 11
90.8917228872074
 21
-194.7276633072428
 31
0.0
 11
90.94778270249155
 21
-194.565822953282
 31
0.0
 11
90.97786876503802
 21
-194.3787616725518
 31
0.0
 11
90.98682174751593
 21
-194.1663933416257
 31
0.0
  0
SPLINE
  5
122
102
{ACAD_REACTORS
330
1B3
330
1B3
102
}
330
34
100
AcDbEntity
  8
0
  6
Continuous
 62
   250
100
AcDbSpline
210
0.0
220
0.0
230
1.0
 70
    11
 71
     3
 72
    23
 73
    19
 74
    17
 42
0.0000000001
 43
0.0000000001
 44
0.00000001
 40
0.0
 40
0.0
 40
0.0
 40
0.0
 40
0.2941947040899761
 40
0.633873150145083
 40
0.7916639994090439
 40
1.084704148042083
 40
1.242494997306044
 40
1.399124123048784
 40
1.743708199682748
 40
2.088292276316741
 40
2.244921402059452
 40
2.402712251323412
 40
2.695752399956466
 40
2.853543249220413
 40
3.18571527156996
 40
3.474271395534962
 40
3.609774038673769
 40
3.745276681812576
 40
3.745276681812576
 40
3.745276681812576
 40
3.745276681812576
 10
100.7656908317731
 20
-193.0258584736357
 30
0.0
 10
100.7551453617469
 20
-193.1352599898236
 30
0.0
 10
100.7324240475547
 20
-193.3709769579832
 30
0.0
 10
100.4127979467996
 20
-193.4008064434713
 30
0.0
 10
100.1520320849076
 20
-193.4017698203717
 30
0.0
 10
99.97394497229692
 20
-193.3760435600232
 30
0.0
 10
99.70465145048414
 20
-193.4424588966375
 30
0.0
 10
99.77649601033391
 20
-193.1534736330916
 30
0.0
 10
99.72819458217306
 20
-192.8979866304048
 30
0.0
 10
99.77650024180625
 20
-192.6425165078093
 30
0.0
 10
99.70464459219136
 20
-192.3535061356226
 30
0.0
 10
99.97398113421119
 20
-192.4200155867055
 30
0.0
 10
100.1518183873408
 20
-192.3937438362911
 30
0.0
 10
100.4108933603659
 20
-192.3964121857964
 30
0.0
 10
100.7190480531762
 20
-192.4137566147967
 30
0.0
 10
100.770708852836
 20
-192.7079237513279
 30
0.0
 10
100.7648377953071
 20
-192.8896608261333
 30
0.0
 10
100.7654064862844
 20
-192.9804592578016
 30
0.0
 10
100.7656908317731
 20
-193.0258584736357
 30
0.0
 11
100.7656908317731
 21
-193.0258584736357
 31
0.0
 11
100.6838212609418
 21
-193.308432176033
 31
0.0
 11
100.3564956509217
 21
-193.3992032713186
 31
0.0
 11
100.1987048016577
 21
-193.3992032713186
 31
0.0
 11
99.9056646530247
 21
-193.3992032713186
 31
0.0
 11
99.74787380376074
 21
-193.3992032713186
 31
0.0
 11
99.74787380376074
 21
-193.2425741455759
 31
0.0
 11
99.74787380376074
 21
-192.8979900689419
 31
0.0
 11
99.74787380376074
 21
-192.5534059923079
 31
0.0
 11
99.74787380376074
 21
-192.3967768665652
 31
0.0
 11
99.9056646530247
 21
-192.3967768665652
 31
0.0
 11
100.1987048016578
 21
-192.3967768665652
 31
0.0
 11
100.3564956509217
 21
-192.3967768665652
 31
0.0
 11
100.6780955816848
 21
-192.4799137234034
 31
0.0
 11
100.7656908317731
 21
-192.7548531873581
 31
0.0
 11
100.7656908317731
 21
-192.8903558304969
 31
0.0
 11
100.7656908317731
 21
-193.0258584736357
 31
0.0
  0
SPLINE
  5
123
102
{ACAD_REACTORS
330
1B3
330
1B3
102
}
330
34
100
AcDbEntity
  8
0
  6
Continuous
 62
   250
100
AcDbSpline
210
0.0
220
0.0
230
1.0
 70
    11
 71
     3
 72
    36
 73
    32
 74
    30
 42
0.0000000001
 43
0.0000000001
 44
0.00000001
 40
0.0
 40
0.0
 40
0.0
 40
0.0
 40
0.2360423575133836
 40
0.6744067357525267
 40
0.9104490932658962
 40
1.280549595046236
 40
1.967879098352551
 40
2.337979600132892
 40
2.833164458054473
 40
3.378972243102605
 40
3.588679684157493
 40
3.79838712521241
 40
4.565745079499038
 40
5.477334255196363
 40
5.844619163523328
 40
6.526719707559119
 40
6.894004615886098
 40
7.426222369203339
 40
8.597101426501206
 40
9.767980483799102
 40
10.30019823711631
 40
10.6837830917459
 40
11.06736794637549
 40
11.34183936547739
 40
11.85157200095233
 40
12.1260434200542
 40
12.35106005474722
 40
12.57607668944025
 40
12.91272952801094
 40
13.53794194249943
 40
13.87459478107012
 40
13.87459478107012
 40
13.87459478107012
 40
13.87459478107012
 10
100.9498083138169
 20
-195.1227903779482
 30
0.0
 10
101.0302167493041
 20
-195.1236769046642
 30
0.0
 10
101.2599551364105
 20
-195.1262098381387
 30
0.0
 10
101.5129837461047
 20
-195.1003196395544
 30
0.0
 10
102.0048955270781
 20
-195.1740798173875
 30
0.0
 10
101.4671527316189
 20
-194.6768980208548
 30
0.0
 10
101.3995256685413
 20
-194.3667690549209
 30
0.0
 10
100.8594030302804
 20
-193.8946366781157
 30
0.0
 10
101.5613886867241
 20
-193.6801328192713
 30
0.0
 10
101.5309632272774
 20
-193.2104004905525
 30
0.0
 10
101.532041743099
 20
-192.8930220586817
 30
0.0
 10
101.5421745401086
 20
-192.5014199187485
 30
0.0
 10
101.3655542405012
 20
-191.7843910999085
 30
0.0
 10
100.5719929929828
 20
-191.7135042144829
 30
0.0
 10
99.92156177250862
 20
-191.7118092748871
 30
0.0
 10
99.496933623458
 20
-191.7603460784045
 30
0.0
 10
98.82815751078472
 20
-191.6199917036731
 30
0.0
 10
99.09585621117263
 20
-192.5678657114454
 30
0.0
 10
98.90458509582845
 20
-193.4230365391642
 30
0.0
 10
99.08698906487955
 20
-194.2617964142579
 30
0.0
 10
98.83883818377419
 20
-195.2398804468137
 30
0.0
 10
99.35456142655518
 20
-195.0643501903358
 30
0.0
 10
99.82081688126006
 20
-195.2410317665699
 30
0.0
 10
99.70748296265592
 20
-194.7248956560096
 30
0.0
 10
99.79824297465692
 20
-194.4712572156575
 30
0.0
 10
99.6699040784771
 20
-193.9970364615414
 30
0.0
 10
99.98252146653341
 20
-194.0904506528629
 30
0.0
 10
100.2546270478945
 20
-194.007736123523
 30
0.0
 10
100.4267651630709
 20
-194.4706945038576
 30
0.0
 10
100.7024882538565
 20
-194.76172867458
 30
0.0
 10
100.8856882982716
 20
-195.0291817881861
 30
0.0
 10
100.9498083138169
 20
-195.1227903779482
 30
0.0
 11
100.9498083138169
 21
-195.1227903779482
 31
0.0
 11
101.1858506713303
 21
-195.1227903779482
 31
0.0
 11
101.6242150495694
 21
-195.1227903779482
 31
0.0
 11
101.8602574070828
 21
-195.1227903779482
 31
0.0
 11
101.6467520740962
 21
-194.8204828289119
 31
0.0
 11
101.2502421699782
 21
-194.2590545235588
 31
0.0
 11
101.0367368369916
 21
-193.9567469745225
 31
0.0
 11
101.4132931047534
 21
-193.63516740315
 31
0.0
 11
101.5328198347561
 21
-193.1026080176971
 31
0.0
 11
101.5328198347561
 21
-192.8929005766422
 31
0.0
 11
101.5328198347561
 21
-192.6831931355873
 31
0.0
 11
101.2758259185139
 21
-191.9601493215473
 31
0.0
 11
100.3973744551913
 21
-191.716596756718
 31
0.0
 11
100.0300895468643
 21
-191.716596756718
 31
0.0
 11
99.34798900282854
 21
-191.716596756718
 31
0.0
 11
98.98070409450156
 21
-191.716596756718
 31
0.0
 11
98.98070409450156
 21
-192.2488145100352
 31
0.0
 11
98.98070409450156
 21
-193.4196935673331
 31
0.0
 11
98.98070409450156
 21
-194.590572624631
 31
0.0
 11
98.98070409450156
 21
-195.1227903779482
 31
0.0
 11
99.36428894913115
 21
-195.1227903779482
 31
0.0
 11
99.74787380376074
 21
-195.1227903779482
 31
0.0
 11
99.74787380376074
 21
-194.8483189588463
 31
0.0
 11
99.74787380376074
 21
-194.3385863233714
 31
0.0
 11
99.74787380376074
 21
-194.0641149042695
 31
0.0
 11
99.97289043845376
 21
-194.0641149042695
 31
0.0
 11
100.1979070731468
 21
-194.0641149042695
 31
0.0
 11
100.392844431839
 21
-194.3385863233714
 31
0.0
 11
100.7548709551247
 21
-194.8483189588463
 31
0.0
 11
100.9498083138169
 21
-195.1227903779482
 31
0.0
  0
SPLINE
  5
124
102
{ACAD_REACTORS
330
1B4
330
1B4
102
}
330
34
100
AcDbEntity
  8
0
  6
Continuous
 62
   250
100
AcDbSpline
210
0.0
220
0.0
230
1.0
 70
    11
 71
     3
 72
    32
 73
    28
 74
    26
 42
0.0000000001
 43
0.0000000001
 44
0.00000001
 40
0.0
 40
0.0
 40
0.0
 40
0.0
 40
0.3082471590677967
 40
0.6106913951277291
 40
0.7285233210320128
 40
0.8463552469363249
 40
1.095069087588683
 40
1.30459878987498
 40
1.498512538050599
 40
1.684645779952423
 40
1.79299089218917
 40
1.901336004425918
 40
2.187078671019255
 40
2.485446103334285
 40
2.591259829336282
 40
2.824050026540677
 40
3.056840223745072
 40
3.162653949747069
 40
3.350274297065285
 40
3.797676663747298
 40
4.331673036883759
 40
4.779075403565715
 40
4.966695750883959
 40
5.077163180930087
 40
5.32019152703157
 40
5.563219873133052
 40
5.673687303179181
 40
5.673687303179181
 40
5.673687303179181
 40
5.673687303179181
 10
75.09968649973598
 20
-198.1731063392617
 30
0.0
 10
75.20963083077874
 20
-198.1597569104152
 30
0.0
 10
75.42744973011243
 20
-198.1333093630929
 30
0.0
 10
75.5222394135003
 20
-197.8643027610109
 30
0.0
 10
75.51282720119598
 20
-197.686703525531
 30
0.0
 10
75.51509894904132
 20
-197.5279258772786
 30
0.0
 10
75.51246153766232
 20
-197.3113402009183
 30
0.0
 10
75.13894359092626
 20
-197.2420576634981
 30
0.0
 10
75.45897215989852
 20
-197.1400866770878
 30
0.0
 10
75.45742796671428
 20
-196.9651366357662
 30
0.0
 10
75.456400343952
 20
-196.8322146042991
 30
0.0
 10
75.46303479894787
 20
-196.6667433739876
 30
0.0
 10
75.39224486650718
 20
-196.4093168296878
 30
0.0
 10
75.13146951860199
 20
-196.3654455137785
 30
0.0
 10
74.92313992494142
 20
-196.3708173538594
 30
0.0
 10
74.72623357128079
 20
-196.3638516920174
 30
0.0
 10
74.55419323269143
 20
-196.3824763656118
 30
0.0
 10
74.33836611608183
 20
-196.3419219819123
 30
0.0
 10
74.43790242268443
 20
-196.6894083499841
 30
0.0
 10
74.37766868943233
 20
-197.0084182471274
 30
0.0
 10
74.37805614823345
 20
-197.533515219711
 30
0.0
 10
74.43717605643073
 20
-197.8534803084531
 30
0.0
 10
74.33860745264104
 20
-198.2015590329282
 30
0.0
 10
74.56164506895291
 20
-198.1587688773318
 30
0.0
 10
74.74110266166164
 20
-198.1782092579668
 30
0.0
 10
74.94553801291976
 20
-198.1725989467767
 30
0.0
 10
75.06298447906546
 20
-198.1729855315272
 30
0.0
 10
75.09968649973598
 20
-198.1731063392617
 30
0.0
 11
75.09968649973598
 21
-198.1731063392617
 31
0.0
 11
75.3942688602774
 21
-198.0823454229419
 31
0.0
 11
75.51413403610059
 21
-197.8046678121218
 31
0.0
 11
75.51413403610059
 21
-197.6868358862175
 31
0.0
 11
75.51413403610059
 21
-197.5690039603132
 31
0.0
 11
75.43558535610191
 21
-197.3330194705633
 31
0.0
 11
75.2513940839417
 21
-197.2331381840268
 31
0.0
 11
75.40917598399301
 21
-197.1204110189435
 31
0.0
 11
75.45725387097627
 21
-196.940594166218
 31
0.0
 11
75.45725387097627
 21
-196.8322490539813
 31
0.0
 11
75.45725387097627
 21
-196.7239039417445
 31
0.0
 11
75.35499070437254
 21
-196.4570873075778
 31
0.0
 11
75.06990279385354
 21
-196.3690645381248
 31
0.0
 11
74.96408906785155
 21
-196.3690645381248
 31
0.0
 11
74.73129887064715
 21
-196.3690645381248
 31
0.0
 11
74.49850867344276
 21
-196.3690645381248
 31
0.0
 11
74.39269494744076
 21
-196.3690645381248
 31
0.0
 11
74.39269494744076
 21
-196.556684885443
 31
0.0
 11
74.39269494744076
 21
-197.004087252125
 31
0.0
 11
74.39269494744076
 21
-197.5380836252615
 31
0.0
 11
74.39269494744076
 21
-197.9854859919434
 31
0.0
 11
74.39269494744076
 21
-198.1731063392617
 31
0.0
 11
74.50316237748689
 21
-198.1731063392617
 31
0.0
 11
74.74619072358837
 21
-198.1731063392617
 31
0.0
 11
74.98921906968985
 21
-198.1731063392617
 31
0.0
 11
75.09968649973598
 21
-198.1731063392617
 31
0.0
  0
SPLINE
  5
125
102
{ACAD_REACTORS
330
1B4
330
1B4
102
}
330
34
100
AcDbEntity
  8
0
  6
Continuous
 62
   250
100
AcDbSpline
210
0.0
220
0.0
230
1.0
 70
    11
 71
     3
 72
    23
 73
    19
 74
    17
 42
0.0000000001
 43
0.0000000001
 44
0.00000001
 40
0.0
 40
0.0
 40
0.0
 40
0.0
 40
0.1887351725512171
 40
0.4133655781003919
 40
0.5341524253945902
 40
0.7584708560837992
 40
0.8792577033779974
 40
0.9837895134972523
 40
1.21375949575967
 40
1.443729478022059
 40
1.548261288141314
 40
1.683098148903407
 40
1.933509461747301
 40
2.068346322509409
 40
2.245657684461606
 40
2.398588164696903
 40
2.513712480696639
 40
2.628836796696404
 40
2.628836796696404
 40
2.628836796696404
 40
2.628836796696404
 10
75.29742345445266
 20
-196.9324916945061
 30
0.0
 10
75.2848446330324
 20
-196.9999155307421
 30
0.0
 10
75.25729464477156
 20
-197.147586432073
 30
0.0
 10
75.05058213175587
 20
-197.1821524506543
 30
0.0
 10
74.86146531288358
 20
-197.1803040553363
 30
0.0
 10
74.7268712641985
 20
-197.1601165690736
 30
0.0
 10
74.52410679895095
 20
-197.2125312385707
 30
0.0
 10
74.57030265383025
 20
-197.0161231187404
 30
0.0
 10
74.5406696092108
 20
-196.8447970926691
 30
0.0
 10
74.56933748095184
 20
-196.6717351378478
 30
0.0
 10
74.52441538571172
 20
-196.4720214609541
 30
0.0
 10
74.74823412973313
 20
-196.5321078762311
 30
0.0
 10
74.89733556376342
 20
-196.5078869652837
 30
0.0
 10
75.08392956324245
 20
-196.5073923682772
 30
0.0
 10
75.260463944369
 20
-196.5270413608318
 30
0.0
 10
75.3041366596251
 20
-196.6922101252902
 30
0.0
 10
75.29594715640927
 20
-196.8168024049827
 30
0.0
 10
75.29693135510486
 20
-196.8939285979983
 30
0.0
 10
75.29742345445266
 20
-196.9324916945061
 30
0.0
 11
75.29742345445266
 21
-196.9324916945061
 31
0.0
 11
75.23208200878526
 21
-197.1095551318274
 31
0.0
 11
75.01843784708035
 21
-197.178945269935
 31
0.0
 11
74.89765099978615
 21
-197.178945269935
 31
0.0
 11
74.67333256909694
 21
-197.178945269935
 31
0.0
 11
74.55254572180274
 21
-197.178945269935
 31
0.0
 11
74.55254572180274
 21
-197.0744134598158
 31
0.0
 11
74.55254572180274
 21
-196.8444434775533
 31
0.0
 11
74.55254572180274
 21
-196.614473495291
 31
0.0
 11
74.55254572180274
 21
-196.5099416851717
 31
0.0
 11
74.68738258256484
 21
-196.5099416851717
 31
0.0
 11
74.93779389540873
 21
-196.5099416851717
 31
0.0
 11
75.07263075617084
 21
-196.5099416851717
 31
0.0
 11
75.2429175362231
 21
-196.5593555659824
 31
0.0
 11
75.29742345445266
 21
-196.7022430625066
 31
0.0
 11
75.29742345445266
 21
-196.8173673785063
 31
0.0
 11
75.29742345445266
 21
-196.9324916945061
 31
0.0
  0
SPLINE
  5
126
102
{ACAD_REACTORS
330
1B4
330
1B4
102
}
330
34
100
AcDbEntity
  8
0
  6
Continuous
 62
   250
100
AcDbSpline
210
0.0
220
0.0
230
1.0
 70
    11
 71
     3
 72
    23
 73
    19
 74
    17
 42
0.0000000001
 43
0.0000000001
 44
0.00000001
 40
0.0
 40
0.0
 40
0.0
 40
0.0
 40
0.178722020060614
 40
0.3779063679093932
 40
0.5204649326526047
 40
0.7852165528900097
 40
0.9277751176332212
 40
1.039088676249154
 40
1.283978505204179
 40
1.528868334159174
 40
1.640181892775108
 40
1.77080163904795
 40
2.013381167840397
 40
2.144000914113239
 40
2.381868872479937
 40
2.57920709483295
 40
2.694311052832885
 40
2.809415010832848
 40
2.809415010832848
 40
2.809415010832848
 40
2.809415010832848
 10
75.35434433529008
 20
-197.8046678121218
 30
0.0
 10
75.34267225034654
 20
-197.8689923036916
 30
0.0
 10
75.31799171447608
 20
-198.0050059575688
 30
0.0
 10
75.11799818373962
 20
-198.03628655883
 30
0.0
 10
74.91720756633082
 20
-198.0337620723311
 30
0.0
 10
74.75934481047639
 20
-198.0089751303256
 30
0.0
 10
74.52257293150039
 20
-198.0722775835669
 30
0.0
 10
74.57048877435565
 20
-197.8598736062076
 30
0.0
 10
74.53992715771258
 20
-197.6757220294607
 30
0.0
 10
74.57131121933037
 20
-197.4930617122438
 30
0.0
 10
74.52230183188415
 20
-197.2834362950379
 30
0.0
 10
74.74125429527243
 20
-197.340383706683
 30
0.0
 10
74.88634494660363
 20
-197.3180266508377
 30
0.0
 10
75.0900603213796
 20
-197.3171239449041
 30
0.0
 10
75.3038484475303
 20
-197.3473285547394
 30
0.0
 10
75.36110818412124
 20
-197.5492295859592
 30
0.0
 10
75.35304127079857
 20
-197.6891436601254
 30
0.0
 10
75.35390998045958
 20
-197.7661597614563
 30
0.0
 10
75.35434433529008
 20
-197.8046678121218
 30
0.0
 11
75.35434433529008
 21
-197.8046678121218
 31
0.0
 11
75.29236958919228
 21
-197.9723004202285
 31
0.0
 11
75.10241447152657
 21
-198.0322291921211
 31
0.0
 11
74.95985590678336
 21
-198.0322291921211
 31
0.0
 11
74.69510428654596
 21
-198.0322291921211
 31
0.0
 11
74.55254572180274
 21
-198.0322291921211
 31
0.0
 11
74.55254572180274
 21
-197.9209156335052
 31
0.0
 11
74.55254572180274
 21
-197.6760258045501
 31
0.0
 11
74.55254572180274
 21
-197.4311359755951
 31
0.0
 11
74.55254572180274
 21
-197.3198224169792
 31
0.0
 11
74.68316546807559
 21
-197.3198224169792
 31
0.0
 11
74.92574499686803
 21
-197.3198224169792
 31
0.0
 11
75.05636474314088
 21
-197.3198224169792
 31
0.0
 11
75.28356731103031
 21
-197.3902508115512
 31
0.0
 11
75.35434433529008
 21
-197.5744598961219
 31
0.0
 11
75.35434433529008
 21
-197.6895638541218
 31
0.0
 11
75.35434433529008
 21
-197.8046678121218
 31
0.0
  0
SPLINE
  5
127
102
{ACAD_REACTORS
330
1B5
330
1B5
102
}
330
34
100
AcDbEntity
  8
0
  6
Continuous
 62
   250
100
AcDbSpline
210
0.0
220
0.0
230
1.0
 70
    11
 71
     3
 72
    24
 73
    20
 74
    18
 42
0.0000000001
 43
0.0000000001
 44
0.00000001
 40
0.0
 40
0.0
 40
0.0
 40
0.0
 40
0.1137723977167298
 40
0.32506399347632
 40
0.4388363911930355
 40
0.7669367403624034
 40
1.067197304156703
 40
1.262419673045879
 40
1.624975500982909
 40
1.820197869872085
 40
2.120443815392901
 40
2.448548561667288
 40
2.562320959383989
 40
2.773612555143608
 40
2.887384952860323
 40
3.124402609585765
 40
3.645841454381675
 40
4.167280299177612
 40
4.404297955903026
 40
4.404297955903026
 40
4.404297955903026
 40
4.404297955903026
 10
79.31439686819067
 20
-196.5126289371719
 30
0.0
 10
79.35227783257832
 20
-196.5125923198974
 30
0.0
 10
79.46050915940013
 20
-196.5124876991132
 30
0.0
 10
79.6080486436514
 20
-196.513557072987
 30
0.0
 10
79.82111039117332
 20
-196.5096044973441
 30
0.0
 10
80.1147864942921
 20
-196.5488769101268
 30
0.0
 10
80.1601019217684
 20
-196.8653237852869
 30
0.0
 10
80.15186228220229
 20
-197.1426772591405
 30
0.0
 10
80.15183009121552
 20
-197.3995156060861
 30
0.0
 10
80.16016552473704
 20
-197.6767842987353
 30
0.0
 10
80.11438755095321
 20
-197.9936657302647
 30
0.0
 10
79.82225487560856
 20
-198.0314252692834
 30
0.0
 10
79.60629010379313
 20
-198.0303719997871
 30
0.0
 10
79.47140681497655
 20
-198.0187837439856
 30
0.0
 10
79.24435944704862
 20
-198.0585096729883
 30
0.0
 10
79.37078078618671
 20
-197.6413235901186
 30
0.0
 10
79.29432898231138
 20
-197.2911567814632
 30
0.0
 10
79.3163922545707
 20
-196.8424579264825
 30
0.0
 10
79.31487196018593
 20
-196.5911596489125
 30
0.0
 10
79.31439686819067
 20
-196.5126289371719
 30
0.0
 11
79.31439686819067
 21
-196.5126289371719
 31
0.0
 11
79.4281692659074
 21
-196.5126289371719
 31
0.0
 11
79.63946086166699
 21
-196.5126289371719
 31
0.0
 11
79.7532332593837
 21
-196.5126289371719
 31
0.0
 11
80.0674356088748
 21
-196.6071102723622
 31
0.0
 11
80.15412238722638
 21
-196.8945851558374
 31
0.0
 11
80.15412238722638
 21
-197.0898075247266
 31
0.0
 11
80.15412238722638
 21
-197.4523633526636
 31
0.0
 11
80.15412238722638
 21
-197.6475857215528
 31
0.0
 11
80.0674356088748
 21
-197.9350453365611
 31
0.0
 11
79.7532332593837
 21
-198.0295419402146
 31
0.0
 11
79.639460861667
 21
-198.0295419402146
 31
0.0
 11
79.42816926590739
 21
-198.0295419402146
 31
0.0
 11
79.31439686819067
 21
-198.0295419402146
 31
0.0
 11
79.31439686819067
 21
-197.7925242834892
 31
0.0
 11
79.31439686819067
 21
-197.2710854386933
 31
0.0
 11
79.31439686819067
 21
-196.7496465938973
 31
0.0
 11
79.31439686819067
 21
-196.5126289371719
 31
0.0
  0
SPLINE
  5
128
102
{ACAD_REACTORS
330
1B5
330
1B5
102
}
330
34
100
AcDbEntity
  8
0
  6
Continuous
 62
   250
100
AcDbSpline
210
0.0
220
0.0
230
1.0
 70
    11
 71
     3
 72
    22
 73
    18
 74
    16
 42
0.0000000001
 43
0.0000000001
 44
0.00000001
 40
0.0
 40
0.0
 40
0.0
 40
0.0
 40
0.2818751695529613
 40
0.9020005425695672
 40
1.522125915586116
 40
1.804001085139106
 40
2.101970503091223
 40
2.399939921043341
 40
2.87139254739472
 40
3.270572232803801
 40
3.461582764086586
 40
3.816316607897534
 40
4.007327139180319
 40
4.406492228614263
 40
4.877949778623496
 40
5.175919196575614
 40
5.473888614527731
 40
5.473888614527731
 40
5.473888614527731
 40
5.473888614527731
 10
79.15456645169616
 20
-196.3690645381248
 30
0.0
 10
79.15498495547914
 20
-196.4626036847126
 30
0.0
 10
79.15632416758473
 20
-196.7619289537938
 30
0.0
 10
79.13688885190264
 20
-197.2887739161301
 30
0.0
 10
79.20423448066146
 20
-197.7286845954182
 30
0.0
 10
79.07540779215911
 20
-198.257728902589
 30
0.0
 10
79.47720443192019
 20
-198.1478269720295
 30
0.0
 10
79.78903890167169
 20
-198.1950107365115
 30
0.0
 10
80.25347509205571
 20
-198.1020897380255
 30
0.0
 10
80.32016845373977
 20
-197.7045361715965
 30
0.0
 10
80.31193508840063
 20
-197.3956968954997
 30
0.0
 10
80.31180594062215
 20
-197.1463408607341
 30
0.0
 10
80.32047237999899
 20
-196.8378850338803
 30
0.0
 10
80.2506855713419
 20
-196.4372782229998
 30
0.0
 10
79.79928220920728
 20
-196.3573739136507
 30
0.0
 10
79.45435714597613
 20
-196.3714165913368
 30
0.0
 10
79.25449668312281
 20
-196.3698485558621
 30
0.0
 10
79.15456645169616
 20
-196.3690645381248
 30
0.0
 11
79.15456645169616
 21
-196.3690645381248
 31
0.0
 11
79.15456645169616
 21
-196.6509397076778
 31
0.0
 11
79.15456645169616
 21
-197.2710650806944
 31
0.0
 11
79.15456645169616
 21
-197.8911904537109
 31
0.0
 11
79.15456645169616
 21
-198.1730656232639
 31
0.0
 11
79.45253586964827
 21
-198.1730656232639
 31
0.0
 11
79.75050528760039
 21
-198.1730656232639
 31
0.0
 11
80.19677487569334
 21
-198.0210424880609
 31
0.0
 11
80.31393244587525
 21
-197.6394425339304
 31
0.0
 11
80.31393244587525
 21
-197.4484320026476
 31
0.0
 11
80.31393244587525
 21
-197.0936981588367
 31
0.0
 11
80.31393244587525
 21
-196.9026876275539
 31
0.0
 11
80.19677487569334
 21
-196.5211029418393
 31
0.0
 11
79.75050528760039
 21
-196.3690645381248
 31
0.0
 11
79.45253586964827
 21
-196.3690645381248
 31
0.0
 11
79.15456645169616
 21
-196.3690645381248
 31
0.0
  0
SPLINE
  5
129
102
{ACAD_REACTORS
330
1B6
330
1B6
102
}
330
34
100
AcDbEntity
  8
0
  6
Continuous
 62
   250
100
AcDbSpline
210
0.0
220
0.0
230
1.0
 70
    11
 71
     3
 72
    35
 73
    31
 74
    29
 42
0.0000000001
 43
0.0000000001
 44
0.00000001
 40
0.0
 40
0.0
 40
0.0
 40
0.0
 40
0.3140822601743259
 40
0.6734494531747418
 40
0.8721103095636359
 40
1.076234392500292
 40
1.145933087417543
 40
1.215631782334795
 40
1.436444562818384
 40
1.651341053944749
 40
2.133622726378803
 40
2.544074393160261
 40
2.671044502476124
 40
2.950378742971114
 40
3.229712983466047
 40
3.356683092781938
 40
3.76712035078955
 40
4.249406310385258
 40
4.464303041799734
 40
4.68512073804653
 40
4.754819432965162
 40
4.824518127883794
 40
5.028639645437299
 40
5.227299530697157
 40
5.586666723697998
 40
5.900748983871384
 40
6.026866603231074
 40
6.304325365822482
 40
6.581784128413862
 40
6.70790174777358
 40
6.70790174777358
 40
6.70790174777358
 40
6.70790174777358
 10
83.56707484844083
 20
-196.8674683407926
 30
0.0
 10
83.58366080008767
 20
-196.7509777775731
 30
0.0
 10
83.61922409506884
 20
-196.5012008367912
 30
0.0
 10
83.98385042249788
 20
-196.4924030549849
 30
0.0
 10
84.1983974698249
 20
-196.4673601067419
 30
0.0
 10
84.43268354593843
 20
-196.5842464663431
 30
0.0
 10
84.42471969432974
 20
-196.4507669753392
 30
0.0
 10
84.46903564264746
 20
-196.3202109239637
 30
0.0
 10
84.19351766555954
 20
-196.3679910956456
 30
0.0
 10
83.94144430677109
 20
-196.3204237344871
 30
0.0
 10
83.48755474401042
 20
-196.392629119365
 30
0.0
 10
83.40201189585923
 20
-196.7727064712991
 30
0.0
 10
83.40908839600051
 20
-197.0417346706848
 30
0.0
 10
83.40597661260261
 20
-197.2710854903699
 30
0.0
 10
83.40908866944065
 20
-197.5004360563696
 30
0.0
 10
83.4020111985172
 20
-197.7694600866182
 30
0.0
 10
83.48756432100329
 20
-198.1495255070452
 30
0.0
 10
83.94144076154888
 20
-198.221744626069
 30
0.0
 10
84.19352181274965
 20
-198.1741865527409
 30
0.0
 10
84.4690332232199
 20
-198.2219158921804
 30
0.0
 10
84.42472208899017
 20
-198.0913651408831
 30
0.0
 10
84.43266744404363
 20
-197.957874130934
 30
0.0
 10
84.19859515987932
 20
-198.0748904116337
 30
0.0
 10
83.98291341262227
 20
-198.0490100926649
 30
0.0
 10
83.62558508017483
 20
-198.0454157343614
 30
0.0
 10
83.56195035393552
 20
-197.7336310139974
 30
0.0
 10
83.56915204079274
 20
-197.4995339112837
 30
0.0
 10
83.56633554438838
 20
-197.2705188675974
 30
0.0
 10
83.56714835878692
 20
-197.0440852946295
 30
0.0
 10
83.56709235090419
 20
-196.9095199964681
 30
0.0
 10
83.56707484844083
 20
-196.8674683407926
 30
0.0
 11
83.56707484844083
 21
-196.8674683407926
 31
0.0
 11
83.67034065014741
 21
-196.5708476396369
 31
0.0
 11
84.01942893247178
 21
-196.4855121221262
 31
0.0
 11
84.21786314380552
 21
-196.4949989357919
 31
0.0
 11
84.42035877601302
 21
-196.5207314088875
 31
0.0
 11
84.4298150527029
 21
-196.4516771772697
 31
0.0
 11
84.4392713293928
 21
-196.3826229456518
 31
0.0
 11
84.22056820827493
 21
-196.3521725131722
 31
0.0
 11
84.00591123964114
 21
-196.3420291549819
 31
0.0
 11
83.54302954429659
 21
-196.4774401873269
 31
0.0
 11
83.40724443190993
 21
-196.8647810888824
 31
0.0
 11
83.40724443190993
 21
-196.9917511981983
 31
0.0
 11
83.40724443190993
 21
-197.2710854386933
 31
0.0
 11
83.40724443190993
 21
-197.5504196791882
 31
0.0
 11
83.40724443190993
 21
-197.6773897885041
 31
0.0
 11
83.54302954429659
 21
-198.0647154215507
 31
0.0
 11
84.00591123964114
 21
-198.2001417223128
 31
0.0
 11
84.22056820827493
 21
-198.1899932746691
 31
0.0
 11
84.4392713293928
 21
-198.1595072157397
 31
0.0
 11
84.4298150527029
 21
-198.0904529841204
 31
0.0
 11
84.42035877601302
 21
-198.0213987525012
 31
0.0
 11
84.21786314380552
 21
-198.0471108676462
 31
0.0
 11
84.01942893247178
 21
-198.056577323362
 31
0.0
 11
83.67034065014741
 21
-197.9712418058495
 31
0.0
 11
83.56707484844083
 21
-197.6746211046948
 31
0.0
 11
83.56707484844083
 21
-197.5485034853351
 31
0.0
 11
83.56707484844083
 21
-197.2710447227437
 31
0.0
 11
83.56707484844083
 21
-196.9935859601523
 31
0.0
 11
83.56707484844083
 21
-196.8674683407926
 31
0.0
  0
TEXT
  5
12B
330
34
100
AcDbEntity
  8
1
 62
     2
100
AcDbText
 10
106.5383592815851
 20
-191.430061550418
 30
0.0
 40
1.8
  1
Zeichnungs-Nr.:
 41
0.9
  7
CONVERTER_11
100
AcDbText
  0
MTEXT
  5
12C
330
34
100
AcDbEntity
  8
1
 62
     2
100
AcDbMText
 10
-213.9616810857551
 20
73.2051816279627
 30
0.0
 40
2.5
 41
0.0
 71
     7
 72
     1
  1
ME10
  7
CONVERTER_11
 11
6.123031769111886E-17
 21
1.0
 31
0.0
 73
     1
 44
0.90036014405762
  0
MTEXT
  5
12D
330
34
100
AcDbEntity
  8
1
 62
     2
100
AcDbMText
 10
-213.5885468138731
 20
-200.7014158948359
 30
0.0
 40
3.5
 41
0.0
 71
     7
 72
     1
  1
Schutzvermerk ISO 16016 beachten
  7
CONVERTER_11
 11
6.123031769111886E-17
 21
1.0
 31
0.0
 73
     1
 44
0.90036014405762
  0
TEXT
  5
12E
330
34
100
AcDbEntity
  8
1
 62
     2
100
AcDbText
 10
106.5383592815851
 20
-178.702924181257
 30
0.0
 40
1.8
  1
Dokumenttype:
 41
0.9
  7
CONVERTER_11
100
AcDbText
  0
TEXT
  5
130
330
34
100
AcDbEntity
  8
1
 62
     2
100
AcDbText
 10
93.68434554915439
 20
-166.0914767486065
 30
0.0
 40
2.5
  1
Lier.
 41
0.72
  7
CONVERTER_12
100
AcDbText
  0
TEXT
  5
132
330
34
100
AcDbEntity
  8
1
 62
     2
100
AcDbText
 10
78.70129731387715
 20
-166.0914767486065
 30
0.0
 40
2.5
  1
10.03.09
 41
0.81
  7
CONVERTER_13
100
AcDbText
  0
TEXT
  5
133
330
34
100
AcDbEntity
  8
1
 62
     2
100
AcDbText
 10
49.37793992149091
 20
-196.4705155785014
 30
0.0
 40
1.5
  1
13.02.09
 41
0.81
  7
CONVERTER_13
100
AcDbText
  0
TEXT
  5
134
330
34
100
AcDbEntity
  8
1
 62
     2
100
AcDbText
 10
1.08693002535438
 20
-196.0649973480067
 30
0.0
 40
2.0
  1
-
 41
0.72
  7
CONVERTER_12
100
AcDbText
  0
TEXT
  5
135
330
34
100
AcDbEntity
  8
1
 62
     2
100
AcDbText
 10
69.97516420640022
 20
-186.5727822840236
 30
0.0
 40
2.5
  1
 
 41
0.9
  7
CONVERTER_11
100
AcDbText
  0
MTEXT
  5
136
330
34
100
AcDbEntity
  8
1
 62
     2
100
AcDbMText
 10
179.3217437383501
 20
-142.1381917058652
 30
0.0
 40
2.5
 41
0.0
 71
     1
 72
     1
  1
-
  7
CONVERTER_11
 73
     1
 44
0.90036014405762
  0
TEXT
  5
137
330
34
100
AcDbEntity
  8
1
 62
     2
100
AcDbText
 10
69.99348088821716
 20
-161.3745842266562
 30
0.0
 40
1.8
  1
Gez.
 41
0.9
  7
CONVERTER_11
100
AcDbText
  0
TEXT
  5
138
330
34
100
AcDbEntity
  8
1
 62
     2
100
AcDbText
 10
70.02187174500432
 20
-165.6844767486064
 30
0.0
 40
1.8
  1
Gepr.
 41
0.9
  7
CONVERTER_11
100
AcDbText
  0
TEXT
  5
139
330
34
100
AcDbEntity
  8
1
 62
     2
100
AcDbText
 10
81.43499617734051
 20
-157.0591739935353
 30
0.0
 40
1.8
  1
Datum
 41
0.9
  7
CONVERTER_11
100
AcDbText
  0
TEXT
  5
13A
330
34
100
AcDbEntity
  8
1
 62
     2
100
AcDbText
 10
95.29898346162372
 20
-157.144346563925
 30
0.0
 40
1.8
  1
Name
 41
0.9
  7
CONVERTER_11
100
AcDbText
  0
TEXT
  5
13B
330
34
100
AcDbEntity
  8
1
 62
     2
100
AcDbText
 10
69.97516420640022
 20
-169.8304803816673
 30
0.0
 40
1.8
  1
Freig:
 41
0.9
  7
CONVERTER_11
100
AcDbText
  0
TEXT
  5
13C
330
34
100
AcDbEntity
  8
1
 62
     2
100
AcDbText
 10
69.97516420640022
 20
-182.5181431125175
 30
0.0
 40
1.8
  1
Ersatz für/durch:
 41
0.9
  7
CONVERTER_11
100
AcDbText
  0
TEXT
  5
13E
330
34
100
AcDbEntity
  8
1
 62
     2
100
AcDbText
 10
69.97516420640022
 20
-148.4625446666578
 30
0.0
 40
1.8
  1
Zul. Abweichung nach DIN:
 41
0.855
  7
CONVERTER_14
100
AcDbText
  0
TEXT
  5
13F
330
34
100
AcDbEntity
  8
1
 62
     2
100
AcDbText
 10
107.0383592815851
 20
-148.5416116764491
 30
0.0
 40
1.8
  1
Werkstoff:
 41
0.9
  7
CONVERTER_11
100
AcDbText
  0
TEXT
  5
140
330
34
100
AcDbEntity
  8
1
 62
     2
100
AcDbText
 10
107.0383592815851
 20
-156.7645806945138
 30
0.0
 40
1.8
  1
Benennung, Type:
 41
0.9
  7
CONVERTER_11
100
AcDbText
  0
TEXT
  5
141
330
34
100
AcDbEntity
  8
1
 62
     2
100
AcDbText
 10
106.5383592815851
 20
-182.5605042690422
 30
0.0
 40
1.8
  1
Verkaufs-Nr.:
 41
0.9
  7
CONVERTER_11
100
AcDbText
  0
TEXT
  5
142
330
34
100
AcDbEntity
  8
1
 62
     2
100
AcDbText
 10
164.0844436493353
 20
-148.5416116764491
 30
0.0
 40
1.8
  1
Maßstab:
 41
0.9
  7
CONVERTER_11
100
AcDbText
  0
TEXT
  5
143
330
34
100
AcDbEntity
  8
1
 62
     2
100
AcDbText
 10
1.57975851460651
 20
-200.1418412657122
 30
0.0
 40
1.8
  1
Zust.
 41
0.9
  7
CONVERTER_11
100
AcDbText
  0
TEXT
  5
144
330
34
100
AcDbEntity
  8
1
 62
     2
100
AcDbText
 10
21.71253931994579
 20
-200.2233504997412
 30
0.0
 40
1.8
  1
Änderung
 41
0.9
  7
CONVERTER_11
100
AcDbText
  0
TEXT
  5
145
330
34
100
AcDbEntity
  8
1
 62
     2
100
AcDbText
 10
51.46340974077612
 20
-200.2233504997412
 30
0.0
 40
1.8
  1
Datum
 41
0.9
  7
CONVERTER_11
100
AcDbText
  0
TEXT
  5
146
330
34
100
AcDbEntity
  8
1
 62
     2
100
AcDbText
 10
61.48904552641034
 20
-200.2233504997412
 30
0.0
 40
1.8
  1
Name
 41
0.9
  7
CONVERTER_11
100
AcDbText
  0
MTEXT
  5
147
330
34
100
AcDbEntity
  8
1
 62
     3
100
AcDbMText
 10
131.6385845967016
 20
-185.5571119260339
 30
0.0
 40
3.5
 41
0.0
 71
     5
 72
     1
  1
 
  7
CONVERTER_11
 73
     1
 44
1.32052821128451
  0
MTEXT
  5
148
330
34
100
AcDbEntity
  8
1
 62
     7
100
AcDbMText
 10
138.2303779645736
 20
-196.3067571483607
 30
0.0
 40
5.0
 41
0.0
 71
     5
 72
     1
  1
5 400584 0 00000
  7
CONVERTER_13
 73
     1
 44
1.32052821128451
  0
TEXT
  5
149
330
34
100
AcDbEntity
  8
1
 62
     7
100
AcDbText
 10
107.2768570160843
 20
-164.2854901857718
 30
0.0
 40
5.0
  1
Fräsbild Futterzarge
 41
0.81
  7
CONVERTER_13
100
AcDbText
  0
TEXT
  5
14A
330
34
100
AcDbEntity
  8
1
 62
     2
100
AcDbText
 10
107.0606998260846
 20
-152.6745466852653
 30
0.0
 40
2.5
  1
 
 41
0.9
  7
CONVERTER_11
100
AcDbText
  0
TEXT
  5
14B
330
34
100
AcDbEntity
  8
1
 62
     2
100
AcDbText
 10
61.35722048364551
 20
-196.4705155785014
 30
0.0
 40
1.5
  1
Kerst.
 41
0.72
  7
CONVERTER_12
100
AcDbText
  0
TEXT
  5
14C
330
34
100
AcDbEntity
  8
1
 62
     2
100
AcDbText
 10
93.68434554915439
 20
-161.9583306814075
 30
0.0
 40
2.5
  1
Kerst.
 41
0.72
  7
CONVERTER_12
100
AcDbText
  0
TEXT
  5
14D
330
34
100
AcDbEntity
  8
1
 62
     2
100
AcDbText
 10
78.70129731387715
 20
-161.9583306814075
 30
0.0
 40
2.5
  1
13.02.09
 41
0.81
  7
CONVERTER_13
100
AcDbText
  0
TEXT
  5
14E
330
34
100
AcDbEntity
  8
1
 62
     2
100
AcDbText
 10
3.58693002535438
 20
-196.0649973480067
 30
0.0
 40
2.0
  1
x
 41
0.72
  7
CONVERTER_12
100
AcDbText
  0
TEXT
  5
14F
330
34
100
AcDbEntity
  8
1
 62
     2
100
AcDbText
 10
5.83693002535438
 20
-196.0649973480067
 30
0.0
 40
2.0
  1
 
 41
0.72
  7
CONVERTER_12
100
AcDbText
  0
MTEXT
  5
150
330
34
100
AcDbEntity
  8
1
 62
     2
100
AcDbMText
 10
171.3312293797426
 20
-190.3781642853064
 30
0.0
 40
2.0
 41
0.0
 71
     4
 72
     1
  1
Blatt:
  7
CONVERTER_11
 73
     1
 44
1.32052821128451
  0
MTEXT
  5
151
330
34
100
AcDbEntity
  8
1
 62
     2
100
AcDbMText
 10
171.3312293797426
 20
-181.6627976387063
 30
0.0
 40
2.0
 41
0.0
 71
     4
 72
     1
  1
Format:
  7
CONVERTER_11
 73
     1
 44
1.32052821128451
  0
MTEXT
  5
152
330
34
100
AcDbEntity
  8
1
 62
     2
100
AcDbMText
 10
158.8312293797426
 20
-181.7127976387064
 30
0.0
 40
2.0
 41
0.0
 71
     4
 72
     1
  1
Proj.-M.
  7
CONVERTER_11
 73
     1
 44
1.32052821128451
  0
MTEXT
  5
153
330
34
100
AcDbEntity
  8
1
 62
     2
100
AcDbMText
 10
176.5820918662503
 20
-185.5589462525495
 30
0.0
 40
2.5
 41
0.0
 71
     5
 72
     1
  1
A3
  7
CONVERTER_11
 73
     1
 44
1.32052821128451
  0
TEXT
  5
154
330
34
100
AcDbEntity
  8
1
 62
     2
100
AcDbText
 10
127.2183327241655
 20
-178.6997495275527
 30
0.0
 40
2.0
  1
Bohr-/Fräsbild
 41
0.9
  7
CONVERTER_11
100
AcDbText
  0
TEXT
  5
155
330
34
100
AcDbEntity
  8
1
 62
     2
100
AcDbText
 10
78.70129731387715
 20
-170.4248100820059
 30
0.0
 40
2.5
  1
 
 41
0.81
  7
CONVERTER_13
100
AcDbText
  0
TEXT
  5
156
330
34
100
AcDbEntity
  8
1
 62
     2
100
AcDbText
 10
93.68434554915439
 20
-170.4267767486062
 30
0.0
 40
2.5
  1
 
 41
0.72
  7
CONVERTER_12
100
AcDbText
  0
TEXT
  5
157
330
34
100
AcDbEntity
  8
1
 62
     2
100
AcDbText
 10
69.97516420640022
 20
-174.1634803816669
 30
0.0
 40
1.8
  1
Lebenszyklusphase:
 41
0.9
  7
CONVERTER_11
100
AcDbText
  0
TEXT
  5
158
330
34
100
AcDbEntity
  8
1
 62
     2
100
AcDbText
 10
69.97516420640022
 20
-177.9061156374228
 30
0.0
 40
2.5
  1
Serie
 41
0.9
  7
CONVERTER_11
100
AcDbText
  0
TEXT
  5
159
330
34
100
AcDbEntity
  8
1
 62
     2
100
AcDbText
 10
1.08693002535438
 20
-191.7316640180079
 30
0.0
 40
2.0
  1
 
 41
0.72
  7
CONVERTER_12
100
AcDbText
  0
TEXT
  5
15A
330
34
100
AcDbEntity
  8
1
 62
     2
100
AcDbText
 10
1.08693002535438
 20
-187.3983306880082
 30
0.0
 40
2.0
  1
 
 41
0.72
  7
CONVERTER_12
100
AcDbText
  0
TEXT
  5
15B
330
34
100
AcDbEntity
  8
1
 62
     2
100
AcDbText
 10
1.08693002535438
 20
-183.0649973580084
 30
0.0
 40
2.0
  1
 
 41
0.72
  7
CONVERTER_12
100
AcDbText
  0
TEXT
  5
15C
330
34
100
AcDbEntity
  8
1
 62
     2
100
AcDbText
 10
1.08693002535438
 20
-178.7316640280078
 30
0.0
 40
2.0
  1
 
 41
0.72
  7
CONVERTER_12
100
AcDbText
  0
TEXT
  5
15D
330
34
100
AcDbEntity
  8
1
 62
     2
100
AcDbText
 10
1.08693002535438
 20
-174.3983306980081
 30
0.0
 40
2.0
  1
 
 41
0.72
  7
CONVERTER_12
100
AcDbText
  0
TEXT
  5
15E
330
34
100
AcDbEntity
  8
1
 62
     2
100
AcDbText
 10
1.08693002535438
 20
-170.0649973680083
 30
0.0
 40
2.0
  1
 
 41
0.72
  7
CONVERTER_12
100
AcDbText
  0
TEXT
  5
15F
330
34
100
AcDbEntity
  8
1
 62
     2
100
AcDbText
 10
1.08693002535438
 20
-165.7316640380077
 30
0.0
 40
2.0
  1
 
 41
0.72
  7
CONVERTER_12
100
AcDbText
  0
TEXT
  5
160
330
34
100
AcDbEntity
  8
1
 62
     2
100
AcDbText
 10
1.08693002535438
 20
-161.398330708008
 30
0.0
 40
2.0
  1
 
 41
0.72
  7
CONVERTER_12
100
AcDbText
  0
TEXT
  5
161
330
34
100
AcDbEntity
  8
1
 62
     2
100
AcDbText
 10
1.08693002535438
 20
-157.0649973780082
 30
0.0
 40
2.0
  1
 
 41
0.72
  7
CONVERTER_12
100
AcDbText
  0
TEXT
  5
162
330
34
100
AcDbEntity
  8
1
 62
     2
100
AcDbText
 10
1.08693002535438
 20
-152.7316640480085
 30
0.0
 40
2.0
  1
 
 41
0.72
  7
CONVERTER_12
100
AcDbText
  0
TEXT
  5
163
330
34
100
AcDbEntity
  8
1
 62
     2
100
AcDbText
 10
1.08693002535438
 20
-148.3983307180079
 30
0.0
 40
2.0
  1
 
 41
0.72
  7
CONVERTER_12
100
AcDbText
  0
TEXT
  5
164
330
34
100
AcDbEntity
  8
1
 62
     2
100
AcDbText
 10
3.58693002535438
 20
-191.7316640180079
 30
0.0
 40
2.0
  1
x
 41
0.72
  7
CONVERTER_12
100
AcDbText
  0
TEXT
  5
165
330
34
100
AcDbEntity
  8
1
 62
     2
100
AcDbText
 10
3.58693002535438
 20
-187.3983306880082
 30
0.0
 40
2.0
  1
x
 41
0.72
  7
CONVERTER_12
100
AcDbText
  0
TEXT
  5
166
330
34
100
AcDbEntity
  8
1
 62
     2
100
AcDbText
 10
3.58693002535438
 20
-183.0649973580084
 30
0.0
 40
2.0
  1
x
 41
0.72
  7
CONVERTER_12
100
AcDbText
  0
TEXT
  5
167
330
34
100
AcDbEntity
  8
1
 62
     2
100
AcDbText
 10
3.58693002535438
 20
-178.7316640280078
 30
0.0
 40
2.0
  1
x
 41
0.72
  7
CONVERTER_12
100
AcDbText
  0
TEXT
  5
168
330
34
100
AcDbEntity
  8
1
 62
     2
100
AcDbText
 10
3.58693002535438
 20
-174.3983306980081
 30
0.0
 40
2.0
  1
x
 41
0.72
  7
CONVERTER_12
100
AcDbText
  0
TEXT
  5
169
330
34
100
AcDbEntity
  8
1
 62
     2
100
AcDbText
 10
3.58693002535438
 20
-170.0649973680083
 30
0.0
 40
2.0
  1
x
 41
0.72
  7
CONVERTER_12
100
AcDbText
  0
TEXT
  5
16A
330
34
100
AcDbEntity
  8
1
 62
     2
100
AcDbText
 10
3.58693002535438
 20
-165.7316640380077
 30
0.0
 40
2.0
  1
x
 41
0.72
  7
CONVERTER_12
100
AcDbText
  0
TEXT
  5
16B
330
34
100
AcDbEntity
  8
1
 62
     2
100
AcDbText
 10
3.58693002535438
 20
-161.398330708008
 30
0.0
 40
2.0
  1
x
 41
0.72
  7
CONVERTER_12
100
AcDbText
  0
TEXT
  5
16C
330
34
100
AcDbEntity
  8
1
 62
     2
100
AcDbText
 10
3.58693002535438
 20
-157.0649973780082
 30
0.0
 40
2.0
  1
x
 41
0.72
  7
CONVERTER_12
100
AcDbText
  0
TEXT
  5
16D
330
34
100
AcDbEntity
  8
1
 62
     2
100
AcDbText
 10
3.58693002535438
 20
-152.7316640480085
 30
0.0
 40
2.0
  1
x
 41
0.72
  7
CONVERTER_12
100
AcDbText
  0
TEXT
  5
16E
330
34
100
AcDbEntity
  8
1
 62
     2
100
AcDbText
 10
3.58693002535438
 20
-148.3983307180079
 30
0.0
 40
2.0
  1
x
 41
0.72
  7
CONVERTER_12
100
AcDbText
  0
TEXT
  5
16F
330
34
100
AcDbEntity
  8
1
 62
     2
100
AcDbText
 10
5.83693002535438
 20
-191.7316640180079
 30
0.0
 40
2.0
  1
 
 41
0.72
  7
CONVERTER_12
100
AcDbText
  0
TEXT
  5
170
330
34
100
AcDbEntity
  8
1
 62
     2
100
AcDbText
 10
5.83693002535438
 20
-187.3983306880082
 30
0.0
 40
2.0
  1
 
 41
0.72
  7
CONVERTER_12
100
AcDbText
  0
TEXT
  5
171
330
34
100
AcDbEntity
  8
1
 62
     2
100
AcDbText
 10
5.83693002535438
 20
-183.0649973580084
 30
0.0
 40
2.0
  1
 
 41
0.72
  7
CONVERTER_12
100
AcDbText
  0
TEXT
  5
172
330
34
100
AcDbEntity
  8
1
 62
     2
100
AcDbText
 10
5.83693002535438
 20
-178.7316640280078
 30
0.0
 40
2.0
  1
 
 41
0.72
  7
CONVERTER_12
100
AcDbText
  0
TEXT
  5
173
330
34
100
AcDbEntity
  8
1
 62
     2
100
AcDbText
 10
5.83693002535438
 20
-174.3983306980081
 30
0.0
 40
2.0
  1
 
 41
0.72
  7
CONVERTER_12
100
AcDbText
  0
TEXT
  5
174
330
34
100
AcDbEntity
  8
1
 62
     2
100
AcDbText
 10
5.83693002535438
 20
-170.0649973680083
 30
0.0
 40
2.0
  1
 
 41
0.72
  7
CONVERTER_12
100
AcDbText
  0
TEXT
  5
175
330
34
100
AcDbEntity
  8
1
 62
     2
100
AcDbText
 10
5.83693002535438
 20
-165.7316640380077
 30
0.0
 40
2.0
  1
 
 41
0.72
  7
CONVERTER_12
100
AcDbText
  0
TEXT
  5
176
330
34
100
AcDbEntity
  8
1
 62
     2
100
AcDbText
 10
5.83693002535438
 20
-161.398330708008
 30
0.0
 40
2.0
  1
 
 41
0.72
  7
CONVERTER_12
100
AcDbText
  0
TEXT
  5
177
330
34
100
AcDbEntity
  8
1
 62
     2
100
AcDbText
 10
5.83693002535438
 20
-157.0649973780082
 30
0.0
 40
2.0
  1
 
 41
0.72
  7
CONVERTER_12
100
AcDbText
  0
TEXT
  5
178
330
34
100
AcDbEntity
  8
1
 62
     2
100
AcDbText
 10
5.83693002535438
 20
-152.7316640480085
 30
0.0
 40
2.0
  1
 
 41
0.72
  7
CONVERTER_12
100
AcDbText
  0
TEXT
  5
179
330
34
100
AcDbEntity
  8
1
 62
     2
100
AcDbText
 10
5.83693002535438
 20
-148.3983307180079
 30
0.0
 40
2.0
  1
 
 41
0.72
  7
CONVERTER_12
100
AcDbText
  0
TEXT
  5
17A
330
34
100
AcDbEntity
  8
1
 62
     2
100
AcDbText
 10
9.58693002535438
 20
-191.7316640180079
 30
0.0
 40
2.0
  1
 
 41
0.72
  7
CONVERTER_12
100
AcDbText
  0
TEXT
  5
17B
330
34
100
AcDbEntity
  8
1
 62
     2
100
AcDbText
 10
9.58693002535438
 20
-187.3983306880082
 30
0.0
 40
2.0
  1
 
 41
0.72
  7
CONVERTER_12
100
AcDbText
  0
TEXT
  5
17C
330
34
100
AcDbEntity
  8
1
 62
     2
100
AcDbText
 10
9.58693002535438
 20
-183.0649973580084
 30
0.0
 40
2.0
  1
 
 41
0.72
  7
CONVERTER_12
100
AcDbText
  0
TEXT
  5
17D
330
34
100
AcDbEntity
  8
1
 62
     2
100
AcDbText
 10
9.58693002535438
 20
-178.7316640280078
 30
0.0
 40
2.0
  1
 
 41
0.72
  7
CONVERTER_12
100
AcDbText
  0
TEXT
  5
17E
330
34
100
AcDbEntity
  8
1
 62
     2
100
AcDbText
 10
9.58693002535438
 20
-174.3983306980081
 30
0.0
 40
2.0
  1
 
 41
0.72
  7
CONVERTER_12
100
AcDbText
  0
TEXT
  5
17F
330
34
100
AcDbEntity
  8
1
 62
     2
100
AcDbText
 10
9.58693002535438
 20
-170.0649973680083
 30
0.0
 40
2.0
  1
 
 41
0.72
  7
CONVERTER_12
100
AcDbText
  0
TEXT
  5
180
330
34
100
AcDbEntity
  8
1
 62
     2
100
AcDbText
 10
9.58693002535438
 20
-165.7316640380077
 30
0.0
 40
2.0
  1
 
 41
0.72
  7
CONVERTER_12
100
AcDbText
  0
TEXT
  5
181
330
34
100
AcDbEntity
  8
1
 62
     2
100
AcDbText
 10
9.58693002535438
 20
-161.398330708008
 30
0.0
 40
2.0
  1
 
 41
0.72
  7
CONVERTER_12
100
AcDbText
  0
TEXT
  5
182
330
34
100
AcDbEntity
  8
1
 62
     2
100
AcDbText
 10
9.58693002535438
 20
-157.0649973780082
 30
0.0
 40
2.0
  1
 
 41
0.72
  7
CONVERTER_12
100
AcDbText
  0
TEXT
  5
183
330
34
100
AcDbEntity
  8
1
 62
     2
100
AcDbText
 10
9.58693002535438
 20
-152.7316640480085
 30
0.0
 40
2.0
  1
 
 41
0.72
  7
CONVERTER_12
100
AcDbText
  0
TEXT
  5
184
330
34
100
AcDbEntity
  8
1
 62
     2
100
AcDbText
 10
9.58693002535438
 20
-148.3983307180079
 30
0.0
 40
2.0
  1
 
 41
0.72
  7
CONVERTER_12
100
AcDbText
  0
TEXT
  5
185
330
34
100
AcDbEntity
  8
1
 62
     2
100
AcDbText
 10
49.37793992149091
 20
-192.1371822485007
 30
0.0
 40
1.5
  1
 
 41
0.81
  7
CONVERTER_13
100
AcDbText
  0
TEXT
  5
186
330
34
100
AcDbEntity
  8
1
 62
     2
100
AcDbText
 10
49.37793992149091
 20
-187.803848918501
 30
0.0
 40
1.5
  1
 
 41
0.81
  7
CONVERTER_13
100
AcDbText
  0
TEXT
  5
187
330
34
100
AcDbEntity
  8
1
 62
     2
100
AcDbText
 10
49.37793992149091
 20
-183.4705155885013
 30
0.0
 40
1.5
  1
 
 41
0.81
  7
CONVERTER_13
100
AcDbText
  0
TEXT
  5
188
330
34
100
AcDbEntity
  8
1
 62
     2
100
AcDbText
 10
49.37793992149091
 20
-179.1371822584997
 30
0.0
 40
1.5
  1
 
 41
0.81
  7
CONVERTER_13
100
AcDbText
  0
TEXT
  5
189
330
34
100
AcDbEntity
  8
1
 62
     2
100
AcDbText
 10
49.37793992149091
 20
-174.8038489285009
 30
0.0
 40
1.5
  1
 
 41
0.81
  7
CONVERTER_13
100
AcDbText
  0
TEXT
  5
18A
330
34
100
AcDbEntity
  8
1
 62
     2
100
AcDbText
 10
49.37793992149091
 20
-170.4705155985012
 30
0.0
 40
1.5
  1
 
 41
0.81
  7
CONVERTER_13
100
AcDbText
  0
TEXT
  5
18B
330
34
100
AcDbEntity
  8
1
 62
     2
100
AcDbText
 10
49.37793992149091
 20
-166.1371822685014
 30
0.0
 40
1.5
  1
 
 41
0.81
  7
CONVERTER_13
100
AcDbText
  0
TEXT
  5
18C
330
34
100
AcDbEntity
  8
1
 62
     2
100
AcDbText
 10
49.37793992149091
 20
-161.8038489385008
 30
0.0
 40
1.5
  1
 
 41
0.81
  7
CONVERTER_13
100
AcDbText
  0
TEXT
  5
18D
330
34
100
AcDbEntity
  8
1
 62
     2
100
AcDbText
 10
49.37793992149091
 20
-157.4705156085011
 30
0.0
 40
1.5
  1
 
 41
0.81
  7
CONVERTER_13
100
AcDbText
  0
TEXT
  5
18E
330
34
100
AcDbEntity
  8
1
 62
     2
100
AcDbText
 10
49.37793992149091
 20
-153.1371822785013
 30
0.0
 40
1.5
  1
 
 41
0.81
  7
CONVERTER_13
100
AcDbText
  0
TEXT
  5
18F
330
34
100
AcDbEntity
  8
1
 62
     2
100
AcDbText
 10
48.87793992149091
 20
-148.8038489485016
 30
0.0
 40
1.5
  1
 
 41
0.81
  7
CONVERTER_13
100
AcDbText
  0
TEXT
  5
190
330
34
100
AcDbEntity
  8
1
 62
     2
100
AcDbText
 10
61.35722048364551
 20
-192.1371822485007
 30
0.0
 40
1.5
  1
 
 41
0.72
  7
CONVERTER_12
100
AcDbText
  0
TEXT
  5
191
330
34
100
AcDbEntity
  8
1
 62
     2
100
AcDbText
 10
61.35722048364551
 20
-187.803848918501
 30
0.0
 40
1.5
  1
 
 41
0.72
  7
CONVERTER_12
100
AcDbText
  0
TEXT
  5
192
330
34
100
AcDbEntity
  8
1
 62
     2
100
AcDbText
 10
61.35722048364551
 20
-183.4705155885013
 30
0.0
 40
1.5
  1
 
 41
0.72
  7
CONVERTER_12
100
AcDbText
  0
TEXT
  5
193
330
34
100
AcDbEntity
  8
1
 62
     2
100
AcDbText
 10
61.35722048364551
 20
-179.1371822584997
 30
0.0
 40
1.5
  1
 
 41
0.72
  7
CONVERTER_12
100
AcDbText
  0
TEXT
  5
194
330
34
100
AcDbEntity
  8
1
 62
     2
100
AcDbText
 10
61.35722048364551
 20
-174.8038489285009
 30
0.0
 40
1.5
  1
 
 41
0.72
  7
CONVERTER_12
100
AcDbText
  0
TEXT
  5
195
330
34
100
AcDbEntity
  8
1
 62
     2
100
AcDbText
 10
61.35722048364551
 20
-170.4705155985012
 30
0.0
 40
1.5
  1
 
 41
0.72
  7
CONVERTER_12
100
AcDbText
  0
TEXT
  5
196
330
34
100
AcDbEntity
  8
1
 62
     2
100
AcDbText
 10
61.35722048364551
 20
-166.1371822685014
 30
0.0
 40
1.5
  1
 
 41
0.72
  7
CONVERTER_12
100
AcDbText
  0
TEXT
  5
197
330
34
100
AcDbEntity
  8
1
 62
     2
100
AcDbText
 10
61.35722048364551
 20
-161.8038489385008
 30
0.0
 40
1.5
  1
 
 41
0.72
  7
CONVERTER_12
100
AcDbText
  0
TEXT
  5
198
330
34
100
AcDbEntity
  8
1
 62
     2
100
AcDbText
 10
61.35722048364551
 20
-157.4705156085011
 30
0.0
 40
1.5
  1
 
 41
0.72
  7
CONVERTER_12
100
AcDbText
  0
TEXT
  5
199
330
34
100
AcDbEntity
  8
1
 62
     2
100
AcDbText
 10
61.35722048364551
 20
-153.1371822785013
 30
0.0
 40
1.5
  1
 
 41
0.72
  7
CONVERTER_12
100
AcDbText
  0
TEXT
  5
19A
330
34
100
AcDbEntity
  8
1
 62
     2
100
AcDbText
 10
60.85722048364551
 20
-148.8038489485016
 30
0.0
 40
1.5
  1
 
 41
0.72
  7
CONVERTER_12
100
AcDbText
  0
TEXT
  5
19B
330
34
100
AcDbEntity
  8
1
 62
     2
100
AcDbText
 10
1.32174373835005
 20
-144.1381917058652
 30
0.0
 40
2.5
  1
 
 41
0.9
  7
CONVERTER_11
100
AcDbText
  0
TEXT
  5
19C
330
34
100
AcDbEntity
  8
1
 62
     3
100
AcDbText
 10
107.2768570160843
 20
-173.0164901857743
 30
0.0
 40
3.5
  1
TECTUS TE340-3D FZ/1
 41
0.81
  7
CONVERTER_13
100
AcDbText
  0
TEXT
  5
19D
330
34
100
AcDbEntity
  8
1
 62
     2
100
AcDbText
 10
9.58693002535438
 20
-196.0649973480067
 30
0.0
 40
2.0
  1
 
 41
0.72
  7
CONVERTER_12
100
AcDbText
  0
HATCH
  5
19E
330
34
100
AcDbEntity
  8
1
  6
Continuous
 62
     2
100
AcDbHatch
 10
0.0
 20
0.0
 30
0.0
210
0.0
220
0.0
230
1.0
  2
SOLID
 70
     1
 71
     1
 91
        1
 92
        1
 93
        6
 72
     1
 10
88.91942947208008
 20
-197.2547992712907
 11
89.68602861264662
 21
-198.173106071733
 72
     1
 10
89.68602861264662
 20
-198.173106071733
 11
89.88647309613589
 21
-198.173106071733
 72
     1
 10
89.88647309613589
 20
-198.173106071733
 11
89.11173081271409
 21
-197.2547992712907
 72
     1
 10
89.11173081271409
 20
-197.2547992712907
 11
89.83496828506031
 21
-196.369064096345
 72
     1
 10
89.83496828506031
 20
-196.369064096345
 11
89.63721043328405
 21
-196.369064096345
 72
     1
 10
89.63721043328405
 20
-196.369064096345
 11
88.91942947208008
 21
-197.2547992712907
 97
        6
330
46
330
47
330
42
330
43
330
44
330
45
 75
     0
 76
     1
 98
        1
 10
0.0
 20
0.0
  0
HATCH
  5
19F
330
34
100
AcDbEntity
  8
1
  6
Continuous
 62
     2
100
AcDbHatch
 10
0.0
 20
0.0
 30
0.0
210
0.0
220
0.0
230
1.0
  2
SOLID
 70
     1
 71
     1
 91
        1
 92
        1
 93
        6
 72
     1
 10
73.1718474393565
 20
-191.6654984978231
 11
73.1718474393565
 21
-192.9139913894314
 72
     1
 10
73.1718474393565
 20
-192.9139913894314
 11
71.25107320815005
 21
-192.9139913894314
 72
     1
 10
71.25107320815005
 20
-192.9139913894314
 11
71.25107320815005
 21
-193.4901830755161
 72
     1
 10
71.25107320815005
 20
-193.4901830755161
 11
69.71447406754305
 21
-193.4901830755161
 72
     1
 10
69.71447406754305
 20
-193.4901830755161
 11
69.71447406754305
 21
-191.6654984978231
 72
     1
 10
69.71447406754305
 20
-191.6654984978231
 11
73.1718474393565
 21
-191.6654984978231
 97
        6
330
56
330
55
330
54
330
59
330
58
330
57
 75
     0
 76
     1
 98
        1
 10
0.0
 20
0.0
  0
HATCH
  5
1A0
330
34
100
AcDbEntity
  8
1
  6
Continuous
 62
     2
100
AcDbHatch
 10
0.0
 20
0.0
 30
0.0
210
0.0
220
0.0
230
1.0
  2
SOLID
 70
     1
 71
     1
 91
        1
 92
        1
 93
        6
 72
     1
 10
73.1718474393565
 20
-193.2981059361955
 11
73.1718474393565
 21
-195.1227905138885
 72
     1
 10
73.1718474393565
 20
-195.1227905138885
 11
69.71447406754305
 21
-195.1227905138885
 72
     1
 10
69.71447406754305
 20
-195.1227905138885
 11
69.71447406754305
 21
-193.8743174882175
 72
     1
 10
69.71447406754305
 20
-193.8743174882175
 11
71.6352482987204
 21
-193.8743174882175
 72
     1
 10
71.6352482987204
 20
-193.8743174882175
 11
71.6352482987204
 21
-193.2981059361955
 72
     1
 10
71.6352482987204
 20
-193.2981059361955
 11
73.1718474393565
 21
-193.2981059361955
 97
        6
330
5B
330
5A
330
5F
330
5E
330
5D
330
5C
 75
     0
 76
     1
 98
        1
 10
0.0
 20
0.0
  0
HATCH
  5
1A1
330
34
100
AcDbEntity
  8
1
  6
Continuous
 62
     2
100
AcDbHatch
 10
0.0
 20
0.0
 30
0.0
210
0.0
220
0.0
230
1.0
  2
SOLID
 70
     1
 71
     1
 91
        1
 92
        1
 93
       10
 72
     1
 10
85.4886026703607
 20
-191.7165965301529
 11
85.4886026703607
 21
-195.1227905138885
 72
     1
 10
85.4886026703607
 20
-195.1227905138885
 11
86.21996247365314
 21
-195.1227905138885
 72
     1
 10
86.21996247365314
 20
-195.1227905138885
 11
86.21996247365314
 21
-192.882660912107
 72
     1
 10
86.21996247365314
 20
-192.882660912107
 11
87.33496855515114
 21
-195.1227905138885
 72
     1
 10
87.33496855515114
 20
-195.1227905138885
 11
88.2811661875312
 21
-195.1227905138885
 72
     1
 10
88.2811661875312
 20
-195.1227905138885
 11
88.2811661875312
 21
-191.7165965301529
 72
     1
 10
88.2811661875312
 20
-191.7165965301529
 11
87.54982625019329
 21
-191.7165965301529
 72
     1
 10
87.54982625019329
 20
-191.7165965301529
 11
87.54982625019329
 21
-194.0641147745728
 72
     1
 10
87.54982625019329
 20
-194.0641147745728
 11
86.42964934863994
 21
-191.7165965301529
 72
     1
 10
86.42964934863994
 20
-191.7165965301529
 11
85.4886026703607
 21
-191.7165965301529
 97
       10
330
6E
330
6D
330
6C
330
6B
330
6A
330
73
330
72
330
71
330
70
330
6F
 75
     0
 76
     1
 98
        1
 10
0.0
 20
0.0
  0
HATCH
  5
1A2
330
34
100
AcDbEntity
  8
1
  6
Continuous
 62
     2
100
AcDbHatch
 10
0.0
 20
0.0
 30
0.0
210
0.0
220
0.0
230
1.0
  2
SOLID
 70
     1
 71
     1
 91
        1
 92
        1
 93
       13
 72
     1
 10
92.5518198718637
 20
-194.1510433923431
 11
91.9738572792412
 21
-191.7165965301529
 72
     1
 10
91.9738572792412
 20
-191.7165965301529
 11
91.21690730891714
 21
-191.7165965301529
 72
     1
 10
91.21690730891714
 20
-191.7165965301529
 11
92.05573711059697
 21
-195.1227905138885
 72
     1
 10
92.05573711059697
 20
-195.1227905138885
 11
93.03255383050418
 21
-195.1227905138885
 72
     1
 10
93.03255383050418
 20
-195.1227905138885
 11
93.61055710098299
 21
-192.5349057631511
 72
     1
 10
93.61055710098299
 20
-192.5349057631511
 11
94.18338955144281
 21
-195.1227905138885
 72
     1
 10
94.18338955144281
 20
-195.1227905138885
 11
95.16020532533003
 21
-195.1227905138885
 72
     1
 10
95.16020532533003
 20
-195.1227905138885
 11
95.99390498486173
 21
-191.7165965301529
 72
     1
 10
95.99390498486173
 20
-191.7165965301529
 11
95.2369956924158
 21
-191.7165965301529
 72
     1
 10
95.2369956924158
 20
-191.7165965301529
 11
94.66412256407057
 21
-194.1510433923431
 72
     1
 10
94.66412256407057
 20
-194.1510433923431
 11
94.08107050716353
 21
-191.7165965301529
 72
     1
 10
94.08107050716353
 20
-191.7165965301529
 11
93.14509248123068
 21
-191.7165965301529
 72
     1
 10
93.14509248123068
 20
-191.7165965301529
 11
92.5518198718637
 21
-194.1510433923431
 97
       13
330
7A
330
79
330
78
330
77
330
76
330
75
330
74
330
80
330
7F
330
7E
330
7D
330
7C
330
7B
 75
     0
 76
     1
 98
        1
 10
0.0
 20
0.0
  0
HATCH
  5
1A3
330
34
100
AcDbEntity
  8
1
  6
Continuous
 62
     2
100
AcDbHatch
 10
0.0
 20
0.0
 30
0.0
210
0.0
220
0.0
230
1.0
  2
SOLID
 70
     1
 71
     1
 91
        1
 92
        1
 93
       12
 72
     1
 10
96.35179838452314
 20
-191.7165965301529
 11
96.35179838452314
 21
-195.1227905138885
 72
     1
 10
96.35179838452314
 20
-195.1227905138885
 11
98.49479962801706
 21
-195.1227905138885
 72
     1
 10
98.49479962801706
 20
-195.1227905138885
 11
98.49479962801706
 21
-194.4426100986748
 72
     1
 10
98.49479962801706
 20
-194.4426100986748
 11
97.11896796133078
 21
-194.4426100986748
 72
     1
 10
97.11896796133078
 20
-194.4426100986748
 11
97.11896796133078
 21
-193.7010098769815
 72
     1
 10
97.11896796133078
 20
-193.7010098769815
 11
98.38743179731682
 21
-193.7010098769815
 72
     1
 10
98.38743179731682
 20
-193.7010098769815
 11
98.38743179731682
 21
-193.020830407766
 72
     1
 10
98.38743179731682
 20
-193.020830407766
 11
97.11896796133078
 21
-193.020830407766
 72
     1
 10
97.11896796133078
 20
-193.020830407766
 11
97.11896796133078
 21
-192.3967769453648
 72
     1
 10
97.11896796133078
 20
-192.3967769453648
 11
98.49479962801706
 21
-192.3967769453648
 72
     1
 10
98.49479962801706
 20
-192.3967769453648
 11
98.49479962801706
 21
-191.7165965301529
 72
     1
 10
98.49479962801706
 20
-191.7165965301529
 11
96.35179838452314
 21
-191.7165965301529
 97
       12
330
4C
330
4E
330
4F
330
51
330
50
330
83
330
82
330
81
330
4B
330
4A
330
84
330
4D
 75
     0
 76
     1
 98
        1
 10
0.0
 20
0.0
  0
HATCH
  5
1A4
330
34
100
AcDbEntity
  8
1
  6
Continuous
 62
     2
100
AcDbHatch
 10
0.0
 20
0.0
 30
0.0
210
0.0
220
0.0
230
1.0
  2
SOLID
 70
     1
 71
     1
 91
        1
 92
        1
 93
        4
 72
     1
 10
102.0648147642642
 20
-191.7165965301529
 11
102.0648147642642
 21
-195.1227905138885
 72
     1
 10
102.0648147642642
 20
-195.1227905138885
 11
102.8319436631718
 21
-195.1227905138885
 72
     1
 10
102.8319436631718
 20
-195.1227905138885
 11
102.8319436631718
 21
-191.7165965301529
 72
     1
 10
102.8319436631718
 20
-191.7165965301529
 11
102.0648147642642
 21
-191.7165965301529
 97
        4
330
87
330
86
330
85
330
88
 75
     0
 76
     1
 98
        1
 10
0.0
 20
0.0
  0
HATCH
  5
1A5
330
34
100
AcDbEntity
  8
1
  6
Continuous
 62
     2
100
AcDbHatch
 10
0.0
 20
0.0
 30
0.0
210
0.0
220
0.0
230
1.0
  2
SOLID
 70
     1
 71
     1
 91
        1
 92
        1
 93
        6
 72
     1
 10
102.9291325652957
 20
-193.38393435936
 11
103.9213794435636
 21
-195.1227905138885
 72
     1
 10
103.9213794435636
 20
-195.1227905138885
 11
104.7857379224806
 21
-195.1227905138885
 72
     1
 10
104.7857379224806
 20
-195.1227905138885
 11
103.7576604587521
 21
-193.38393435936
 72
     1
 10
103.7576604587521
 20
-193.38393435936
 11
104.7141193214702
 21
-191.7165965301529
 72
     1
 10
104.7141193214702
 20
-191.7165965301529
 11
103.8498005744332
 21
-191.7165965301529
 72
     1
 10
103.8498005744332
 20
-191.7165965301529
 11
102.9291325652957
 21
-193.38393435936
 97
        6
330
8D
330
8C
330
8B
330
89
330
8A
330
8E
 75
     0
 76
     1
 98
        1
 10
0.0
 20
0.0
  0
HATCH
  5
1A6
330
34
100
AcDbEntity
  8
1
  6
Continuous
 62
     2
100
AcDbHatch
 10
0.0
 20
0.0
 30
0.0
210
0.0
220
0.0
230
1.0
  2
SOLID
 70
     1
 71
     1
 91
        2
 92
        1
 93
        8
 72
     1
 10
76.56782181661401
 20
-196.369064096345
 11
76.33213799585064
 21
-196.369064096345
 72
     1
 10
76.33213799585064
 20
-196.369064096345
 11
75.70374808284396
 21
-198.173106071733
 72
     1
 10
75.70374808284396
 20
-198.173106071733
 11
75.86081008620386
 21
-198.173106071733
 72
     1
 10
75.86081008620386
 20
-198.173106071733
 11
76.02878321991011
 21
-197.6990508524932
 72
     1
 10
76.02878321991011
 20
-197.6990508524932
 11
76.86848901487247
 21
-197.6990508524932
 72
     1
 10
76.86848901487247
 20
-197.6990508524932
 11
77.0391497262899
 21
-198.173106071733
 72
     1
 10
77.0391497262899
 20
-198.173106071733
 11
77.19625240752066
 21
-198.173106071733
 72
     1
 10
77.19625240752066
 20
-198.173106071733
 11
76.56782181661401
 21
-196.369064096345
 97
        8
330
96
330
97
330
8F
330
98
330
99
330
93
330
94
330
95
 92
       16
 93
        3
 72
     1
 10
76.44862618441402
 20
-196.4611635341598
 11
76.81971765311027
 21
-197.5609012227733
 72
     1
 10
76.81971765311027
 20
-197.5609012227733
 11
76.07757539207523
 21
-197.5609012227733
 72
     1
 10
76.07757539207523
 20
-197.5609012227733
 11
76.44862618441402
 21
-196.4611635341598
 97
        3
330
90
330
91
330
92
 75
     0
 76
     1
 98
        1
 10
0.0
 20
0.0
  0
HATCH
  5
1A7
330
34
100
AcDbEntity
  8
1
  6
Continuous
 62
     2
100
AcDbHatch
 10
0.0
 20
0.0
 30
0.0
210
0.0
220
0.0
230
1.0
  2
SOLID
 70
     1
 71
     1
 91
        1
 92
        1
 93
       10
 72
     1
 10
77.48061250808678
 20
-196.369064096345
 11
77.48061250808678
 21
-198.173106071733
 72
     1
 10
77.48061250808678
 20
-198.173106071733
 11
77.63229935603158
 21
-198.173106071733
 72
     1
 10
77.63229935603158
 20
-198.173106071733
 11
77.63229935603158
 21
-196.5261875895194
 72
     1
 10
77.63229935603158
 20
-196.5261875895194
 11
78.48826934831595
 21
-198.1730653938585
 72
     1
 10
78.48826934831595
 20
-198.1730653938585
 11
78.721247001944
 21
-198.1730653938585
 72
     1
 10
78.721247001944
 20
-198.1730653938585
 11
78.721247001944
 21
-196.369064096345
 72
     1
 10
78.721247001944
 20
-196.369064096345
 11
78.56956015399192
 21
-196.369064096345
 72
     1
 10
78.56956015399192
 20
-196.369064096345
 11
78.56956015399192
 21
-198.018630424388
 72
     1
 10
78.56956015399192
 20
-198.018630424388
 11
77.71354820734996
 21
-196.369064096345
 72
     1
 10
77.71354820734996
 20
-196.369064096345
 11
77.48061250808678
 21
-196.369064096345
 97
       10
330
9A
330
9B
330
A3
330
A2
330
A1
330
A0
330
9F
330
9E
330
9D
330
9C
 75
     0
 76
     1
 98
        1
 10
0.0
 20
0.0
  0
HATCH
  5
1A8
330
34
100
AcDbEntity
  8
1
  6
Continuous
 62
     2
100
AcDbHatch
 10
0.0
 20
0.0
 30
0.0
210
0.0
220
0.0
230
1.0
  2
SOLID
 70
     1
 71
     1
 91
        1
 92
        1
 93
        8
 72
     1
 10
80.52245950006181
 20
-196.369064096345
 11
80.52245950006181
 21
-196.5126286133573
 72
     1
 10
80.52245950006181
 20
-196.5126286133573
 11
81.07778343654354
 21
-196.5126286133573
 72
     1
 10
81.07778343654354
 20
-196.5126286133573
 11
81.07778343654354
 21
-198.173106071733
 72
     1
 10
81.07778343654354
 20
-198.173106071733
 11
81.23759356142546
 21
-198.173106071733
 72
     1
 10
81.23759356142546
 20
-198.173106071733
 11
81.23759356142546
 21
-196.5125879354828
 72
     1
 10
81.23759356142546
 20
-196.5125879354828
 11
81.79287776601996
 21
-196.5125879354828
 72
     1
 10
81.79287776601996
 20
-196.5125879354828
 11
81.79287776601996
 21
-196.369064096345
 72
     1
 10
81.79287776601996
 20
-196.369064096345
 11
80.52245950006181
 21
-196.369064096345
 97
        8
330
A5
330
A6
330
A4
330
AB
330
AA
330
A9
330
A8
330
A7
 75
     0
 76
     1
 98
        1
 10
0.0
 20
0.0
  0
HATCH
  5
1A9
330
34
100
AcDbEntity
  8
1
  6
Continuous
 62
     2
100
AcDbHatch
 10
0.0
 20
0.0
 30
0.0
210
0.0
220
0.0
230
1.0
  2
SOLID
 70
     1
 71
     1
 91
        1
 92
        1
 93
       12
 72
     1
 10
82.05018235008174
 20
-196.369064096345
 11
82.05018235008174
 21
-198.173106071733
 72
     1
 10
82.05018235008174
 20
-198.173106071733
 11
83.06871186527133
 21
-198.173106071733
 72
     1
 10
83.06871186527133
 20
-198.173106071733
 11
83.06871186527133
 21
-198.0295008768462
 72
     1
 10
83.06871186527133
 20
-198.0295008768462
 11
82.21001234089636
 21
-198.0295008768462
 72
     1
 10
82.21001234089636
 20
-198.0295008768462
 11
82.21001234089636
 21
-197.3252372679453
 72
     1
 10
82.21001234089636
 20
-197.3252372679453
 11
83.00635552166204
 21
-197.3252372679453
 72
     1
 10
83.00635552166204
 20
-197.3252372679453
 11
83.00635552166204
 21
-197.1816736969295
 72
     1
 10
83.00635552166204
 20
-197.1816736969295
 11
82.21001234089636
 21
-197.1816736969295
 72
     1
 10
82.21001234089636
 20
-197.1816736969295
 11
82.21001234089636
 21
-196.5125879354828
 72
     1
 10
82.21001234089636
 20
-196.5125879354828
 11
83.06598360969656
 21
-196.5125879354828
 72
     1
 10
83.06598360969656
 20
-196.5125879354828
 11
83.06598360969656
 21
-196.369064096345
 72
     1
 10
83.06598360969656
 20
-196.369064096345
 11
82.05018235008174
 21
-196.369064096345
 97
       12
330
B4
330
B5
330
B3
330
B2
330
B1
330
B0
330
AF
330
AE
330
AD
330
AC
330
B7
330
B6
 75
     0
 76
     1
 98
        1
 10
0.0
 20
0.0
  0
HATCH
  5
1AA
330
34
100
AcDbEntity
  8
1
  6
Continuous
 62
     2
100
AcDbHatch
 10
0.0
 20
0.0
 30
0.0
210
0.0
220
0.0
230
1.0
  2
SOLID
 70
     1
 71
     1
 91
        1
 92
        1
 93
       12
 72
     1
 10
84.93767478234076
 20
-197.1735296080587
 11
84.93767478234076
 21
-196.369064096345
 72
     1
 10
84.93767478234076
 20
-196.369064096345
 11
84.77784479150432
 21
-196.369064096345
 72
     1
 10
84.77784479150432
 20
-196.369064096345
 11
84.77784479150432
 21
-198.173106071733
 72
     1
 10
84.77784479150432
 20
-198.173106071733
 11
84.93767478234076
 21
-198.173106071733
 72
     1
 10
84.93767478234076
 20
-198.173106071733
 11
84.93767478234076
 21
-197.3171348029464
 72
     1
 10
84.93767478234076
 20
-197.3171348029464
 11
85.80985098111705
 21
-197.3171348029464
 72
     1
 10
85.80985098111705
 20
-197.3171348029464
 11
85.80985098111705
 21
-198.1730653938585
 72
     1
 10
85.80985098111705
 20
-198.1730653938585
 11
85.96968191793712
 21
-198.1730653938585
 72
     1
 10
85.96968191793712
 20
-198.1730653938585
 11
85.96968191793712
 21
-196.369064096345
 72
     1
 10
85.96968191793712
 20
-196.369064096345
 11
85.80985098111705
 21
-196.369064096345
 72
     1
 10
85.80985098111705
 20
-196.369064096345
 11
85.80985098111705
 21
-197.1735296080587
 72
     1
 10
85.80985098111705
 20
-197.1735296080587
 11
84.93767478234076
 21
-197.1735296080587
 97
       12
330
BC
330
BB
330
BA
330
B9
330
B8
330
C3
330
C2
330
C1
330
C0
330
BF
330
BE
330
BD
 75
     0
 76
     1
 98
        1
 10
0.0
 20
0.0
  0
HATCH
  5
1AB
330
34
100
AcDbEntity
  8
1
  6
Continuous
 62
     2
100
AcDbHatch
 10
0.0
 20
0.0
 30
0.0
210
0.0
220
0.0
230
1.0
  2
SOLID
 70
     1
 71
     1
 91
        1
 92
        1
 93
       10
 72
     1
 10
86.63601861185452
 20
-196.369064096345
 11
86.40306210068229
 21
-196.369064096345
 72
     1
 10
86.40306210068229
 20
-196.369064096345
 11
86.40306210068229
 21
-198.1730653938585
 72
     1
 10
86.40306210068229
 20
-198.1730653938585
 11
86.55476976056525
 21
-198.1730653938585
 72
     1
 10
86.55476976056525
 20
-198.1730653938585
 11
86.55476976056525
 21
-196.5262276285475
 72
     1
 10
86.55476976056525
 20
-196.5262276285475
 11
87.41080285122007
 21
-198.173106071733
 72
     1
 10
87.41080285122007
 20
-198.173106071733
 11
87.64367672859225
 21
-198.173106071733
 72
     1
 10
87.64367672859225
 20
-198.173106071733
 11
87.64367672859225
 21
-196.369064096345
 72
     1
 10
87.64367672859225
 20
-196.369064096345
 11
87.4920097465947
 21
-196.369064096345
 72
     1
 10
87.4920097465947
 20
-196.369064096345
 11
87.4920097465947
 21
-198.018630424388
 72
     1
 10
87.4920097465947
 20
-198.018630424388
 11
86.63601861185452
 21
-196.369064096345
 97
       10
330
C4
330
CB
330
CA
330
C5
330
CD
330
C7
330
C6
330
C8
330
C9
330
CC
 75
     0
 76
     1
 98
        1
 10
0.0
 20
0.0
  0
HATCH
  5
1AC
330
34
100
AcDbEntity
  8
1
  6
Continuous
 62
     2
100
AcDbHatch
 10
0.0
 20
0.0
 30
0.0
210
0.0
220
0.0
230
1.0
  2
SOLID
 70
     1
 71
     1
 91
        1
 92
        1
 93
        4
 72
     1
 10
88.09057520963688
 20
-196.369064096345
 11
88.09057520963688
 21
-198.173106071733
 72
     1
 10
88.09057520963688
 20
-198.173106071733
 11
88.25042601239693
 21
-198.173106071733
 72
     1
 10
88.25042601239693
 20
-198.173106071733
 11
88.25042601239693
 21
-196.369064096345
 72
     1
 10
88.25042601239693
 20
-196.369064096345
 11
88.09057520963688
 21
-196.369064096345
 97
        4
330
D0
330
CE
330
D1
330
CF
 75
     0
 76
     1
 98
        1
 10
0.0
 20
0.0
  0
HATCH
  5
1AD
330
34
100
AcDbEntity
  8
1
  6
Continuous
 62
     2
100
AcDbHatch
 10
0.0
 20
0.0
 30
0.0
210
0.0
220
0.0
230
1.0
  2
SOLID
 70
     1
 71
     1
 91
        1
 92
        1
 93
        4
 72
     1
 10
88.69728286955069
 20
-196.369064096345
 11
88.69728286955069
 21
-198.173106071733
 72
     1
 10
88.69728286955069
 20
-198.173106071733
 11
88.85713367232529
 21
-198.173106071733
 72
     1
 10
88.85713367232529
 20
-198.173106071733
 11
88.85713367232529
 21
-196.369064096345
 72
     1
 10
88.85713367232529
 20
-196.369064096345
 11
88.69728286955069
 21
-196.369064096345
 97
        4
330
D4
330
D3
330
D5
330
D2
 75
     0
 76
     1
 98
        1
 10
0.0
 20
0.0
  0
HATCH
  5
1AE
330
34
100
AcDbEntity
  8
1
  6
Continuous
 62
     2
100
AcDbHatch
 10
0.0
 20
0.0
 30
0.0
210
0.0
220
0.0
230
1.0
  2
SOLID
 70
     1
 71
     1
 91
        1
 92
        1
 93
       13
 72
     1
 10
81.01846090560139
 20
-191.7165965301529
 11
80.20019235045038
 21
-193.8850867189867
 72
     1
 10
80.20019235045038
 20
-193.8850867189867
 11
79.38184243960131
 21
-191.7165965301529
 72
     1
 10
79.38184243960131
 20
-191.7165965301529
 11
78.61461231898284
 21
-191.7165965301529
 72
     1
 10
78.61461231898284
 20
-191.7165965301529
 11
78.47139403691108
 21
-195.1227905138885
 72
     1
 10
78.47139403691108
 20
-195.1227905138885
 11
79.21303493647429
 21
-195.1227905138885
 72
     1
 10
79.21303493647429
 20
-195.1227905138885
 11
79.26423513647023
 21
-193.2304766048737
 72
     1
 10
79.26423513647023
 20
-193.2304766048737
 11
79.85750679986086
 21
-194.6829359271187
 72
     1
 10
79.85750679986086
 20
-194.6829359271187
 11
80.54287790107628
 21
-194.6829359271187
 72
     1
 10
80.54287790107628
 20
-194.6829359271187
 11
81.13617037638323
 21
-193.2304766048737
 72
     1
 10
81.13617037638323
 20
-193.2304766048737
 11
81.18728922064474
 21
-195.1227905138885
 72
     1
 10
81.18728922064474
 20
-195.1227905138885
 11
81.92895093215338
 21
-195.1227905138885
 72
     1
 10
81.92895093215338
 20
-195.1227905138885
 11
81.78573265006708
 21
-191.7165965301529
 72
     1
 10
81.78573265006708
 20
-191.7165965301529
 11
81.01846090560139
 21
-191.7165965301529
 97
       13
330
52
330
DC
330
69
330
60
330
68
330
67
330
66
330
65
330
64
330
63
330
62
330
61
330
53
 75
     0
 76
     1
 98
        1
 10
0.0
 20
0.0
  0
HATCH
  5
1AF
330
34
100
AcDbEntity
  8
1
  6
Continuous
 62
     2
100
AcDbHatch
 10
0.0
 20
0.0
 30
0.0
210
0.0
220
0.0
230
1.0
  2
SOLID
 70
     1
 71
     1
 91
        1
 92
        1
 93
        4
 72
     1
 10
77.1673030048405
 20
-191.7165965301529
 11
77.1673030048405
 21
-195.1227905138885
 72
     1
 10
77.1673030048405
 20
-195.1227905138885
 11
77.93445271569362
 21
-195.1227905138885
 72
     1
 10
77.93445271569362
 20
-195.1227905138885
 11
77.93445271569362
 21
-191.7165965301529
 72
     1
 10
77.93445271569362
 20
-191.7165965301529
 11
77.1673030048405
 21
-191.7165965301529
 97
        4
330
DF
330
48
330
49
330
DE
 75
     0
 76
     1
 98
        1
 10
0.0
 20
0.0
  0
HATCH
  5
1B0
330
34
100
AcDbEntity
  8
1
  6
Continuous
 62
     2
100
AcDbHatch
 10
0.0
 20
0.0
 30
0.0
210
0.0
220
0.0
230
1.0
  2
SOLID
 70
     1
 71
     1
 91
        1
 92
        1
 93
        1
 72
     4
 94
        3
 73
     0
 74
     0
 95
       99
 96
       95
 40
0.0
 40
0.0
 40
0.0
 40
0.0
 40
0.2058865780147674
 40
0.3802558940280119
 40
0.5295924281102353
 40
0.6639497481639882
 40
0.7981974139382951
 40
0.9497668026613064
 40
1.134316501007217
 40
1.364156598964878
 40
1.649145981489625
 40
1.854658565367975
 40
2.005118304764461
 40
2.112155837278237
 40
2.191303161446584
 40
2.265236695307815
 40
2.356357153045448
 40
2.478213504442029
 40
2.607364319186762
 40
2.704600041413758
 40
2.798194798014053
 40
2.92215871544079
 40
3.097569675892025
 40
3.320278193146803
 40
3.54076071202955
 40
3.777817256889274
 40
4.049964076873878
 40
4.077851712666452
 40
4.151373661574286
 40
4.255318485892202
 40
4.374474747915185
 40
4.493631009938168
 40
4.597575834256084
 40
4.671097783163891
 40
4.698985418956492
 40
5.074893807981978
 40
5.424148807298436
 40
5.739911003193852
 40
6.026947052101507
 40
6.268079625838931
 40
6.470402581445178
 40
6.643379948261166
 40
6.799454196879422
 40
6.953060992112266
 40
7.117582259697459
 40
7.302801600080852
 40
7.514778803621027
 40
7.73994701753424
 40
7.928433879635463
 40
8.087733113002997
 40
8.228542352422005
 40
8.36542348075378
 40
8.51454253908366
 40
8.689860884778332
 40
8.901809334336459
 40
9.15823761668872
 40
9.347768156407215
 40
9.493039108210622
 40
9.60179566794981
 40
9.683502780258287
 40
9.751054056304639
 40
9.819893170325702
 40
9.902273957924473
 40
10.0053477754882
 40
10.13191876994673
 40
10.23076108064033
 40
10.31667665043294
 40
10.41307294214304
 40
10.54070016440417
 40
10.71247660285187
 40
11.05520966766501
 40
11.38523983025182
 40
11.71146710544388
 40
11.73754500712034
 40
11.80629583881281
 40
11.90349529051601
 40
12.01491905222447
 40
12.12634281393296
 40
12.22354226563613
 40
12.2922930973286
 40
12.31837099900506
 40
12.57432624621825
 40
12.855057723277
 40
13.14962999357013
 40
13.44700399602038
 40
13.7608018282782
 40
14.02197667869467
 40
14.2393123470933
 40
14.42395217001398
 40
14.58972154951988
 40
14.75169157294848
 40
14.9229619773092
 40
15.11242230479246
 40
15.32497318704246
 40
15.32497318704246
 40
15.32497318704246
 40
15.32497318704246
 10
76.70698888514016
 20
-194.1664136995778
 10
76.70677267144922
 20
-194.0977800730599
 10
76.70637334221107
 20
-193.9710193037879
 10
76.6953970180836
 20
-193.7946373667631
 10
76.66735543939096
 20
-193.6438728347432
 10
76.61261273381524
 20
-193.5140656793235
 10
76.52236362069861
 20
-193.4044214770852
 10
76.39304072637611
 20
-193.3133828179578
 10
76.22089950669759
 20
-193.2347257272043
 10
75.99909282927011
 20
-193.1620565702276
 10
75.76626511462035
 20
-193.1030005035219
 10
75.5582237480954
 20
-193.0544540638523
 10
75.40916114374429
 20
-193.0140712332344
 10
75.30390940548781
 20
-192.9743605063731
 10
75.23230978302247
 20
-192.921019380368
 10
75.19739313646565
 20
-192.8445398074245
 10
75.18828696527828
 20
-192.7487981544003
 10
75.18720739305459
 20
-192.6348312440105
 10
75.19039551440517
 20
-192.5187335464071
 10
75.2280346942144
 20
-192.4139969119545
 10
75.31866461747683
 20
-192.3511475485825
 10
75.44915396673292
 20
-192.3279497409708
 10
75.6234586612607
 20
-192.3239485124107
 10
75.8276327610473
 20
-192.3266350605613
 10
76.06211143321728
 20
-192.356479441421
 10
76.26809142830004
 20
-192.3413105955882
 10
76.54962489494028
 20
-192.5108278511347
 10
76.55765297963822
 20
-192.3782607685197
 10
76.56728932334755
 20
-192.3123465174268
 10
76.57824089716493
 20
-192.2132141399242
 10
76.5920300432623
 20
-192.1002063052917
 10
76.60521946749171
 20
-191.9869981454993
 10
76.61759761375251
 20
-191.8883422861431
 10
76.62423485016916
 20
-191.8214262429192
 10
76.65107221382856
 20
-191.6575744252079
 10
76.21462222213671
 20
-191.7485001078216
 10
75.93690128516413
 20
-191.6643334061635
 10
75.60378662703185
 20
-191.6643557019373
 10
75.3259435375362
 20
-191.6700977059931
 10
75.08296140117508
 20
-191.6998686659124
 10
74.88343782584266
 20
-191.7517790665376
 10
74.72238750275754
 20
-191.8291221341398
 10
74.59821651131236
 20
-191.9346099640873
 10
74.51018389559674
 20
-192.068240905379
 10
74.45462527213078
 20
-192.2278818167672
 10
74.42532205738448
 20
-192.4135144239179
 10
74.41892757466704
 20
-192.6211299159258
 10
74.42312770803284
 20
-192.829680213258
 10
74.43993216869016
 20
-193.0202091758844
 10
74.47597718790071
 20
-193.1798255574767
 10
74.53805119661266
 20
-193.313302001568
 10
74.63247675270388
 20
-193.4221913706763
 10
74.76103745606058
 20
-193.5089419195071
 10
74.92574039394671
 20
-193.5800271895145
 10
75.13130022552676
 20
-193.642476656275
 10
75.34519907535686
 20
-193.6911394357321
 10
75.53757117032963
 20
-193.7338745034421
 10
75.68057922448428
 20
-193.7718240145457
 10
75.78608554586599
 20
-193.8096562971467
 10
75.86149032702264
 20
-193.8530259841917
 10
75.90979197058286
 20
-193.9097605631416
 10
75.93251645921922
 20
-193.9804204107779
 10
75.93957359224814
 20
-194.0650753568455
 10
75.94047456459809
 20
-194.1690992178364
 10
75.93739588651403
 20
-194.2785930422888
 10
75.91344144206009
 20
-194.3813845680738
 10
75.85414409990561
 20
-194.458529416196
 10
75.75733097221189
 20
-194.502067834902
 10
75.62624443345516
 20
-194.5215220832831
 10
75.41347104593214
 20
-194.52980863473
 10
75.1204727640667
 20
-194.4933736504548
 10
74.83716797765601
 20
-194.511643553345
 10
74.50388902137229
 20
-194.2553888201345
 10
74.47944992288932
 20
-194.4012096673867
 10
74.46497239135492
 20
-194.4621319757156
 10
74.4459634780459
 20
-194.5532744999844
 10
74.42324489146029
 20
-194.6573431152575
 10
74.40109491471091
 20
-194.7615459854189
 10
74.38073343587651
 20
-194.8523691544426
 10
74.36909942564355
 20
-194.9139628486857
 10
74.33638521941114
 20
-195.0325300852584
 10
74.64931339939919
 20
-195.0295920183956
 10
74.86158222798598
 20
-195.1255590274678
 10
75.16604892990503
 20
-195.1616079811659
 10
75.46346746752917
 20
-195.1788588683157
 10
75.7556506677435
 20
-195.1673954647569
 10
76.01780869872107
 20
-195.1332114953251
 10
76.23166456679337
 20
-195.0730504680669
 10
76.40155339919667
 20
-194.9859671448566
 10
76.53011336996698
 20
-194.8702730450429
 10
76.61935737451525
 20
-194.7275852603982
 10
76.67433683330185
 20
-194.5610243674836
 10
76.70311517379659
 20
-194.3713793546422
 10
76.70564913318606
 20
-194.2373025997933
 10
76.70698888514016
 20
-194.1664136995778
 97
        1
330
11E
 75
     0
 76
     1
 98
        1
 10
0.0
 20
0.0
  0
HATCH
  5
1B1
330
34
100
AcDbEntity
  8
1
  6
Continuous
 62
     2
100
AcDbHatch
 10
0.0
 20
0.0
 30
0.0
210
0.0
220
0.0
230
1.0
  2
SOLID
 70
     1
 71
     1
 91
        2
 92
        1
 93
        1
 72
     4
 94
        3
 73
     0
 74
     0
 95
       21
 96
       17
 40
0.0
 40
0.0
 40
0.0
 40
0.0
 40
0.775404439407058
 40
1.847167968754805
 40
2.918946034233409
 40
3.694344582237207
 40
4.062970101028625
 40
4.747560350212623
 40
5.116185869004013
 40
5.891546854204427
 40
6.96333114876871
 40
8.035100907286623
 40
8.810467784175705
 40
9.179093302967095
 40
9.863683552151121
 40
10.23230907094251
 40
10.23230907094251
 40
10.23230907094251
 40
10.23230907094251
 10
85.00273920338077
 20
-192.7087831029248
 10
84.93418229273024
 20
-192.4408502559481
 10
84.77086606321879
 20
-191.8025807960893
 10
83.67404716719989
 20
-191.5871080113619
 10
82.62692760213383
 20
-191.7986232183202
 10
82.33869565468855
 20
-192.5767804755739
 10
82.3716360323787
 20
-193.1812109371257
 10
82.37156257151833
 20
-193.6582034473397
 10
82.33886995961346
 20
-194.2625931721185
 10
82.62517282676522
 20
-195.0409858324373
 10
83.68327987221453
 20
-195.2510195450043
 10
84.74079649361511
 20
-195.0409321369389
 10
85.02818920442995
 20
-194.2626935374053
 10
84.9932418677569
 20
-193.6579876296842
 10
85.00418445010614
 20
-193.1825307996208
 10
85.00311389697623
 20
-192.831606579846
 10
85.00273920338077
 20
-192.7087831029248
 97
        1
330
120
 92
       16
 93
        1
 72
     4
 94
        3
 73
     0
 74
     0
 95
       21
 96
       17
 40
0.0
 40
0.0
 40
0.0
 40
0.0
 40
0.341255245342811
 40
0.7767617679045002
 40
1.212268290469706
 40
1.553523535813901
 40
1.887662654731578
 40
2.508206732721539
 40
2.842345851639215
 40
3.18360109705941
 40
3.619107619627822
 40
4.054614142192732
 40
4.39586938761149
 40
4.730008506529138
 40
5.350552584519128
 40
5.684691703436804
 40
5.684691703436804
 40
5.684691703436804
 40
5.684691703436804
 10
84.23554912682448
 20
-194.0641149042695
 10
84.2059922730152
 20
-194.1842663955821
 10
84.13871525872186
 20
-194.4577540154266
 10
83.68059502055236
 20
-194.5133865305873
 10
83.23684547565622
 20
-194.459583050698
 10
83.10682084141266
 20
-194.061157168302
 10
83.14165137395024
 20
-193.6377797376022
 10
83.1415743600696
 20
-193.2016159101058
 10
83.10694636057761
 20
-192.7782765363028
 10
83.23630857739953
 20
-192.3797085336077
 10
83.68322212680033
 20
-192.3265896894647
 10
84.12988083605504
 20
-192.3797406410351
 10
84.25984256526222
 20
-192.7781806331343
 10
84.22260644507865
 20
-193.2020976394729
 10
84.23751866535103
 20
-193.6349339159449
 10
84.23605974792395
 20
-193.9528457591483
 10
84.23554912682448
 20
-194.0641149042695
 97
        1
330
11F
 75
     0
 76
     1
 98
        1
 10
0.0
 20
0.0
  0
HATCH
  5
1B2
330
34
100
AcDbEntity
  8
1
  6
Continuous
 62
     2
100
AcDbHatch
 10
0.0
 20
0.0
 30
0.0
210
0.0
220
0.0
230
1.0
  2
SOLID
 70
     1
 71
     1
 91
        1
 92
        1
 93
        1
 72
     4
 94
        3
 73
     0
 74
     0
 95
      100
 96
       96
 40
0.0
 40
0.0
 40
0.0
 40
0.0
 40
0.186799517489239
 40
0.3476296850620643
 40
0.4869324351435724
 40
0.6112224347066285
 40
0.7301389440907944
 40
0.855998185451919
 40
1.00129609649321
 40
1.176591637421221
 40
1.390310174631775
 40
1.649435668550086
 40
1.854960965008749
 40
2.005426185475224
 40
2.112464178547605
 40
2.191609553932874
 40
2.265540883322664
 40
2.35665815458218
 40
2.478508054744324
 40
2.607650889826954
 40
2.704883281831998
 40
2.798472513061099
 40
2.922426590498449
 40
3.097825602678758
 40
3.320545631082183
 40
3.541031983084713
 40
3.778083321099171
 40
4.050213732335607
 40
4.078098969102668
 40
4.151614593306713
 40
4.25555047580212
 40
4.374696487443178
 40
4.493842499084237
 40
4.597778381579643
 40
4.671294005783717
 40
4.69917924255075
 40
5.075100995887318
 40
5.42435599520987
 40
5.740104627403075
 40
6.027141324267032
 40
6.268275265149717
 40
6.470599391733564
 40
6.643576762308461
 40
6.799649158021642
 40
6.953252401170636
 40
7.117769507451309
 40
7.302985472787397
 40
7.514961312823157
 40
7.740135613518293
 40
7.928627384867274
 40
8.08793070466593
 40
8.228743612216544
 40
8.365628433716838
 40
8.514751623757954
 40
8.690074879970668
 40
8.902029307551317
 40
9.158464906469039
 40
9.34799726448215
 40
9.49326594744634
 40
9.602017205947917
 40
9.683717463645234
 40
9.751262642785711
 40
9.820098395033673
 40
9.902478136999656
 40
10.00555184603492
 40
10.13213845283847
 40
10.23098801874642
 40
10.31690411123261
 40
10.41329669627945
 40
10.54091781656118
 40
10.71268563162491
 40
11.05541935737166
 40
11.38546625508887
 40
11.71168673955345
 40
11.73776274674536
 40
11.80650858388762
 40
11.90370097433016
 40
12.0151166414228
 40
12.12653230851543
 40
12.22372469895797
 40
12.29247053610026
 40
12.31854654329214
 40
12.57450149804837
 40
12.85523082020362
 40
13.14979711690446
 40
13.44715936644981
 40
13.76095789740455
 40
14.02213462765628
 40
14.23947304388131
 40
14.42411618739816
 40
14.58988921184229
 40
14.75186310253242
 40
14.92313774472978
 40
15.11260302890605
 40
15.32515999509529
 40
15.32515999509529
 40
15.32515999509529
 40
15.32515999509529
 10
90.98682174751593
 20
-194.1663933416257
 10
90.98663359548401
 20
-194.1041238179939
 10
90.98628344880015
 20
-193.9882416402452
 10
90.97781050428853
 20
-193.8260302994501
 10
90.95679359240498
 20
-193.6857534108861
 10
90.91690758606612
 20
-193.5637131455619
 10
90.85138980593261
 20
-193.4579880525501
 10
90.75581776908754
 20
-193.3679629032357
 10
90.62774074573636
 20
-193.2906830060484
 10
90.46318800750538
 20
-193.2215644559643
 10
90.25700949050426
 20
-193.1564013877472
 10
90.03769916760962
 20
-193.1010465815715
 10
89.8380459702766
 20
-193.0544530857255
 10
89.68897760970839
 20
-193.0140689396489
 10
89.58372532879648
 20
-192.9743551946393
 10
89.51212935834674
 20
-192.921010684453
 10
89.47721978901909
 20
-192.8445306364326
 10
89.46811884310891
 20
-192.7487928129955
 10
89.46704062505707
 20
-192.6348316976523
 10
89.47022807284088
 20
-192.5187401593717
 10
89.50785912667924
 20
-192.4140078014994
 10
89.59847731935426
 20
-192.351153189118
 10
89.7289574403744
 20
-192.3279505268479
 10
89.9032585561901
 20
-192.3239476299314
 10
90.10743377334597
 20
-192.3266374839273
 10
90.34191554019694
 20
-192.3564826095342
 10
90.54789305092453
 20
-192.3413092831251
 10
90.82941080476797
 20
-192.5107802461878
 10
90.83744800454154
 20
-192.3782244135878
 10
90.84708837613888
 20
-192.3123161385263
 10
90.85804627873388
 20
-192.2131932806457
 10
90.8718425320277
 20
-192.1001961174153
 10
90.88503915410055
 20
-191.9869986804419
 10
90.89742341351482
 20
-191.8883522184011
 10
90.90406513112967
 20
-191.8214424083359
 10
90.93091401393602
 20
-191.657591031272
 10
90.4944416168474
 20
-191.7485218916354
 10
90.21672525186898
 20
-191.6643546218017
 10
89.8836146160186
 20
-191.6643761506784
 10
89.6057755836539
 20
-191.670117422052
 10
89.36279198947656
 20
-191.6998845850096
 10
89.16326624344389
 20
-191.7517893901888
 10
89.00221296569188
 20
-191.8291254030344
 10
88.87803810321009
 20
-191.9346058595016
 10
88.79000150150905
 20
-192.0682305354426
 10
88.73443988545594
 20
-192.2278666645101
 10
88.70513483204648
 20
-192.4134960788687
 10
88.6987399605187
 20
-192.6211120500004
 10
88.70294024127185
 20
-192.8296655472737
 10
88.71974479923063
 20
-193.0201995466587
 10
88.75579031825998
 20
-193.179820155408
 10
88.81786538178078
 20
-193.3133003304987
 10
88.9122927282268
 20
-193.4221932496794
 10
89.04085610539782
 20
-193.5089473610339
 10
89.20556261185533
 20
-193.5800371848462
 10
89.41112774001256
 20
-193.6424895066943
 10
89.62502865434189
 20
-193.6911660873735
 10
89.81740757685861
 20
-193.7338810478587
 10
89.96041622559731
 20
-193.7718211908856
 10
90.06592022541307
 20
-193.8096456038396
 10
90.1413212697164
 20
-193.8530104142073
 10
90.18961700475627
 20
-193.9097434221818
 10
90.21233440027501
 20
-193.98040184662
 10
90.21938696912756
 20
-194.0650554177211
 10
90.22028666966374
 20
-194.169084115218
 10
90.21720857119038
 20
-194.2785854493345
 10
90.19325580747453
 20
-194.381385211677
 10
90.13396079364102
 20
-194.4585339643333
 10
90.03715016053788
 20
-194.5020714370023
 10
89.90606949032588
 20
-194.5215227758607
 10
89.6933008190648
 20
-194.5298081134118
 10
89.40029885913637
 20
-194.4933727665919
 10
89.1169942597619
 20
-194.5116539487574
 10
88.78369944832068
 20
-194.2554318601425
 10
88.75926373623922
 20
-194.4012474688017
 10
88.74478841596707
 20
-194.4621658040834
 10
88.72578256968939
 20
-194.5533019767266
 10
88.70306758233292
 20
-194.6573634799551
 10
88.68092113510384
 20
-194.7615591993184
 10
88.66056288911888
 20
-194.8523761089001
 10
88.64893074154602
 20
-194.9139656362973
 10
88.61621998191008
 20
-195.0325306581952
 10
88.9291446372271
 20
-195.0295915860366
 10
89.14141172832105
 20
-195.1255585785942
 10
89.44587105806939
 20
-195.1616077875531
 10
89.74328414491502
 20
-195.1788589962487
 10
90.03546426527022
 20
-195.1673953528235
 10
90.29762405763285
 20
-195.1332112428984
 10
90.51148252385025
 20
-195.0730496561625
 10
90.68137446793614
 20
-194.9859653341703
 10
90.8099378215974
 20
-194.8702696039668
 10
90.89918516664585
 20
-194.727579255453
 10
90.95416741358311
 20
-194.5610146501323
 10
90.98294768482847
 20
-194.371364717419
 10
90.9854818730303
 20
-194.2372842741868
 10
90.98682174751593
 20
-194.1663933416257
 97
        1
330
121
 75
     0
 76
     1
 98
        1
 10
0.0
 20
0.0
  0
HATCH
  5
1B3
330
34
100
AcDbEntity
  8
1
  6
Continuous
 62
     2
100
AcDbHatch
 10
0.0
 20
0.0
 30
0.0
210
0.0
220
0.0
230
1.0
  2
SOLID
 70
     1
 71
     1
 91
        2
 92
        1
 93
        1
 72
     4
 94
        3
 73
     0
 74
     0
 95
       36
 96
       32
 40
0.0
 40
0.0
 40
0.0
 40
0.0
 40
0.2360423575133836
 40
0.6744067357525267
 40
0.9104490932658962
 40
1.280549595046236
 40
1.967879098352551
 40
2.337979600132892
 40
2.833164458054473
 40
3.378972243102605
 40
3.588679684157493
 40
3.79838712521241
 40
4.565745079499038
 40
5.477334255196363
 40
5.844619163523328
 40
6.526719707559119
 40
6.894004615886098
 40
7.426222369203339
 40
8.597101426501206
 40
9.767980483799102
 40
10.30019823711631
 40
10.6837830917459
 40
11.06736794637549
 40
11.34183936547739
 40
11.85157200095233
 40
12.1260434200542
 40
12.35106005474722
 40
12.57607668944025
 40
12.91272952801094
 40
13.53794194249943
 40
13.87459478107012
 40
13.87459478107012
 40
13.87459478107012
 40
13.87459478107012
 10
100.9498083138169
 20
-195.1227903779482
 10
101.0302167493041
 20
-195.1236769046642
 10
101.2599551364105
 20
-195.1262098381387
 10
101.5129837461047
 20
-195.1003196395544
 10
102.0048955270781
 20
-195.1740798173875
 10
101.4671527316189
 20
-194.6768980208548
 10
101.3995256685413
 20
-194.3667690549209
 10
100.8594030302804
 20
-193.8946366781157
 10
101.5613886867241
 20
-193.6801328192713
 10
101.5309632272774
 20
-193.2104004905525
 10
101.532041743099
 20
-192.8930220586817
 10
101.5421745401086
 20
-192.5014199187485
 10
101.3655542405012
 20
-191.7843910999085
 10
100.5719929929828
 20
-191.7135042144829
 10
99.92156177250862
 20
-191.7118092748871
 10
99.496933623458
 20
-191.7603460784045
 10
98.82815751078472
 20
-191.6199917036731
 10
99.09585621117263
 20
-192.5678657114454
 10
98.90458509582845
 20
-193.4230365391642
 10
99.08698906487955
 20
-194.2617964142579
 10
98.83883818377419
 20
-195.2398804468137
 10
99.35456142655518
 20
-195.0643501903358
 10
99.82081688126006
 20
-195.2410317665699
 10
99.70748296265592
 20
-194.7248956560096
 10
99.79824297465692
 20
-194.4712572156575
 10
99.6699040784771
 20
-193.9970364615414
 10
99.98252146653341
 20
-194.0904506528629
 10
100.2546270478945
 20
-194.007736123523
 10
100.4267651630709
 20
-194.4706945038576
 10
100.7024882538565
 20
-194.76172867458
 10
100.8856882982716
 20
-195.0291817881861
 10
100.9498083138169
 20
-195.1227903779482
 97
        1
330
123
 92
       16
 93
        1
 72
     4
 94
        3
 73
     0
 74
     0
 95
       23
 96
       19
 40
0.0
 40
0.0
 40
0.0
 40
0.0
 40
0.2941947040899761
 40
0.633873150145083
 40
0.7916639994090439
 40
1.084704148042083
 40
1.242494997306044
 40
1.399124123048784
 40
1.743708199682748
 40
2.088292276316741
 40
2.244921402059452
 40
2.402712251323412
 40
2.695752399956466
 40
2.853543249220413
 40
3.18571527156996
 40
3.474271395534962
 40
3.609774038673769
 40
3.745276681812576
 40
3.745276681812576
 40
3.745276681812576
 40
3.745276681812576
 10
100.7656908317731
 20
-193.0258584736357
 10
100.7551453617469
 20
-193.1352599898236
 10
100.7324240475547
 20
-193.3709769579832
 10
100.4127979467996
 20
-193.4008064434713
 10
100.1520320849076
 20
-193.4017698203717
 10
99.97394497229692
 20
-193.3760435600232
 10
99.70465145048414
 20
-193.4424588966375
 10
99.77649601033391
 20
-193.1534736330916
 10
99.72819458217306
 20
-192.8979866304048
 10
99.77650024180625
 20
-192.6425165078093
 10
99.70464459219136
 20
-192.3535061356226
 10
99.97398113421119
 20
-192.4200155867055
 10
100.1518183873408
 20
-192.3937438362911
 10
100.4108933603659
 20
-192.3964121857964
 10
100.7190480531762
 20
-192.4137566147967
 10
100.770708852836
 20
-192.7079237513279
 10
100.7648377953071
 20
-192.8896608261333
 10
100.7654064862844
 20
-192.9804592578016
 10
100.7656908317731
 20
-193.0258584736357
 97
        1
330
122
 75
     0
 76
     1
 98
        1
 10
0.0
 20
0.0
  0
HATCH
  5
1B4
330
34
100
AcDbEntity
  8
1
  6
Continuous
 62
     2
100
AcDbHatch
 10
0.0
 20
0.0
 30
0.0
210
0.0
220
0.0
230
1.0
  2
SOLID
 70
     1
 71
     1
 91
        3
 92
        1
 93
        1
 72
     4
 94
        3
 73
     0
 74
     0
 95
       32
 96
       28
 40
0.0
 40
0.0
 40
0.0
 40
0.0
 40
0.3082471590677967
 40
0.6106913951277291
 40
0.7285233210320128
 40
0.8463552469363249
 40
1.095069087588683
 40
1.30459878987498
 40
1.498512538050599
 40
1.684645779952423
 40
1.79299089218917
 40
1.901336004425918
 40
2.187078671019255
 40
2.485446103334285
 40
2.591259829336282
 40
2.824050026540677
 40
3.056840223745072
 40
3.162653949747069
 40
3.350274297065285
 40
3.797676663747298
 40
4.331673036883759
 40
4.779075403565715
 40
4.966695750883959
 40
5.077163180930087
 40
5.32019152703157
 40
5.563219873133052
 40
5.673687303179181
 40
5.673687303179181
 40
5.673687303179181
 40
5.673687303179181
 10
75.09968649973598
 20
-198.1731063392617
 10
75.20963083077874
 20
-198.1597569104152
 10
75.42744973011243
 20
-198.1333093630929
 10
75.5222394135003
 20
-197.8643027610109
 10
75.51282720119598
 20
-197.686703525531
 10
75.51509894904132
 20
-197.5279258772786
 10
75.51246153766232
 20
-197.3113402009183
 10
75.13894359092626
 20
-197.2420576634981
 10
75.45897215989852
 20
-197.1400866770878
 10
75.45742796671428
 20
-196.9651366357662
 10
75.456400343952
 20
-196.8322146042991
 10
75.46303479894787
 20
-196.6667433739876
 10
75.39224486650718
 20
-196.4093168296878
 10
75.13146951860199
 20
-196.3654455137785
 10
74.92313992494142
 20
-196.3708173538594
 10
74.72623357128079
 20
-196.3638516920174
 10
74.55419323269143
 20
-196.3824763656118
 10
74.33836611608183
 20
-196.3419219819123
 10
74.43790242268443
 20
-196.6894083499841
 10
74.37766868943233
 20
-197.0084182471274
 10
74.37805614823345
 20
-197.533515219711
 10
74.43717605643073
 20
-197.8534803084531
 10
74.33860745264104
 20
-198.2015590329282
 10
74.56164506895291
 20
-198.1587688773318
 10
74.74110266166164
 20
-198.1782092579668
 10
74.94553801291976
 20
-198.1725989467767
 10
75.06298447906546
 20
-198.1729855315272
 10
75.09968649973598
 20
-198.1731063392617
 97
        1
330
124
 92
       16
 93
        1
 72
     4
 94
        3
 73
     0
 74
     0
 95
       23
 96
       19
 40
0.0
 40
0.0
 40
0.0
 40
0.0
 40
0.178722020060614
 40
0.3779063679093932
 40
0.5204649326526047
 40
0.7852165528900097
 40
0.9277751176332212
 40
1.039088676249154
 40
1.283978505204179
 40
1.528868334159174
 40
1.640181892775108
 40
1.77080163904795
 40
2.013381167840397
 40
2.144000914113239
 40
2.381868872479937
 40
2.57920709483295
 40
2.694311052832885
 40
2.809415010832848
 40
2.809415010832848
 40
2.809415010832848
 40
2.809415010832848
 10
75.35434433529008
 20
-197.8046678121218
 10
75.34267225034654
 20
-197.8689923036916
 10
75.31799171447608
 20
-198.0050059575688
 10
75.11799818373962
 20
-198.03628655883
 10
74.91720756633082
 20
-198.0337620723311
 10
74.75934481047639
 20
-198.0089751303256
 10
74.52257293150039
 20
-198.0722775835669
 10
74.57048877435565
 20
-197.8598736062076
 10
74.53992715771258
 20
-197.6757220294607
 10
74.57131121933037
 20
-197.4930617122438
 10
74.52230183188415
 20
-197.2834362950379
 10
74.74125429527243
 20
-197.340383706683
 10
74.88634494660363
 20
-197.3180266508377
 10
75.0900603213796
 20
-197.3171239449041
 10
75.3038484475303
 20
-197.3473285547394
 10
75.36110818412124
 20
-197.5492295859592
 10
75.35304127079857
 20
-197.6891436601254
 10
75.35390998045958
 20
-197.7661597614563
 10
75.35434433529008
 20
-197.8046678121218
 97
        1
330
126
 92
       16
 93
        1
 72
     4
 94
        3
 73
     0
 74
     0
 95
       23
 96
       19
 40
0.0
 40
0.0
 40
0.0
 40
0.0
 40
0.1887351725512171
 40
0.4133655781003919
 40
0.5341524253945902
 40
0.7584708560837992
 40
0.8792577033779974
 40
0.9837895134972523
 40
1.21375949575967
 40
1.443729478022059
 40
1.548261288141314
 40
1.683098148903407
 40
1.933509461747301
 40
2.068346322509409
 40
2.245657684461606
 40
2.398588164696903
 40
2.513712480696639
 40
2.628836796696404
 40
2.628836796696404
 40
2.628836796696404
 40
2.628836796696404
 10
75.29742345445266
 20
-196.9324916945061
 10
75.2848446330324
 20
-196.9999155307421
 10
75.25729464477156
 20
-197.147586432073
 10
75.05058213175587
 20
-197.1821524506543
 10
74.86146531288358
 20
-197.1803040553363
 10
74.7268712641985
 20
-197.1601165690736
 10
74.52410679895095
 20
-197.2125312385707
 10
74.57030265383025
 20
-197.0161231187404
 10
74.5406696092108
 20
-196.8447970926691
 10
74.56933748095184
 20
-196.6717351378478
 10
74.52441538571172
 20
-196.4720214609541
 10
74.74823412973313
 20
-196.5321078762311
 10
74.89733556376342
 20
-196.5078869652837
 10
75.08392956324245
 20
-196.5073923682772
 10
75.260463944369
 20
-196.5270413608318
 10
75.3041366596251
 20
-196.6922101252902
 10
75.29594715640927
 20
-196.8168024049827
 10
75.29693135510486
 20
-196.8939285979983
 10
75.29742345445266
 20
-196.9324916945061
 97
        1
330
125
 75
     0
 76
     1
 98
        1
 10
0.0
 20
0.0
  0
HATCH
  5
1B5
330
34
100
AcDbEntity
  8
1
  6
Continuous
 62
     2
100
AcDbHatch
 10
0.0
 20
0.0
 30
0.0
210
0.0
220
0.0
230
1.0
  2
SOLID
 70
     1
 71
     1
 91
        2
 92
        1
 93
        1
 72
     4
 94
        3
 73
     0
 74
     0
 95
       22
 96
       18
 40
0.0
 40
0.0
 40
0.0
 40
0.0
 40
0.2818751695529613
 40
0.9020005425695672
 40
1.522125915586116
 40
1.804001085139106
 40
2.101970503091223
 40
2.399939921043341
 40
2.87139254739472
 40
3.270572232803801
 40
3.461582764086586
 40
3.816316607897534
 40
4.007327139180319
 40
4.406492228614263
 40
4.877949778623496
 40
5.175919196575614
 40
5.473888614527731
 40
5.473888614527731
 40
5.473888614527731
 40
5.473888614527731
 10
79.15456645169616
 20
-196.3690645381248
 10
79.15498495547914
 20
-196.4626036847126
 10
79.15632416758473
 20
-196.7619289537938
 10
79.13688885190264
 20
-197.2887739161301
 10
79.20423448066146
 20
-197.7286845954182
 10
79.07540779215911
 20
-198.257728902589
 10
79.47720443192019
 20
-198.1478269720295
 10
79.78903890167169
 20
-198.1950107365115
 10
80.25347509205571
 20
-198.1020897380255
 10
80.32016845373977
 20
-197.7045361715965
 10
80.31193508840063
 20
-197.3956968954997
 10
80.31180594062215
 20
-197.1463408607341
 10
80.32047237999899
 20
-196.8378850338803
 10
80.2506855713419
 20
-196.4372782229998
 10
79.79928220920728
 20
-196.3573739136507
 10
79.45435714597613
 20
-196.3714165913368
 10
79.25449668312281
 20
-196.3698485558621
 10
79.15456645169616
 20
-196.3690645381248
 97
        1
330
128
 92
       16
 93
        1
 72
     4
 94
        3
 73
     0
 74
     0
 95
       24
 96
       20
 40
0.0
 40
0.0
 40
0.0
 40
0.0
 40
0.1137723977167298
 40
0.32506399347632
 40
0.4388363911930355
 40
0.7669367403624034
 40
1.067197304156703
 40
1.262419673045879
 40
1.624975500982909
 40
1.820197869872085
 40
2.120443815392901
 40
2.448548561667288
 40
2.562320959383989
 40
2.773612555143608
 40
2.887384952860323
 40
3.124402609585765
 40
3.645841454381675
 40
4.167280299177612
 40
4.404297955903026
 40
4.404297955903026
 40
4.404297955903026
 40
4.404297955903026
 10
79.31439686819067
 20
-196.5126289371719
 10
79.35227783257832
 20
-196.5125923198974
 10
79.46050915940013
 20
-196.5124876991132
 10
79.6080486436514
 20
-196.513557072987
 10
79.82111039117332
 20
-196.5096044973441
 10
80.1147864942921
 20
-196.5488769101268
 10
80.1601019217684
 20
-196.8653237852869
 10
80.15186228220229
 20
-197.1426772591405
 10
80.15183009121552
 20
-197.3995156060861
 10
80.16016552473704
 20
-197.6767842987353
 10
80.11438755095321
 20
-197.9936657302647
 10
79.82225487560856
 20
-198.0314252692834
 10
79.60629010379313
 20
-198.0303719997871
 10
79.47140681497655
 20
-198.0187837439856
 10
79.24435944704862
 20
-198.0585096729883
 10
79.37078078618671
 20
-197.6413235901186
 10
79.29432898231138
 20
-197.2911567814632
 10
79.3163922545707
 20
-196.8424579264825
 10
79.31487196018593
 20
-196.5911596489125
 10
79.31439686819067
 20
-196.5126289371719
 97
        1
330
127
 75
     0
 76
     1
 98
        1
 10
0.0
 20
0.0
  0
HATCH
  5
1B6
330
34
100
AcDbEntity
  8
1
  6
Continuous
 62
     2
100
AcDbHatch
 10
0.0
 20
0.0
 30
0.0
210
0.0
220
0.0
230
1.0
  2
SOLID
 70
     1
 71
     1
 91
        1
 92
        1
 93
        1
 72
     4
 94
        3
 73
     0
 74
     0
 95
       35
 96
       31
 40
0.0
 40
0.0
 40
0.0
 40
0.0
 40
0.3140822601743259
 40
0.6734494531747418
 40
0.8721103095636359
 40
1.076234392500292
 40
1.145933087417543
 40
1.215631782334795
 40
1.436444562818384
 40
1.651341053944749
 40
2.133622726378803
 40
2.544074393160261
 40
2.671044502476124
 40
2.950378742971114
 40
3.229712983466047
 40
3.356683092781938
 40
3.76712035078955
 40
4.249406310385258
 40
4.464303041799734
 40
4.68512073804653
 40
4.754819432965162
 40
4.824518127883794
 40
5.028639645437299
 40
5.227299530697157
 40
5.586666723697998
 40
5.900748983871384
 40
6.026866603231074
 40
6.304325365822482
 40
6.581784128413862
 40
6.70790174777358
 40
6.70790174777358
 40
6.70790174777358
 40
6.70790174777358
 10
83.56707484844083
 20
-196.8674683407926
 10
83.58366080008767
 20
-196.7509777775731
 10
83.61922409506884
 20
-196.5012008367912
 10
83.98385042249788
 20
-196.4924030549849
 10
84.1983974698249
 20
-196.4673601067419
 10
84.43268354593843
 20
-196.5842464663431
 10
84.42471969432974
 20
-196.4507669753392
 10
84.46903564264746
 20
-196.3202109239637
 10
84.19351766555954
 20
-196.3679910956456
 10
83.94144430677109
 20
-196.3204237344871
 10
83.48755474401042
 20
-196.392629119365
 10
83.40201189585923
 20
-196.7727064712991
 10
83.40908839600051
 20
-197.0417346706848
 10
83.40597661260261
 20
-197.2710854903699
 10
83.40908866944065
 20
-197.5004360563696
 10
83.4020111985172
 20
-197.7694600866182
 10
83.48756432100329
 20
-198.1495255070452
 10
83.94144076154888
 20
-198.221744626069
 10
84.19352181274965
 20
-198.1741865527409
 10
84.4690332232199
 20
-198.2219158921804
 10
84.42472208899017
 20
-198.0913651408831
 10
84.43266744404363
 20
-197.957874130934
 10
84.19859515987932
 20
-198.0748904116337
 10
83.98291341262227
 20
-198.0490100926649
 10
83.62558508017483
 20
-198.0454157343614
 10
83.56195035393552
 20
-197.7336310139974
 10
83.56915204079274
 20
-197.4995339112837
 10
83.56633554438838
 20
-197.2705188675974
 10
83.56714835878692
 20
-197.0440852946295
 10
83.56709235090419
 20
-196.9095199964681
 10
83.56707484844083
 20
-196.8674683407926
 97
        1
330
129
 75
     0
 76
     1
 98
        1
 10
0.0
 20
0.0
  0
ENDBLK
  5
36
330
34
100
AcDbEntity
  8
0
100
AcDbBlockEnd
  0
BLOCK
  5
2C6
330
2BF
100
AcDbEntity
  8
0
100
AcDbBlockBegin
  2
*D2
 70
     1
 71
     0
 10
0.0
 20
0.0
 30
0.0
  3
*D2
  1

  0
LINE
  5
2C0
330
2BF
100
AcDbEntity
  8
1
  6
Continuous
 62
     2
100
AcDbLine
 10
-68.35733264471742
 20
-130.2566310837739
 30
0.0
 11
-99.85733264471742
 21
-130.2566310837739
 31
0.0
  0
LINE
  5
2C1
330
2BF
100
AcDbEntity
  8
1
  6
Continuous
 62
     2
100
AcDbLine
 10
-99.85733264471742
 20
-100.614648528989
 30
0.0
 11
-99.85733264471742
 21
-132.2566310837739
 31
0.0
  0
LINE
  5
2C2
330
2BF
100
AcDbEntity
  8
1
  6
Continuous
 62
     2
100
AcDbLine
 10
-68.35733264471742
 20
-100.614648528989
 30
0.0
 11
-68.35733264471742
 21
-132.2566310837739
 31
0.0
  0
SOLID
  5
2C3
330
2BF
100
AcDbEntity
  8
1
 62
     2
100
AcDbTrace
 10
-71.85733264471742
 20
-130.7174148253298
 30
0.0
 11
-71.85733264471742
 21
-129.795847342218
 31
0.0
 12
-68.35733264471742
 22
-130.2566310837739
 32
0.0
 13
-68.35733264471742
 23
-130.2566310837739
 33
0.0
  0
SOLID
  5
2C4
330
2BF
100
AcDbEntity
  8
1
 62
     2
100
AcDbTrace
 10
-96.35733264471742
 20
-129.795847342218
 30
0.0
 11
-96.35733264471742
 21
-130.7174148253298
 31
0.0
 12
-99.85733264471742
 22
-130.2566310837739
 32
0.0
 13
-99.85733264471742
 23
-130.2566310837739
 33
0.0
  0
MTEXT
  5
2C5
330
2BF
100
AcDbEntity
  8
1
 62
     2
100
AcDbMText
 10
-88.57767340609422
 20
-128.2566310837739
 30
0.0
 40
3.5
 41
0.0
 71
     7
 72
     1
  1
31.5
  7
CONVERTER_11
 11
0.9999999999970621
 21
2.424068405545307E-6
 31
0.0
 73
     1
 44
0.60024009603842
  0
ENDBLK
  5
2C7
330
2BF
100
AcDbEntity
  8
0
100
AcDbBlockEnd
  0
BLOCK
  5
2D3
330
2CA
100
AcDbEntity
  8
0
100
AcDbBlockBegin
  2
*D3
 70
     1
 71
     0
 10
0.0
 20
0.0
 30
0.0
  3
*D3
  1

  0
LINE
  5
2CB
330
2CA
100
AcDbEntity
  8
1
  6
Continuous
 62
     2
100
AcDbLine
 10
-23.17515141969547
 20
-101.1518849186211
 30
0.0
 11
-23.17515141969547
 21
-92.68918859156351
 31
0.0
  0
LINE
  5
2CC
330
2CA
100
AcDbEntity
  8
1
  6
Continuous
 62
     2
100
AcDbLine
 10
-23.17515141969547
 20
-92.68918859156351
 30
0.0
 11
-23.17515141969547
 21
-88.68918859156351
 31
0.0
  0
LINE
  5
2CD
330
2CA
100
AcDbEntity
  8
1
  6
Continuous
 62
     2
100
AcDbLine
 10
-23.17515141969547
 20
-88.68918859156351
 30
0.0
 11
-23.17515141969547
 21
-81.68918859156351
 31
0.0
  0
LINE
  5
2CE
330
2CA
100
AcDbEntity
  8
1
  6
Continuous
 62
     2
100
AcDbLine
 10
-32.16876032016922
 20
-88.68918859156351
 30
0.0
 11
-21.17515141969547
 21
-88.68918859156351
 31
0.0
  0
LINE
  5
2CF
330
2CA
100
AcDbEntity
  8
1
  6
Continuous
 62
     2
100
AcDbLine
 10
-41.66876032016923
 20
-92.68918859156351
 30
0.0
 11
-21.17515141969547
 21
-92.68918859156351
 31
0.0
  0
SOLID
  5
2D0
330
2CA
100
AcDbEntity
  8
1
 62
     2
100
AcDbTrace
 10
-22.71436767813959
 20
-96.18918859156351
 30
0.0
 11
-23.63593516125136
 21
-96.18918859156351
 31
0.0
 12
-23.17515141969547
 22
-92.68918859156351
 32
0.0
 13
-23.17515141969547
 23
-92.68918859156351
 33
0.0
  0
SOLID
  5
2D1
330
2CA
100
AcDbEntity
  8
1
 62
     2
100
AcDbTrace
 10
-23.63593516125136
 20
-85.18918859156351
 30
0.0
 11
-22.71436767813958
 21
-85.18918859156351
 31
0.0
 12
-23.17515141969547
 22
-88.68918859156351
 32
0.0
 13
-23.17515141969547
 23
-88.68918859156351
 33
0.0
  0
MTEXT
  5
2D2
330
2CA
100
AcDbEntity
  8
1
 62
     2
100
AcDbMText
 10
-25.17515141969547
 20
-101.1518849186211
 30
0.0
 40
3.5
 41
0.0
 71
     7
 72
     1
  1
X
  7
CONVERTER_11
 11
0.0
 21
1.0
 31
0.0
 73
     1
 44
0.60024009603842
  0
ENDBLK
  5
2D4
330
2CA
100
AcDbEntity
  8
0
100
AcDbBlockEnd
  0
BLOCK
  5
2DE
330
2D7
100
AcDbEntity
  8
0
100
AcDbBlockBegin
  2
*D4
 70
     1
 71
     0
 10
0.0
 20
0.0
 30
0.0
  3
*D4
  1

  0
LINE
  5
2D8
330
2D7
100
AcDbEntity
  8
1
  6
Continuous
 62
     2
100
AcDbLine
 10
-46.78686100436367
 20
-92.68918859156351
 30
0.0
 11
-46.78686100436367
 21
-52.68918859156351
 31
0.0
  0
LINE
  5
2D9
330
2D7
100
AcDbEntity
  8
1
  6
Continuous
 62
     2
100
AcDbLine
 10
-41.66876032016923
 20
-92.68918859156351
 30
0.0
 11
-48.78686100436367
 21
-92.68918859156351
 31
0.0
  0
LINE
  5
2DA
330
2D7
100
AcDbEntity
  8
1
  6
Continuous
 62
     2
100
AcDbLine
 10
1.06329048739953
 20
-52.68918859156351
 30
0.0
 11
-48.78686100436367
 21
-52.68918859156351
 31
0.0
  0
SOLID
  5
2DB
330
2D7
100
AcDbEntity
  8
1
 62
     2
100
AcDbTrace
 10
-47.24764474591956
 20
-89.18918859156351
 30
0.0
 11
-46.32607726280779
 21
-89.18918859156351
 31
0.0
 12
-46.78686100436367
 22
-92.68918859156351
 32
0.0
 13
-46.78686100436367
 23
-92.68918859156351
 33
0.0
  0
SOLID
  5
2DC
330
2D7
100
AcDbEntity
  8
1
 62
     2
100
AcDbTrace
 10
-46.32607726280779
 20
-56.18918859156351
 30
0.0
 11
-47.24764474591956
 21
-56.18918859156351
 31
0.0
 12
-46.78686100436367
 22
-52.68918859156351
 32
0.0
 13
-46.78686100436367
 23
-52.68918859156351
 33
0.0
  0
MTEXT
  5
2DD
330
2D7
100
AcDbEntity
  8
1
 62
     2
100
AcDbMText
 10
-48.78686100436367
 20
-73.77015165379738
 30
0.0
 40
3.5
 41
0.0
 71
     7
 72
     1
  1
A
  7
CONVERTER_11
 11
0.0
 21
1.0
 31
0.0
 73
     1
 44
0.60024009603842
  0
ENDBLK
  5
2DF
330
2D7
100
AcDbEntity
  8
0
100
AcDbBlockEnd
  0
BLOCK
  5
2E9
330
2E2
100
AcDbEntity
  8
0
100
AcDbBlockBegin
  2
*D5
 70
     1
 71
     0
 10
0.0
 20
0.0
 30
0.0
  3
*D5
  1

  0
LINE
  5
2E3
330
2E2
100
AcDbEntity
  8
1
  6
Continuous
 62
     2
100
AcDbLine
 10
55.73157899085594
 20
-92.68918859156351
 30
0.0
 11
55.73157899085594
 21
-52.68918859156351
 31
0.0
  0
LINE
  5
2E4
330
2E2
100
AcDbEntity
  8
1
  6
Continuous
 62
     2
100
AcDbLine
 10
46.83123967983067
 20
-92.68918859156351
 30
0.0
 11
57.73157899085594
 21
-92.68918859156351
 31
0.0
  0
LINE
  5
2E5
330
2E2
100
AcDbEntity
  8
1
  6
Continuous
 62
     2
100
AcDbLine
 10
46.83123967983067
 20
-52.68918859156351
 30
0.0
 11
57.73157899085594
 21
-52.68918859156351
 31
0.0
  0
SOLID
  5
2E6
330
2E2
100
AcDbEntity
  8
1
 62
     2
100
AcDbTrace
 10
55.27079524930005
 20
-89.18918859156351
 30
0.0
 11
56.19236273241182
 21
-89.18918859156351
 31
0.0
 12
55.73157899085594
 22
-92.68918859156351
 32
0.0
 13
55.73157899085594
 23
-92.68918859156351
 33
0.0
  0
SOLID
  5
2E7
330
2E2
100
AcDbEntity
  8
1
 62
     2
100
AcDbTrace
 10
56.19236273241182
 20
-56.18918859156351
 30
0.0
 11
55.27079524930005
 21
-56.18918859156351
 31
0.0
 12
55.73157899085594
 22
-52.68918859156351
 32
0.0
 13
55.73157899085594
 23
-52.68918859156351
 33
0.0
  0
MTEXT
  5
2E8
330
2E2
100
AcDbEntity
  8
1
 62
     2
100
AcDbMText
 10
53.73157899085594
 20
-72.9105098904355
 30
0.0
 40
3.5
 41
0.0
 71
     7
 72
     1
  1
B
  7
CONVERTER_11
 11
0.0
 21
1.0
 31
0.0
 73
     1
 44
0.60024009603842
  0
ENDBLK
  5
2EA
330
2E2
100
AcDbEntity
  8
0
100
AcDbBlockEnd
  0
BLOCK
  5
2F4
330
2ED
100
AcDbEntity
  8
0
100
AcDbBlockBegin
  2
*D6
 70
     1
 71
     0
 10
0.0
 20
0.0
 30
0.0
  3
*D6
  1

  0
LINE
  5
2EE
330
2ED
100
AcDbEntity
  8
1
  6
Continuous
 62
     2
100
AcDbLine
 10
-126.000304110814
 20
59.38535147101105
 30
0.0
 11
-126.000304110814
 21
-100.614648528989
 31
0.0
  0
LINE
  5
2EF
330
2ED
100
AcDbEntity
  8
1
  6
Continuous
 62
     2
100
AcDbLine
 10
-182.91485230427
 20
-100.614648528989
 30
0.0
 11
-124.000304110814
 21
-100.614648528989
 31
0.0
  0
LINE
  5
2F0
330
2ED
100
AcDbEntity
  8
1
  6
Continuous
 62
     2
100
AcDbLine
 10
-182.91485230427
 20
59.38535147101105
 30
0.0
 11
-124.000304110814
 21
59.38535147101105
 31
0.0
  0
SOLID
  5
2F1
330
2ED
100
AcDbEntity
  8
1
 62
     2
100
AcDbTrace
 10
-125.5395203692581
 20
55.88535147101105
 30
0.0
 11
-126.4610878523699
 21
55.88535147101105
 31
0.0
 12
-126.000304110814
 22
59.38535147101105
 32
0.0
 13
-126.000304110814
 23
59.38535147101105
 33
0.0
  0
SOLID
  5
2F2
330
2ED
100
AcDbEntity
  8
1
 62
     2
100
AcDbTrace
 10
-126.4610878523699
 20
-97.11464852898895
 30
0.0
 11
-125.5395203692581
 21
-97.11464852898895
 31
0.0
 12
-126.000304110814
 22
-100.614648528989
 32
0.0
 13
-126.000304110814
 23
-100.614648528989
 33
0.0
  0
MTEXT
  5
2F3
330
2ED
100
AcDbEntity
  8
1
 62
     2
100
AcDbMText
 10
-128.000304110814
 20
-24.9331327948045
 30
0.0
 40
3.5
 41
0.0
 71
     7
 72
     1
  1
160
  7
CONVERTER_11
 11
0.0
 21
1.0
 31
0.0
 73
     1
 44
0.60024009603842
  0
ENDBLK
  5
2F5
330
2ED
100
AcDbEntity
  8
0
100
AcDbBlockEnd
  0
BLOCK
  5
2FF
330
2F8
100
AcDbEntity
  8
0
100
AcDbBlockBegin
  2
*D7
 70
     1
 71
     0
 10
0.0
 20
0.0
 30
0.0
  3
*D7
  1

  0
LINE
  5
2F9
330
2F8
100
AcDbEntity
  8
1
  6
Continuous
 62
     2
100
AcDbLine
 10
70.57232355093777
 20
-128.729476198668
 30
0.0
 11
60.57232355093777
 21
-128.729476198668
 31
0.0
  0
LINE
  5
2FA
330
2F8
100
AcDbEntity
  8
1
  6
Continuous
 62
     2
100
AcDbLine
 10
60.57232355093777
 20
-120.614648528989
 30
0.0
 11
60.57232355093777
 21
-130.729476198668
 31
0.0
  0
LINE
  5
2FB
330
2F8
100
AcDbEntity
  8
1
  6
Continuous
 62
     2
100
AcDbLine
 10
70.57232355093777
 20
-100.6146485289889
 30
0.0
 11
70.57232355093777
 21
-130.729476198668
 31
0.0
  0
SOLID
  5
2FC
330
2F8
100
AcDbEntity
  8
1
 62
     2
100
AcDbTrace
 10
67.07232355093777
 20
-129.1902599402239
 30
0.0
 11
67.07232355093777
 21
-128.2686924571121
 31
0.0
 12
70.57232355093777
 22
-128.729476198668
 32
0.0
 13
70.57232355093777
 23
-128.729476198668
 33
0.0
  0
SOLID
  5
2FD
330
2F8
100
AcDbEntity
  8
1
 62
     2
100
AcDbTrace
 10
64.07232355093777
 20
-128.2686924571121
 30
0.0
 11
64.07232355093777
 21
-129.1902599402239
 31
0.0
 12
60.57232355093777
 22
-128.729476198668
 32
0.0
 13
60.57232355093777
 23
-128.729476198668
 33
0.0
  0
MTEXT
  5
2FE
330
2F8
100
AcDbEntity
  8
1
 62
     2
100
AcDbMText
 10
63.95383521492797
 20
-126.729476198668
 30
0.0
 40
3.5
 41
0.0
 71
     7
 72
     1
  1
10
  7
CONVERTER_11
 11
0.9999999999970621
 21
2.424068405545307E-6
 31
0.0
 73
     1
 44
0.60024009603842
  0
ENDBLK
  5
300
330
2F8
100
AcDbEntity
  8
0
100
AcDbBlockEnd
  0
BLOCK
  5
30A
330
303
100
AcDbEntity
  8
0
100
AcDbBlockBegin
  2
*D8
 70
     1
 71
     0
 10
0.0
 20
0.0
 30
0.0
  3
*D8
  1

  0
LINE
  5
304
330
303
100
AcDbEntity
  8
1
  6
Continuous
 62
     2
100
AcDbLine
 10
60.57232355093777
 20
-138.6142090488623
 30
0.0
 11
94.57232355093781
 21
-138.6142090488623
 31
0.0
  0
LINE
  5
305
330
303
100
AcDbEntity
  8
1
  6
Continuous
 62
     2
100
AcDbLine
 10
94.57232355093781
 20
-86.11464852898916
 30
0.0
 11
94.57232355093781
 21
-140.6142090488623
 31
0.0
  0
LINE
  5
306
330
303
100
AcDbEntity
  8
1
  6
Continuous
 62
     2
100
AcDbLine
 10
60.57232355093777
 20
-100.6146485289889
 30
0.0
 11
60.57232355093777
 21
-140.6142090488623
 31
0.0
  0
SOLID
  5
307
330
303
100
AcDbEntity
  8
1
 62
     2
100
AcDbTrace
 10
64.07232355093777
 20
-138.1534253073064
 30
0.0
 11
64.07232355093777
 21
-139.0749927904182
 31
0.0
 12
60.57232355093777
 22
-138.6142090488623
 32
0.0
 13
60.57232355093777
 23
-138.6142090488623
 33
0.0
  0
SOLID
  5
308
330
303
100
AcDbEntity
  8
1
 62
     2
100
AcDbTrace
 10
91.07232355093781
 20
-139.0749927904182
 30
0.0
 11
91.07232355093781
 21
-138.1534253073064
 31
0.0
 12
94.57232355093781
 22
-138.6142090488623
 32
0.0
 13
94.57232355093781
 23
-138.6142090488623
 33
0.0
  0
MTEXT
  5
309
330
303
100
AcDbEntity
  8
1
 62
     2
100
AcDbMText
 10
75.00085718126206
 20
-136.6142090488623
 30
0.0
 40
3.5
 41
0.0
 71
     7
 72
     1
  1
34
  7
CONVERTER_11
 11
0.9999999999970621
 21
2.424068405545307E-6
 31
0.0
 73
     1
 44
0.60024009603842
  0
ENDBLK
  5
30B
330
303
100
AcDbEntity
  8
0
100
AcDbBlockEnd
  0
BLOCK
  5
315
330
30E
100
AcDbEntity
  8
0
100
AcDbBlockBegin
  2
*D9
 70
     1
 71
     0
 10
0.0
 20
0.0
 30
0.0
  3
*D9
  1

  0
LINE
  5
30F
330
30E
100
AcDbEntity
  8
1
  6
Continuous
 62
     2
100
AcDbLine
 10
170.2856570446656
 20
-128.729476198668
 30
0.0
 11
142.2856570446656
 21
-128.729476198668
 31
0.0
  0
LINE
  5
310
330
30E
100
AcDbEntity
  8
1
  6
Continuous
 62
     2
100
AcDbLine
 10
170.2856570446656
 20
-86.61464852898894
 30
0.0
 11
170.2856570446656
 21
-130.729476198668
 31
0.0
  0
LINE
  5
311
330
30E
100
AcDbEntity
  8
1
  6
Continuous
 62
     2
100
AcDbLine
 10
142.2856570446656
 20
-86.61464852898894
 30
0.0
 11
142.2856570446656
 21
-130.729476198668
 31
0.0
  0
SOLID
  5
312
330
30E
100
AcDbEntity
  8
1
 62
     2
100
AcDbTrace
 10
166.7856570446656
 20
-129.1902599402239
 30
0.0
 11
166.7856570446656
 21
-128.2686924571121
 31
0.0
 12
170.2856570446656
 22
-128.729476198668
 32
0.0
 13
170.2856570446656
 23
-128.729476198668
 33
0.0
  0
SOLID
  5
313
330
30E
100
AcDbEntity
  8
1
 62
     2
100
AcDbTrace
 10
145.7856570446656
 20
-128.2686924571121
 30
0.0
 11
145.7856570446656
 21
-129.1902599402239
 31
0.0
 12
142.2856570446656
 22
-128.729476198668
 32
0.0
 13
142.2856570446656
 23
-128.729476198668
 33
0.0
  0
MTEXT
  5
314
330
30E
100
AcDbEntity
  8
1
 62
     2
100
AcDbMText
 10
154.5954363751218
 20
-126.729476198668
 30
0.0
 40
3.5
 41
0.0
 71
     7
 72
     1
  1
28
  7
CONVERTER_11
 11
0.9999999999970621
 21
2.424068405545307E-6
 31
0.0
 73
     1
 44
0.60024009603842
  0
ENDBLK
  5
316
330
30E
100
AcDbEntity
  8
0
100
AcDbBlockEnd
  0
BLOCK
  5
320
330
319
100
AcDbEntity
  8
0
100
AcDbBlockBegin
  2
*D10
 70
     1
 71
     0
 10
0.0
 20
0.0
 30
0.0
  3
*D10
  1

  0
LINE
  5
31A
330
319
100
AcDbEntity
  8
1
  6
Continuous
 62
     2
100
AcDbLine
 10
163.7856570446657
 20
34.54515688290759
 30
0.0
 11
148.7856570446657
 21
34.54515688290759
 31
0.0
  0
LINE
  5
31B
330
319
100
AcDbEntity
  8
1
  6
Continuous
 62
     2
100
AcDbLine
 10
148.7856570446657
 20
46.13535147101104
 30
0.0
 11
148.7856570446657
 21
32.54515688290759
 31
0.0
  0
LINE
  5
31C
330
319
100
AcDbEntity
  8
1
  6
Continuous
 62
     2
100
AcDbLine
 10
163.7856570446657
 20
46.13535147101104
 30
0.0
 11
163.7856570446657
 21
32.54515688290759
 31
0.0
  0
SOLID
  5
31D
330
319
100
AcDbEntity
  8
1
 62
     2
100
AcDbTrace
 10
160.2856570446657
 20
34.0843731413517
 30
0.0
 11
160.2856570446657
 21
35.00594062446348
 31
0.0
 12
163.7856570446657
 22
34.54515688290759
 32
0.0
 13
163.7856570446657
 23
34.54515688290759
 33
0.0
  0
SOLID
  5
31E
330
319
100
AcDbEntity
  8
1
 62
     2
100
AcDbTrace
 10
152.2856570446657
 20
35.00594062446348
 30
0.0
 11
152.2856570446657
 21
34.0843731413517
 31
0.0
 12
148.7856570446657
 22
34.54515688290759
 32
0.0
 13
148.7856570446657
 23
34.54515688290759
 33
0.0
  0
MTEXT
  5
31F
330
319
100
AcDbEntity
  8
1
 62
     2
100
AcDbMText
 10
157.9870870343117
 20
36.54515688290759
 30
0.0
 40
3.5
 41
0.0
 71
     7
 72
     1
  1
15
  7
CONVERTER_11
 11
0.9999999999970621
 21
2.424068405545307E-6
 31
0.0
 73
     1
 44
0.60024009603842
  0
ENDBLK
  5
321
330
319
100
AcDbEntity
  8
0
100
AcDbBlockEnd
  0
BLOCK
  5
32D
330
324
100
AcDbEntity
  8
0
100
AcDbBlockBegin
  2
*D11
 70
     1
 71
     0
 10
0.0
 20
0.0
 30
0.0
  3
*D11
  1

  0
LINE
  5
325
330
324
100
AcDbEntity
  8
1
  6
Continuous
 62
     2
100
AcDbLine
 10
170.2856570446657
 20
-128.729476198668
 30
0.0
 11
163.2856570446657
 21
-128.729476198668
 31
0.0
  0
LINE
  5
326
330
324
100
AcDbEntity
  8
1
  6
Continuous
 62
     2
100
AcDbLine
 10
174.2856570446656
 20
-128.729476198668
 30
0.0
 11
170.2856570446657
 21
-128.729476198668
 31
0.0
  0
LINE
  5
327
330
324
100
AcDbEntity
  8
1
  6
Continuous
 62
     2
100
AcDbLine
 10
181.2856570446656
 20
-128.729476198668
 30
0.0
 11
174.2856570446656
 21
-128.729476198668
 31
0.0
  0
LINE
  5
328
330
324
100
AcDbEntity
  8
1
  6
Continuous
 62
     2
100
AcDbLine
 10
174.2856570446656
 20
-120.614648528989
 30
0.0
 11
174.2856570446656
 21
-130.729476198668
 31
0.0
  0
LINE
  5
329
330
324
100
AcDbEntity
  8
1
  6
Continuous
 62
     2
100
AcDbLine
 10
170.2856570446657
 20
-86.61464852898894
 30
0.0
 11
170.2856570446657
 21
-130.729476198668
 31
0.0
  0
SOLID
  5
32A
330
324
100
AcDbEntity
  8
1
 62
     2
100
AcDbTrace
 10
177.7856570446656
 20
-128.2686924571121
 30
0.0
 11
177.7856570446656
 21
-129.1902599402239
 31
0.0
 12
174.2856570446656
 22
-128.729476198668
 32
0.0
 13
174.2856570446656
 23
-128.729476198668
 33
0.0
  0
SOLID
  5
32B
330
324
100
AcDbEntity
  8
1
 62
     2
100
AcDbTrace
 10
166.7856570446657
 20
-129.1902599402239
 30
0.0
 11
166.7856570446657
 21
-128.2686924571121
 31
0.0
 12
170.2856570446657
 22
-128.729476198668
 32
0.0
 13
170.2856570446657
 23
-128.729476198668
 33
0.0
  0
MTEXT
  5
32C
330
324
100
AcDbEntity
  8
1
 62
     2
100
AcDbMText
 10
170.9630005346778
 20
-126.729476198668
 30
0.0
 40
3.5
 41
0.0
 71
     7
 72
     1
  1
4
  7
CONVERTER_11
 11
0.9999999999970621
 21
2.424068405545307E-6
 31
0.0
 73
     1
 44
0.60024009603842
  0
ENDBLK
  5
32E
330
324
100
AcDbEntity
  8
0
100
AcDbBlockEnd
  0
BLOCK
  5
338
330
331
100
AcDbEntity
  8
0
100
AcDbBlockBegin
  2
*D12
 70
     1
 71
     0
 10
0.0
 20
0.0
 30
0.0
  3
*D12
  1

  0
LINE
  5
332
330
331
100
AcDbEntity
  8
1
  6
Continuous
 62
     2
100
AcDbLine
 10
113.8308869847158
 20
59.38535147101105
 30
0.0
 11
113.8308869847158
 21
-100.614648528989
 31
0.0
  0
LINE
  5
333
330
331
100
AcDbEntity
  8
1
  6
Continuous
 62
     2
100
AcDbLine
 10
156.2856570446657
 20
-100.614648528989
 30
0.0
 11
111.8308869847158
 21
-100.614648528989
 31
0.0
  0
LINE
  5
334
330
331
100
AcDbEntity
  8
1
  6
Continuous
 62
     2
100
AcDbLine
 10
156.2856570446657
 20
59.38535147101105
 30
0.0
 11
111.8308869847158
 21
59.38535147101105
 31
0.0
  0
SOLID
  5
335
330
331
100
AcDbEntity
  8
1
 62
     2
100
AcDbTrace
 10
114.2916707262717
 20
55.88535147101105
 30
0.0
 11
113.3701032431599
 21
55.88535147101105
 31
0.0
 12
113.8308869847158
 22
59.38535147101105
 32
0.0
 13
113.8308869847158
 23
59.38535147101105
 33
0.0
  0
SOLID
  5
336
330
331
100
AcDbEntity
  8
1
 62
     2
100
AcDbTrace
 10
113.3701032431599
 20
-97.11464852898901
 30
0.0
 11
114.2916707262717
 21
-97.11464852898901
 31
0.0
 12
113.8308869847158
 22
-100.614648528989
 32
0.0
 13
113.8308869847158
 23
-100.614648528989
 33
0.0
  0
MTEXT
  5
337
330
331
100
AcDbEntity
  8
1
 62
     2
100
AcDbMText
 10
111.8308869847158
 20
-24.3245241982269
 30
0.0
 40
3.5
 41
0.0
 71
     7
 72
     1
  1
160
  7
CONVERTER_11
 11
0.0
 21
1.0
 31
0.0
 73
     1
 44
0.60024009603842
  0
ENDBLK
  5
339
330
331
100
AcDbEntity
  8
0
100
AcDbBlockEnd
  0
BLOCK
  5
343
330
33C
100
AcDbEntity
  8
0
100
AcDbBlockBegin
  2
*D13
 70
     1
 71
     0
 10
0.0
 20
0.0
 30
0.0
  3
*D13
  1

  0
LINE
  5
33D
330
33C
100
AcDbEntity
  8
1
  6
Continuous
 62
     2
100
AcDbLine
 10
121.7058057972448
 20
48.38535147101105
 30
0.0
 11
121.7058057972448
 21
-89.61464852898895
 31
0.0
  0
LINE
  5
33E
330
33C
100
AcDbEntity
  8
1
  6
Continuous
 62
     2
100
AcDbLine
 10
146.5356570446657
 20
-89.61464852898895
 30
0.0
 11
119.7058057972448
 21
-89.61464852898895
 31
0.0
  0
LINE
  5
33F
330
33C
100
AcDbEntity
  8
1
  6
Continuous
 62
     2
100
AcDbLine
 10
146.5356570446657
 20
48.38535147101105
 30
0.0
 11
119.7058057972448
 21
48.38535147101105
 31
0.0
  0
SOLID
  5
340
330
33C
100
AcDbEntity
  8
1
 62
     2
100
AcDbTrace
 10
122.1665895388007
 20
44.88535147101105
 30
0.0
 11
121.2450220556889
 21
44.88535147101105
 31
0.0
 12
121.7058057972448
 22
48.38535147101105
 32
0.0
 13
121.7058057972448
 23
48.38535147101105
 33
0.0
  0
SOLID
  5
341
330
33C
100
AcDbEntity
  8
1
 62
     2
100
AcDbTrace
 10
121.2450220556889
 20
-86.11464852898895
 30
0.0
 11
122.1665895388007
 21
-86.11464852898895
 31
0.0
 12
121.7058057972448
 22
-89.61464852898895
 32
0.0
 13
121.7058057972448
 23
-89.61464852898895
 33
0.0
  0
MTEXT
  5
342
330
33C
100
AcDbEntity
  8
1
 62
     2
100
AcDbMText
 10
119.7058057972448
 20
-24.3245241982269
 30
0.0
 40
3.5
 41
0.0
 71
     7
 72
     1
  1
138
  7
CONVERTER_11
 11
0.0
 21
1.0
 31
0.0
 73
     1
 44
0.60024009603842
  0
ENDBLK
  5
344
330
33C
100
AcDbEntity
  8
0
100
AcDbBlockEnd
  0
BLOCK
  5
34E
330
347
100
AcDbEntity
  8
0
100
AcDbBlockBegin
  2
*D14
 70
     1
 71
     0
 10
0.0
 20
0.0
 30
0.0
  3
*D14
  1

  0
LINE
  5
348
330
347
100
AcDbEntity
  8
1
  6
Continuous
 62
     2
100
AcDbLine
 10
129.4734331112388
 20
44.88535147101105
 30
0.0
 11
129.4734331112388
 21
-86.1146485289892
 31
0.0
  0
LINE
  5
349
330
347
100
AcDbEntity
  8
1
  6
Continuous
 62
     2
100
AcDbLine
 10
154.2856570446657
 20
44.88535147101105
 30
0.0
 11
127.4734331112388
 21
44.88535147101105
 31
0.0
  0
LINE
  5
34A
330
347
100
AcDbEntity
  8
1
  6
Continuous
 62
     2
100
AcDbLine
 10
158.0543313171585
 20
-86.1146485289892
 30
0.0
 11
127.4734331112388
 21
-86.1146485289892
 31
0.0
  0
SOLID
  5
34B
330
347
100
AcDbEntity
  8
1
 62
     2
100
AcDbTrace
 10
129.9342168527947
 20
41.38535147101105
 30
0.0
 11
129.0126493696829
 21
41.38535147101105
 31
0.0
 12
129.4734331112388
 22
44.88535147101105
 32
0.0
 13
129.4734331112388
 23
44.88535147101105
 33
0.0
  0
SOLID
  5
34C
330
347
100
AcDbEntity
  8
1
 62
     2
100
AcDbTrace
 10
129.0126493696829
 20
-82.6146485289892
 30
0.0
 11
129.9342168527947
 21
-82.6146485289892
 31
0.0
 12
129.4734331112388
 22
-86.1146485289892
 32
0.0
 13
129.4734331112388
 23
-86.1146485289892
 33
0.0
  0
MTEXT
  5
34D
330
347
100
AcDbEntity
  8
1
 62
     2
100
AcDbMText
 10
127.4734331112388
 20
-23.70233169408329
 30
0.0
 40
3.5
 41
0.0
 71
     7
 72
     1
  1
131
  7
CONVERTER_11
 11
0.0
 21
1.0
 31
0.0
 73
     1
 44
0.60024009603842
  0
ENDBLK
  5
34F
330
347
100
AcDbEntity
  8
0
100
AcDbBlockEnd
  0
BLOCK
  5
35B
330
352
100
AcDbEntity
  8
0
100
AcDbBlockBegin
  2
*D15
 70
     1
 71
     0
 10
0.0
 20
0.0
 30
0.0
  3
*D15
  1

  0
LINE
  5
353
330
352
100
AcDbEntity
  8
1
  6
Continuous
 62
     2
100
AcDbLine
 10
27.3301561924627
 20
-81.68918859156332
 30
0.0
 11
27.3301561924627
 21
-88.68918859156332
 31
0.0
  0
LINE
  5
354
330
352
100
AcDbEntity
  8
1
  6
Continuous
 62
     2
100
AcDbLine
 10
27.3301561924627
 20
-88.68918859156332
 30
0.0
 11
27.3301561924627
 21
-92.68918859156351
 31
0.0
  0
LINE
  5
355
330
352
100
AcDbEntity
  8
1
  6
Continuous
 62
     2
100
AcDbLine
 10
27.3301561924627
 20
-92.68918859156351
 30
0.0
 11
27.3301561924627
 21
-100.329205836143
 31
0.0
  0
LINE
  5
356
330
352
100
AcDbEntity
  8
1
  6
Continuous
 62
     2
100
AcDbLine
 10
2.83123967983048
 20
-92.68918859156351
 30
0.0
 11
29.3301561924627
 21
-92.68918859156351
 31
0.0
  0
LINE
  5
357
330
352
100
AcDbEntity
  8
1
  6
Continuous
 62
     2
100
AcDbLine
 10
12.83123967983047
 20
-88.68918859156332
 30
0.0
 11
29.3301561924627
 21
-88.68918859156332
 31
0.0
  0
SOLID
  5
358
330
352
100
AcDbEntity
  8
1
 62
     2
100
AcDbTrace
 10
26.86937245090681
 20
-85.18918859156332
 30
0.0
 11
27.79093993401858
 21
-85.18918859156332
 31
0.0
 12
27.3301561924627
 22
-88.68918859156332
 32
0.0
 13
27.3301561924627
 23
-88.68918859156332
 33
0.0
  0
SOLID
  5
359
330
352
100
AcDbEntity
  8
1
 62
     2
100
AcDbTrace
 10
27.79093993401858
 20
-96.18918859156351
 30
0.0
 11
26.86937245090681
 21
-96.18918859156351
 31
0.0
 12
27.3301561924627
 22
-92.68918859156351
 32
0.0
 13
27.3301561924627
 23
-92.68918859156351
 33
0.0
  0
MTEXT
  5
35A
330
352
100
AcDbEntity
  8
1
 62
     2
100
AcDbMText
 10
25.3301561924627
 20
-100.329205836143
 30
0.0
 40
3.5
 41
0.0
 71
     7
 72
     1
  1
4
  7
CONVERTER_11
 11
0.0
 21
1.0
 31
0.0
 73
     1
 44
0.60024009603842
  0
ENDBLK
  5
35C
330
352
100
AcDbEntity
  8
0
100
AcDbBlockEnd
  0
BLOCK
  5
368
330
35F
100
AcDbEntity
  8
0
100
AcDbBlockBegin
  2
*D16
 70
     1
 71
     0
 10
0.0
 20
0.0
 30
0.0
  3
*D16
  1

  0
LINE
  5
360
330
35F
100
AcDbEntity
  8
1
  6
Continuous
 62
     2
100
AcDbLine
 10
-207.91485230427
 20
-130.2566310837739
 30
0.0
 11
-200.91485230427
 21
-130.2566310837739
 31
0.0
  0
LINE
  5
361
330
35F
100
AcDbEntity
  8
1
  6
Continuous
 62
     2
100
AcDbLine
 10
-200.91485230427
 20
-130.2566310837739
 30
0.0
 11
-196.91485230427
 21
-130.2566310837739
 31
0.0
  0
LINE
  5
362
330
35F
100
AcDbEntity
  8
1
  6
Continuous
 62
     2
100
AcDbLine
 10
-196.91485230427
 20
-130.2566310837739
 30
0.0
 11
-189.91485230427
 21
-130.2566310837739
 31
0.0
  0
LINE
  5
363
330
35F
100
AcDbEntity
  8
1
  6
Continuous
 62
     2
100
AcDbLine
 10
-196.91485230427
 20
-86.61464852898894
 30
0.0
 11
-196.91485230427
 21
-132.2566310837739
 31
0.0
  0
LINE
  5
364
330
35F
100
AcDbEntity
  8
1
  6
Continuous
 62
     2
100
AcDbLine
 10
-200.91485230427
 20
-120.614648528989
 30
0.0
 11
-200.91485230427
 21
-132.2566310837739
 31
0.0
  0
SOLID
  5
365
330
35F
100
AcDbEntity
  8
1
 62
     2
100
AcDbTrace
 10
-204.41485230427
 20
-130.7174148253298
 30
0.0
 11
-204.41485230427
 21
-129.795847342218
 31
0.0
 12
-200.91485230427
 22
-130.2566310837739
 32
0.0
 13
-200.91485230427
 23
-130.2566310837739
 33
0.0
  0
SOLID
  5
366
330
35F
100
AcDbEntity
  8
1
 62
     2
100
AcDbTrace
 10
-193.41485230427
 20
-129.795847342218
 30
0.0
 11
-193.41485230427
 21
-130.7174148253298
 31
0.0
 12
-196.91485230427
 22
-130.2566310837739
 32
0.0
 13
-196.91485230427
 23
-130.2566310837739
 33
0.0
  0
MTEXT
  5
367
330
35F
100
AcDbEntity
  8
1
 62
     2
100
AcDbMText
 10
-205.001615557664
 20
-128.2566310837739
 30
0.0
 40
3.5
 41
0.0
 71
     7
 72
     1
  1
X
  7
CONVERTER_11
 11
0.9999999999970621
 21
2.424068405545307E-6
 31
0.0
 73
     1
 44
0.60024009603842
  0
ENDBLK
  5
369
330
35F
100
AcDbEntity
  8
0
100
AcDbBlockEnd
  0
BLOCK
  5
373
330
36C
100
AcDbEntity
  8
0
100
AcDbBlockBegin
  2
*D17
 70
     1
 71
     0
 10
0.0
 20
0.0
 30
0.0
  3
*D17
  1

  0
LINE
  5
36D
330
36C
100
AcDbEntity
  8
1
  6
Continuous
 62
     2
100
AcDbLine
 10
-196.91485230427
 20
-130.2566310837739
 30
0.0
 11
-168.91485230427
 21
-130.2566310837739
 31
0.0
  0
LINE
  5
36E
330
36C
100
AcDbEntity
  8
1
  6
Continuous
 62
     2
100
AcDbLine
 10
-168.91485230427
 20
-84.6146485289892
 30
0.0
 11
-168.91485230427
 21
-132.2566310837739
 31
0.0
  0
LINE
  5
36F
330
36C
100
AcDbEntity
  8
1
  6
Continuous
 62
     2
100
AcDbLine
 10
-196.91485230427
 20
-86.61464852898894
 30
0.0
 11
-196.91485230427
 21
-132.2566310837739
 31
0.0
  0
SOLID
  5
370
330
36C
100
AcDbEntity
  8
1
 62
     2
100
AcDbTrace
 10
-193.41485230427
 20
-129.795847342218
 30
0.0
 11
-193.41485230427
 21
-130.7174148253298
 31
0.0
 12
-196.91485230427
 22
-130.2566310837739
 32
0.0
 13
-196.91485230427
 23
-130.2566310837739
 33
0.0
  0
SOLID
  5
371
330
36C
100
AcDbEntity
  8
1
 62
     2
100
AcDbTrace
 10
-172.41485230427
 20
-130.7174148253298
 30
0.0
 11
-172.41485230427
 21
-129.795847342218
 31
0.0
 12
-168.91485230427
 22
-130.2566310837739
 32
0.0
 13
-168.91485230427
 23
-130.2566310837739
 33
0.0
  0
MTEXT
  5
372
330
36C
100
AcDbEntity
  8
1
 62
     2
100
AcDbMText
 10
-186.0106662427407
 20
-128.2566310837739
 30
0.0
 40
3.5
 41
0.0
 71
     7
 72
     1
  1
28
  7
CONVERTER_11
 11
0.9999999999970621
 21
2.424068405545307E-6
 31
0.0
 73
     1
 44
0.60024009603842
  0
ENDBLK
  5
374
330
36C
100
AcDbEntity
  8
0
100
AcDbBlockEnd
  0
BLOCK
  5
37C
330
377
100
AcDbEntity
  8
0
100
AcDbBlockBegin
  2
*D18
 70
     1
 71
     0
 10
0.0
 20
0.0
 30
0.0
  3
*D18
  1

  0
LINE
  5
378
330
377
100
AcDbEntity
  8
1
  6
Continuous
 62
     2
100
AcDbLine
 10
-187.0901720359637
 20
-76.32555594454023
 30
0.0
 11
-141.9111533751646
 21
-151.6011896076379
 31
0.0
  0
SOLID
  5
379
330
377
100
AcDbEntity
  8
1
 62
     2
100
AcDbTrace
 10
-176.9357547091761
 20
-94.13987968724636
 30
0.0
 11
-176.1455802794633
 21
-93.6656318653674
 31
0.0
 12
-174.7395325725757
 22
-96.90374111343768
 32
0.0
 13
-174.7395325725757
 23
-96.90374111343768
 33
0.0
  0
SOLID
  5
37A
330
377
100
AcDbEntity
  8
1
 62
     2
100
AcDbTrace
 10
-184.8939498993632
 20
-79.08941737073154
 30
0.0
 11
-185.6841243290761
 21
-79.5636651926105
 31
0.0
 12
-187.0901720359637
 22
-76.32555594454023
 32
0.0
 13
-187.0901720359637
 23
-76.32555594454023
 33
0.0
  0
MTEXT
  5
37B
330
377
100
AcDbEntity
  8
1
 62
     2
100
AcDbMText
 10
-154.7134520803468
 20
-126.3840278350814
 30
0.0
 40
3.5
 41
0.0
 71
     7
 72
     1
  1
\C2;Fräser ø\C2;24
  7
CONVERTER_11
 11
0.5146099776411563
 21
-0.8574243820373716
 31
0.0
 73
     1
 44
0.60024009603842
  0
ENDBLK
  5
37D
330
377
100
AcDbEntity
  8
0
100
AcDbBlockEnd
  0
BLOCK
  5
384
330
37F
100
AcDbEntity
  8
0
100
AcDbBlockBegin
  2
*D19
 70
     1
 71
     0
 10
0.0
 20
0.0
 30
0.0
  3
*D19
  1

  0
LINE
  5
380
330
37F
100
AcDbEntity
  8
1
  6
Continuous
 62
     2
100
AcDbLine
 10
161.6535346651532
 20
-77.14288103978616
 30
0.0
 11
116.2912416824941
 21
-135.4583300795616
 31
0.0
  0
SOLID
  5
381
330
37F
100
AcDbEntity
  8
1
 62
     2
100
AcDbTrace
 10
148.7030406915852
 20
-93.04090064906643
 30
0.0
 11
149.4304467687222
 21
-93.60673368528212
 31
0.0
 12
146.9177794241782
 22
-96.08641601819174
 32
0.0
 13
146.9177794241782
 23
-96.08641601819174
 33
0.0
  0
SOLID
  5
382
330
37F
100
AcDbEntity
  8
1
 62
     2
100
AcDbTrace
 10
159.8682733977462
 20
-80.18839640891147
 30
0.0
 11
159.1408673206091
 21
-79.62256337269578
 31
0.0
 12
161.6535346651532
 22
-77.14288103978616
 32
0.0
 13
161.6535346651532
 23
-77.14288103978616
 33
0.0
  0
MTEXT
  5
383
330
37F
100
AcDbEntity
  8
1
 62
     2
100
AcDbMText
 10
115.6581580622562
 20
-133.0148069816994
 30
0.0
 40
3.5
 41
0.0
 71
     7
 72
     1
  1
\C2;Fräser ø\C2;24
  7
CONVERTER_11
 11
0.6139898017072942
 21
0.7893139574335662
 31
0.0
 73
     1
 44
0.60024009603842
  0
ENDBLK
  5
385
330
37F
100
AcDbEntity
  8
0
100
AcDbBlockEnd
  0
ENDSEC
  0
SECTION
  2
ENTITIES
  0
INSERT
  5
37
330
1F
100
AcDbEntity
  8
0
100
AcDbBlockReference
  2
_art_A3_me10_pdm
 10
-13.91306997464562
 20
-30.61149763870617
 30
0.0
  0
POINT
  5
1B7
330
1F
100
AcDbEntity
  8
1
 62
     3
 60
     1
100
AcDbPoint
 10
-10.66876032016929
 20
-53.68918859156349
 30
0.0
  0
POINT
  5
1B8
330
1F
100
AcDbEntity
  8
1
 62
     3
 60
     1
100
AcDbPoint
 10
-14.66876032016924
 20
-38.68918859156349
 30
0.0
  0
POINT
  5
1B9
330
1F
100
AcDbEntity
  8
1
 62
     3
 60
     1
100
AcDbPoint
 10
-144.324895871924
 20
-20.61464852898895
 30
0.0
  0
POINT
  5
1BA
330
1F
100
AcDbEntity
  8
1
 62
     3
 60
     1
100
AcDbPoint
 10
-168.9148523042699
 20
16.38535147101105
 30
0.0
  0
POINT
  5
1BB
330
1F
100
AcDbEntity
  8
1
 62
     3
 60
     1
100
AcDbPoint
 10
-168.9148523042699
 20
-59.61464852898895
 30
0.0
  0
POINT
  5
1BC
330
1F
100
AcDbEntity
  8
1
 62
     3
 60
     1
100
AcDbPoint
 10
-182.91485230427
 20
-86.61464852898895
 30
0.0
  0
POINT
  5
1BD
330
1F
100
AcDbEntity
  8
1
 62
     3
 60
     1
100
AcDbPoint
 10
-182.91485230427
 20
-100.614648528989
 30
0.0
  0
POINT
  5
1BE
330
1F
100
AcDbEntity
  8
1
 62
     3
 60
     1
100
AcDbPoint
 10
-196.91485230427
 20
-86.61464852898895
 30
0.0
  0
POINT
  5
1BF
330
1F
100
AcDbEntity
  8
1
 62
     3
 60
     1
100
AcDbPoint
 10
-182.91485230427
 20
-86.61464852898895
 30
0.0
  0
POINT
  5
1C0
330
1F
100
AcDbEntity
  8
1
 62
     3
 60
     1
100
AcDbPoint
 10
-168.91485230427
 20
-86.61464852898895
 30
0.0
  0
POINT
  5
1C1
330
1F
100
AcDbEntity
  8
1
 62
     3
 60
     1
100
AcDbPoint
 10
-182.91485230427
 20
-100.614648528989
 30
0.0
  0
POINT
  5
1C2
330
1F
100
AcDbEntity
  8
1
 62
     3
 60
     1
100
AcDbPoint
 10
-182.91485230427
 20
59.38535147101105
 30
0.0
  0
POINT
  5
1C3
330
1F
100
AcDbEntity
  8
1
 62
     3
 60
     1
100
AcDbPoint
 10
-196.91485230427
 20
45.38535147101105
 30
0.0
  0
POINT
  5
1C4
330
1F
100
AcDbEntity
  8
1
 62
     3
 60
     1
100
AcDbPoint
 10
-168.91485230427
 20
45.38535147101105
 30
0.0
  0
LINE
  5
1C5
102
{ACAD_REACTORS
330
38D
330
38D
102
}
330
1F
100
AcDbEntity
  8
1
  6
Continuous
 62
     7
100
AcDbLine
 10
-10.66876032016929
 20
-53.68918859156349
 30
0.0
 11
-10.66876032016929
 21
-38.68918859156349
 31
0.0
  0
LINE
  5
1C6
330
1F
100
AcDbEntity
  8
1
  6
PHANTOM
 62
     2
100
AcDbLine
 10
-14.66876032016947
 20
-53.68918859156349
 30
0.0
 11
-14.66876032016941
 21
-66.6891885915635
 31
0.0
  0
LINE
  5
1C7
330
1F
100
AcDbEntity
  8
1
  6
Continuous
 62
     2
100
AcDbLine
 10
-10.66876032016929
 20
-53.68918859156349
 30
0.0
 11
-14.66876032016947
 21
-53.68918859156349
 31
0.0
  0
LINE
  5
1C8
102
{ACAD_REACTORS
330
38D
330
38D
102
}
330
1F
100
AcDbEntity
  8
1
  6
Continuous
 62
     7
100
AcDbLine
 10
-10.66876032016929
 20
-38.68918859156349
 30
0.0
 11
-10.66876032016936
 21
-1.12367182724054
 31
0.0
  0
LINE
  5
1C9
330
1F
100
AcDbEntity
  8
1
  6
PHANTOM
 62
     2
100
AcDbLine
 10
-14.66876032016924
 20
-38.68918859156349
 30
0.0
 11
-14.66876032016924
 21
-45.93918859156349
 31
0.0
  0
LINE
  5
1CA
330
1F
100
AcDbEntity
  8
1
  6
Continuous
 62
     2
100
AcDbLine
 10
-14.66876032016924
 20
-38.68918859156349
 30
0.0
 11
-10.66876032016929
 21
-38.68918859156349
 31
0.0
  0
LINE
  5
1CB
330
1F
100
AcDbEntity
  8
1
  6
PHANTOM
 62
     2
100
AcDbLine
 10
-14.66876032016935
 20
-74.68918859156337
 30
0.0
 11
-14.66876032016924
 21
-88.6891885915635
 31
0.0
  0
LINE
  5
1CC
102
{ACAD_REACTORS
330
387
330
387
102
}
330
1F
100
AcDbEntity
  8
1
  6
Continuous
 62
     7
100
AcDbLine
 10
2.83123967983067
 20
-60.68918859156356
 30
0.0
 11
2.8312396798307
 21
-52.68918859156351
 31
0.0
  0
LINE
  5
1CD
330
1F
100
AcDbEntity
  8
1
  6
Continuous
 62
     7
100
AcDbLine
 10
2.83123967983047
 20
-88.68918859156331
 30
0.0
 11
2.83123967983067
 21
-60.68918859156356
 31
0.0
  0
LINE
  5
1CE
330
1F
100
AcDbEntity
  8
1
  6
PHANTOM
 62
     2
100
AcDbLine
 10
46.83123967983067
 20
-94.46491919866698
 30
0.0
 11
46.83123967983067
 21
-92.68918859156351
 31
0.0
  0
LINE
  5
1CF
330
1F
100
AcDbEntity
  8
1
  6
PHANTOM
 62
     2
100
AcDbLine
 10
46.83123967983067
 20
-52.68918859156351
 30
0.0
 11
46.83123967983067
 21
-50.68471859187277
 31
0.0
  0
LINE
  5
1D0
102
{ACAD_REACTORS
330
387
330
387
102
}
330
1F
100
AcDbEntity
  8
1
  6
Continuous
 62
     7
100
AcDbLine
 10
2.8312396798307
 20
-52.68918859156351
 30
0.0
 11
46.83123967983067
 21
-52.68918859156351
 31
0.0
  0
LINE
  5
1D1
102
{ACAD_REACTORS
330
387
330
387
102
}
330
1F
100
AcDbEntity
  8
1
  6
Continuous
 62
     7
100
AcDbLine
 10
2.83123967983047
 20
-92.68918859156351
 30
0.0
 11
2.83123967983047
 21
-88.68918859156331
 31
0.0
  0
LINE
  5
1D2
102
{ACAD_REACTORS
330
387
330
387
102
}
330
1F
100
AcDbEntity
  8
1
  6
PHANTOM
 62
     2
100
AcDbLine
 10
46.83123967983067
 20
-92.68918859156351
 30
0.0
 11
46.83123967983067
 21
-52.68918859156351
 31
0.0
  0
LINE
  5
1D3
102
{ACAD_REACTORS
330
387
330
387
102
}
330
1F
100
AcDbEntity
  8
1
  6
Continuous
 62
     7
100
AcDbLine
 10
46.83123967983067
 20
-92.68918859156351
 30
0.0
 11
2.83123967983047
 21
-92.68918859156351
 31
0.0
  0
LINE
  5
1D4
102
{ACAD_REACTORS
330
387
330
387
102
}
330
1F
100
AcDbEntity
  8
1
  6
Continuous
 62
     7
100
AcDbLine
 10
12.83123967983047
 20
-88.68918859156332
 30
0.0
 11
36.83123967983045
 21
-88.68918859156352
 31
0.0
  0
LINE
  5
1D5
330
1F
100
AcDbEntity
  8
1
  6
DOT_CENTER
 62
     2
100
AcDbLine
 10
41.78744366190571
 20
-74.68918859156327
 30
0.0
 11
1.14973931352895
 21
-74.68918859156327
 31
0.0
  0
LINE
  5
1D6
330
1F
100
AcDbEntity
  8
1
  6
Continuous
 62
     7
100
AcDbLine
 10
-10.66876032016929
 20
-74.68918859156351
 30
0.0
 11
-10.66876032016941
 21
-60.68918859156349
 31
0.0
  0
LINE
  5
1D7
330
1F
100
AcDbEntity
  8
1
  6
Continuous
 62
     7
100
AcDbLine
 10
-32.16876032016926
 20
-74.68918859156351
 30
0.0
 11
-10.66876032016929
 21
-74.68918859156351
 31
0.0
  0
LINE
  5
1D8
102
{ACAD_REACTORS
330
38C
330
38C
102
}
330
1F
100
AcDbEntity
  8
1
  6
Continuous
 62
     7
100
AcDbLine
 10
-41.66876032016923
 20
-74.68918859156351
 30
0.0
 11
-41.66876032016923
 21
-92.68918859156351
 31
0.0
  0
LINE
  5
1D9
102
{ACAD_REACTORS
330
38C
330
38C
102
}
330
1F
100
AcDbEntity
  8
1
  6
Continuous
 62
     7
100
AcDbLine
 10
-41.66876032016923
 20
-74.68918859156351
 30
0.0
 11
-32.16876032016926
 21
-74.68918859156351
 31
0.0
  0
LINE
  5
1DA
330
1F
100
AcDbEntity
  8
1
  6
DOT_CENTER
 62
     2
100
AcDbLine
 10
-10.66876032016936
 20
-1.12367182724054
 30
0.0
 11
-13.3784462129162
 21
-1.12367182724053
 31
0.0
  0
LINE
  5
1DB
102
{ACAD_REACTORS
330
38D
330
38D
102
}
330
1F
100
AcDbEntity
  8
1
  6
Continuous
 62
     7
100
AcDbLine
 10
-10.66876032016941
 20
-60.68918859156349
 30
0.0
 11
-10.66876032016929
 21
-53.68918859156349
 31
0.0
  0
LINE
  5
1DC
330
1F
100
AcDbEntity
  8
1
  6
DOT_CENTER
 62
     2
100
AcDbLine
 10
-182.91485230427
 20
79.38535147101099
 30
0.0
 11
-158.91485230427
 21
79.385351471011
 31
0.0
  0
LINE
  5
1DD
330
1F
100
AcDbEntity
  8
1
  6
DASHED
 62
     2
100
AcDbLine
 10
-182.91485230427
 20
59.38535147101105
 30
0.0
 11
-182.91485230427
 21
79.38535147101099
 31
0.0
  0
LINE
  5
1DE
330
1F
100
AcDbEntity
  8
1
  6
DOT_CENTER
 62
     2
100
AcDbLine
 10
-182.91485230427
 20
-120.614648528989
 30
0.0
 11
-158.91485230427
 21
-120.614648528989
 31
0.0
  0
LINE
  5
1DF
330
1F
100
AcDbEntity
  8
1
  6
DASHED
 62
     2
100
AcDbLine
 10
-182.91485230427
 20
-100.3163184076297
 30
0.0
 11
-182.91485230427
 21
-100.614648528989
 31
0.0
  0
LINE
  5
1E0
330
1F
100
AcDbEntity
  8
1
  6
Continuous
 62
     7
100
AcDbLine
 10
-182.91485230427
 20
16.38535147101105
 30
0.0
 11
-182.91485230427
 21
59.38535147101105
 31
0.0
  0
LINE
  5
1E1
330
1F
100
AcDbEntity
  8
1
  6
Continuous
 62
     7
100
AcDbLine
 10
-182.91485230427
 20
-55.61464852898895
 30
0.0
 11
-182.91485230427
 21
16.38535147101105
 31
0.0
  0
LINE
  5
1E2
330
1F
100
AcDbEntity
  8
1
  6
Continuous
 62
     7
100
AcDbLine
 10
-182.91485230427
 20
-100.614648528989
 30
0.0
 11
-182.91485230427
 21
-55.61464852898895
 31
0.0
  0
LINE
  5
1E3
330
1F
100
AcDbEntity
  8
1
  6
DOT_CENTER
 62
     2
100
AcDbLine
 10
-198.6339311914812
 20
45.38535147101105
 30
0.0
 11
-196.91485230427
 21
45.38535147101105
 31
0.0
  0
LINE
  5
1E4
330
1F
100
AcDbEntity
  8
1
  6
DOT_CENTER
 62
     2
100
AcDbLine
 10
-166.204563032309
 20
-86.61464852898895
 30
0.0
 11
-198.6339311914812
 21
-86.61464852898895
 31
0.0
  0
LINE
  5
1E5
330
1F
100
AcDbEntity
  8
1
  6
Continuous
 62
     7
100
AcDbLine
 10
-200.91485230427
 20
-55.61464852898895
 30
0.0
 11
-200.91485230427
 21
-120.614648528989
 31
0.0
  0
LINE
  5
1E6
330
1F
100
AcDbEntity
  8
1
  6
Continuous
 62
     7
100
AcDbLine
 10
-196.91485230427
 20
-55.61464852898895
 30
0.0
 11
-196.91485230427
 21
-77.1146485289887
 31
0.0
  0
LINE
  5
1E7
330
1F
100
AcDbEntity
  8
1
  6
Continuous
 62
     7
100
AcDbLine
 10
-158.91485230427
 20
-55.61464852898895
 30
0.0
 11
-158.91485230427
 21
-120.614648528989
 31
0.0
  0
LINE
  5
1E8
102
{ACAD_REACTORS
330
38B
330
38B
102
}
330
1F
100
AcDbEntity
  8
1
  6
Continuous
 62
     7
100
AcDbLine
 10
-111.3573326447174
 20
-55.61464852898895
 30
0.0
 11
-111.3573326447174
 21
-120.614648528989
 31
0.0
  0
LINE
  5
1E9
102
{ACAD_REACTORS
330
38B
330
38B
102
}
330
1F
100
AcDbEntity
  8
1
  6
Continuous
 62
     7
100
AcDbLine
 10
-99.85733264471742
 20
-55.61464852898895
 30
0.0
 11
-99.85733264471742
 21
-100.614648528989
 31
0.0
  0
LINE
  5
1EA
330
1F
100
AcDbEntity
  8
1
  6
Continuous
 62
     7
100
AcDbLine
 10
-68.35733264471742
 20
-55.61464852898895
 30
0.0
 11
-68.35733264471742
 21
-100.614648528989
 31
0.0
  0
LINE
  5
1EB
330
1F
100
AcDbEntity
  8
1
  6
Continuous
 62
     7
100
AcDbLine
 10
-55.35733264471736
 20
-55.61464852898895
 30
0.0
 11
-55.35733264471736
 21
79.38535147101099
 31
0.0
  0
LINE
  5
1EC
330
1F
100
AcDbEntity
  8
1
  6
Continuous
 62
     7
100
AcDbLine
 10
-68.35733264471742
 20
14.38535147101105
 30
0.0
 11
-68.35733264471742
 21
-55.61464852898895
 31
0.0
  0
LINE
  5
1ED
102
{ACAD_REACTORS
330
38B
330
38B
102
}
330
1F
100
AcDbEntity
  8
1
  6
Continuous
 62
     7
100
AcDbLine
 10
-99.85733264471742
 20
16.38535147101105
 30
0.0
 11
-99.85733264471742
 21
-55.61464852898895
 31
0.0
  0
LINE
  5
1EE
330
1F
100
AcDbEntity
  8
1
  6
Continuous
 62
     7
100
AcDbLine
 10
-158.91485230427
 20
16.38535147101104
 30
0.0
 11
-158.91485230427
 21
-55.61464852898895
 31
0.0
  0
LINE
  5
1EF
330
1F
100
AcDbEntity
  8
1
  6
Continuous
 62
     7
100
AcDbLine
 10
-196.91485230427
 20
16.38535147101105
 30
0.0
 11
-196.91485230427
 21
-20.61464852898895
 31
0.0
  0
LINE
  5
1F0
330
1F
100
AcDbEntity
  8
1
  6
Continuous
 62
     7
100
AcDbLine
 10
-200.91485230427
 20
16.38535147101105
 30
0.0
 11
-200.91485230427
 21
-55.61464852898895
 31
0.0
  0
LINE
  5
1F1
102
{ACAD_REACTORS
330
38D
330
38D
102
}
330
1F
100
AcDbEntity
  8
1
  6
Continuous
 62
     7
100
AcDbLine
 10
-10.66876032016941
 20
-60.68918859156349
 30
0.0
 11
-0.66876032016924
 21
-60.68918859156354
 31
0.0
  0
LINE
  5
1F2
102
{ACAD_REACTORS
330
38C
330
38C
102
}
330
1F
100
AcDbEntity
  8
1
  6
Continuous
 62
     7
100
AcDbLine
 10
-10.66876032016924
 20
-88.6891885915635
 30
0.0
 11
-32.16876032016922
 21
-88.68918859156351
 31
0.0
  0
LINE
  5
1F3
330
1F
100
AcDbEntity
  8
1
  6
Continuous
 62
     7
100
AcDbLine
 10
-10.66876032016924
 20
-88.6891885915635
 30
0.0
 11
-10.66876032016929
 21
-74.68918859156351
 31
0.0
  0
LINE
  5
1F4
102
{ACAD_REACTORS
330
389
330
389
102
}
330
1F
100
AcDbEntity
  8
1
  6
Continuous
 62
     7
100
AcDbLine
 10
-68.35733264471742
 20
-100.614648528989
 30
0.0
 11
-68.35733264471742
 21
-120.614648528989
 31
0.0
  0
LINE
  5
1F5
102
{ACAD_REACTORS
330
38B
330
38B
102
}
330
1F
100
AcDbEntity
  8
1
  6
Continuous
 62
     7
100
AcDbLine
 10
-99.85733264471742
 20
-100.614648528989
 30
0.0
 11
-78.35733264471742
 21
-100.614648528989
 31
0.0
  0
LINE
  5
1F6
102
{ACAD_REACTORS
330
38B
330
38B
102
}
330
1F
100
AcDbEntity
  8
1
  6
Continuous
 62
     7
100
AcDbLine
 10
-99.85733264471742
 20
59.38535147101106
 30
0.0
 11
-99.85733264471742
 21
16.38535147101105
 31
0.0
  0
LINE
  5
1F7
330
1F
100
AcDbEntity
  8
1
  6
Continuous
 62
     7
100
AcDbLine
 10
-68.35733264471742
 20
59.38535147101105
 30
0.0
 11
-68.35733264471742
 21
14.38535147101105
 31
0.0
  0
LINE
  5
1F8
102
{ACAD_REACTORS
330
38A
330
38A
102
}
330
1F
100
AcDbEntity
  8
1
  6
Continuous
 62
     7
100
AcDbLine
 10
-68.35733264471742
 20
59.38535147101105
 30
0.0
 11
-78.35733264471742
 21
59.38535147101105
 31
0.0
  0
LINE
  5
1F9
330
1F
100
AcDbEntity
  8
1
  6
DOT_CENTER
 62
     2
100
AcDbLine
 10
-68.35733264471742
 20
-120.614648528989
 30
0.0
 11
-55.35733264471736
 21
-120.614648528989
 31
0.0
  0
LINE
  5
1FA
102
{ACAD_REACTORS
330
38A
330
38A
102
}
330
1F
100
AcDbEntity
  8
1
  6
Continuous
 62
     7
100
AcDbLine
 10
-68.35733264471742
 20
79.385351471011
 30
0.0
 11
-68.35733264471742
 21
59.38535147101105
 31
0.0
  0
LINE
  5
1FB
330
1F
100
AcDbEntity
  8
1
  6
DOT_CENTER
 62
     2
100
AcDbLine
 10
-55.35733264471736
 20
-120.614648528989
 30
0.0
 11
-50.84744871881924
 21
-120.614648528989
 31
0.0
  0
LINE
  5
1FC
330
1F
100
AcDbEntity
  8
1
  6
DOT_CENTER
 62
     2
100
AcDbLine
 10
-68.35733264471742
 20
79.385351471011
 30
0.0
 11
-55.35733264471736
 21
79.38535147101099
 31
0.0
  0
LINE
  5
1FD
330
1F
100
AcDbEntity
  8
1
  6
Continuous
 62
     7
100
AcDbLine
 10
-55.35733264471736
 20
-120.614648528989
 30
0.0
 11
-55.35733264471736
 21
-55.61464852898895
 31
0.0
  0
LINE
  5
1FE
102
{ACAD_REACTORS
330
38B
330
38B
102
}
330
1F
100
AcDbEntity
  8
1
  6
DOT_CENTER
 62
     2
100
AcDbLine
 10
-111.3573326447174
 20
-120.614648528989
 30
0.0
 11
-78.35733264471742
 21
-120.614648528989
 31
0.0
  0
LINE
  5
1FF
102
{ACAD_REACTORS
330
38B
330
38B
102
}
330
1F
100
AcDbEntity
  8
1
  6
DOT_CENTER
 62
     2
100
AcDbLine
 10
-111.3573326447174
 20
79.385351471011
 30
0.0
 11
-78.35733264471742
 21
79.385351471011
 31
0.0
  0
LINE
  5
200
102
{ACAD_REACTORS
330
38B
330
38B
102
}
330
1F
100
AcDbEntity
  8
1
  6
Continuous
 62
     7
100
AcDbLine
 10
-111.3573326447174
 20
79.385351471011
 30
0.0
 11
-111.3573326447174
 21
16.38535147101105
 31
0.0
  0
LINE
  5
201
330
1F
100
AcDbEntity
  8
1
  6
DOT_CENTER
 62
     2
100
AcDbLine
 10
-114.119084989988
 20
-120.614648528989
 30
0.0
 11
-111.3573326447174
 21
-120.614648528989
 31
0.0
  0
LINE
  5
202
330
1F
100
AcDbEntity
  8
1
  6
DOT_CENTER
 62
     2
100
AcDbLine
 10
-114.119084989988
 20
-20.61464852898895
 30
0.0
 11
-50.84744871881924
 21
-20.61464852898895
 31
0.0
  0
LINE
  5
203
330
1F
100
AcDbEntity
  8
1
  6
DOT_CENTER
 62
     2
100
AcDbLine
 10
-114.119084989988
 20
79.385351471011
 30
0.0
 11
-111.3573326447174
 21
79.385351471011
 31
0.0
  0
LINE
  5
204
330
1F
100
AcDbEntity
  8
1
  6
DOT_CENTER
 62
     2
100
AcDbLine
 10
-158.91485230427
 20
-120.614648528989
 30
0.0
 11
-138.349335539947
 21
-120.614648528989
 31
0.0
  0
LINE
  5
205
330
1F
100
AcDbEntity
  8
1
  6
DOT_CENTER
 62
     2
100
AcDbLine
 10
-158.91485230427
 20
79.385351471011
 30
0.0
 11
-138.349335539947
 21
79.385351471011
 31
0.0
  0
LINE
  5
206
330
1F
100
AcDbEntity
  8
1
  6
Continuous
 62
     7
100
AcDbLine
 10
-158.91485230427
 20
79.385351471011
 30
0.0
 11
-158.91485230427
 21
16.38535147101104
 31
0.0
  0
LINE
  5
207
330
1F
100
AcDbEntity
  8
1
  6
DOT_CENTER
 62
     2
100
AcDbLine
 10
-200.91485230427
 20
-120.614648528989
 30
0.0
 11
-182.91485230427
 21
-120.614648528989
 31
0.0
  0
LINE
  5
208
330
1F
100
AcDbEntity
  8
1
  6
DOT_CENTER
 62
     2
100
AcDbLine
 10
-200.91485230427
 20
79.385351471011
 30
0.0
 11
-182.91485230427
 21
79.38535147101099
 31
0.0
  0
LINE
  5
209
330
1F
100
AcDbEntity
  8
1
  6
Continuous
 62
     7
100
AcDbLine
 10
-200.91485230427
 20
79.385351471011
 30
0.0
 11
-200.91485230427
 21
16.38535147101105
 31
0.0
  0
LINE
  5
20A
330
1F
100
AcDbEntity
  8
1
  6
DOT_CENTER
 62
     2
100
AcDbLine
 10
-138.349335539947
 20
79.385351471011
 30
0.0
 11
-138.349335539947
 21
81.77063309968568
 31
0.0
  0
LINE
  5
20B
330
1F
100
AcDbEntity
  8
1
  6
DOT_CENTER
 62
     2
100
AcDbLine
 10
-138.349335539947
 20
-120.614648528989
 30
0.0
 11
-138.349335539947
 21
-123.894846638247
 31
0.0
  0
LINE
  5
20C
330
1F
100
AcDbEntity
  8
1
  6
DOT_CENTER
 62
     2
100
AcDbLine
 10
-138.349335539947
 20
-120.614648528989
 30
0.0
 11
-135.3938869162998
 21
-120.614648528989
 31
0.0
  0
LINE
  5
20D
330
1F
100
AcDbEntity
  8
1
  6
DOT_CENTER
 62
     2
100
AcDbLine
 10
-138.349335539947
 20
79.385351471011
 30
0.0
 11
-135.3938869162998
 21
79.385351471011
 31
0.0
  0
LINE
  5
20E
330
1F
100
AcDbEntity
  8
1
  6
DOT_CENTER
 62
     2
100
AcDbLine
 10
-138.349335539947
 20
79.385351471011
 30
0.0
 11
-138.349335539947
 21
-120.614648528989
 31
0.0
  0
LINE
  5
20F
330
1F
100
AcDbEntity
  8
1
  6
DOT_CENTER
 62
     2
100
AcDbLine
 10
-203.6556346287789
 20
-120.614648528989
 30
0.0
 11
-200.91485230427
 21
-120.614648528989
 31
0.0
  0
LINE
  5
210
330
1F
100
AcDbEntity
  8
1
  6
DOT_CENTER
 62
     2
100
AcDbLine
 10
-203.6556346287789
 20
79.385351471011
 30
0.0
 11
-200.91485230427
 21
79.385351471011
 31
0.0
  0
LINE
  5
211
102
{ACAD_REACTORS
330
38C
330
38C
102
}
330
1F
100
AcDbEntity
  8
1
  6
Continuous
 62
     7
100
AcDbLine
 10
-0.66876032016924
 20
-92.68918859156351
 30
0.0
 11
-41.66876032016923
 21
-92.68918859156351
 31
0.0
  0
LINE
  5
212
102
{ACAD_REACTORS
330
38C
330
38C
102
}
330
1F
100
AcDbEntity
  8
1
  6
Continuous
 62
     7
100
AcDbLine
 10
-0.66876032016924
 20
-88.68918859156351
 30
0.0
 11
-0.66876032016924
 21
-92.68918859156351
 31
0.0
  0
LINE
  5
213
102
{ACAD_REACTORS
330
38D
330
38D
102
}
330
1F
100
AcDbEntity
  8
1
  6
DOT_CENTER
 62
     2
100
AcDbLine
 10
12.33123967983078
 20
-1.12367182724053
 30
0.0
 11
-10.66876032016936
 21
-1.12367182724054
 31
0.0
  0
LINE
  5
214
102
{ACAD_REACTORS
330
38D
330
38D
102
}
330
1F
100
AcDbEntity
  8
1
  6
Continuous
 62
     7
100
AcDbLine
 10
12.33123967983078
 20
-47.68918859156351
 30
0.0
 11
12.33123967983078
 21
-1.12367182724053
 31
0.0
  0
LINE
  5
215
102
{ACAD_REACTORS
330
38D
330
38D
102
}
330
1F
100
AcDbEntity
  8
1
  6
Continuous
 62
     7
100
AcDbLine
 10
-0.66876032016936
 20
-47.68918859156351
 30
0.0
 11
12.33123967983078
 21
-47.68918859156351
 31
0.0
  0
LINE
  5
216
102
{ACAD_REACTORS
330
38D
330
38D
102
}
330
1F
100
AcDbEntity
  8
1
  6
Continuous
 62
     7
100
AcDbLine
 10
-0.66876032016924
 20
-60.68918859156354
 30
0.0
 11
-0.66876032016936
 21
-47.68918859156351
 31
0.0
  0
LINE
  5
217
102
{ACAD_REACTORS
330
38C
330
38C
102
}
330
1F
100
AcDbEntity
  8
1
  6
Continuous
 62
     7
100
AcDbLine
 10
-32.16876032016922
 20
-88.68918859156351
 30
0.0
 11
-32.16876032016926
 21
-74.68918859156351
 31
0.0
  0
LINE
  5
218
330
1F
100
AcDbEntity
  8
1
  6
Continuous
 62
     7
100
AcDbLine
 10
-0.66876032016924
 20
-60.68918859156354
 30
0.0
 11
-0.66876032016924
 21
-88.68918859156351
 31
0.0
  0
LINE
  5
219
102
{ACAD_REACTORS
330
38C
330
38C
102
}
330
1F
100
AcDbEntity
  8
1
  6
Continuous
 62
     7
100
AcDbLine
 10
-0.66876032016924
 20
-88.68918859156351
 30
0.0
 11
-10.66876032016924
 21
-88.6891885915635
 31
0.0
  0
LINE
  5
21A
330
1F
100
AcDbEntity
  8
1
  6
Continuous
 62
     2
100
AcDbLine
 10
0.33123967983076
 20
-49.42123939913243
 30
0.0
 11
0.33123967983076
 21
-48.68918859156351
 31
0.0
  0
LINE
  5
21B
330
1F
100
AcDbEntity
  8
1
  6
Continuous
 62
     2
100
AcDbLine
 10
1.64064075658916
 20
-51.68918859156351
 30
0.0
 11
0.33123967983076
 21
-49.42123939913243
 31
0.0
  0
LINE
  5
21C
330
1F
100
AcDbEntity
  8
1
  6
Continuous
 62
     2
100
AcDbLine
 10
10.02183860307224
 20
-51.68918859156351
 30
0.0
 11
1.64064075658916
 21
-51.68918859156351
 31
0.0
  0
LINE
  5
21D
330
1F
100
AcDbEntity
  8
1
  6
Continuous
 62
     2
100
AcDbLine
 10
11.33123967983078
 20
-49.42123939913243
 30
0.0
 11
10.02183860307224
 21
-51.68918859156351
 31
0.0
  0
LINE
  5
21E
330
1F
100
AcDbEntity
  8
1
  6
Continuous
 62
     2
100
AcDbLine
 10
11.33123967983078
 20
-48.68918859156351
 30
0.0
 11
11.33123967983078
 21
-49.42123939913243
 31
0.0
  0
LINE
  5
21F
330
1F
100
AcDbEntity
  8
1
  6
Continuous
 62
     2
100
AcDbLine
 10
0.33123967983076
 20
-48.68918859156351
 30
0.0
 11
11.33123967983078
 21
-48.68918859156351
 31
0.0
  0
LINE
  5
220
330
1F
100
AcDbEntity
  8
1
  6
Continuous
 62
     2
100
AcDbLine
 10
12.33123967983078
 20
-49.68918859156351
 30
0.0
 11
12.33123967983078
 21
-47.68918859156351
 31
0.0
  0
LINE
  5
221
330
1F
100
AcDbEntity
  8
1
  6
Continuous
 62
     2
100
AcDbLine
 10
10.59918887226189
 20
-52.68918859156351
 30
0.0
 11
12.33123967983078
 21
-49.68918859156351
 31
0.0
  0
LINE
  5
222
330
1F
100
AcDbEntity
  8
1
  6
Continuous
 62
     2
100
AcDbLine
 10
1.06329048739954
 20
-52.68918859156351
 30
0.0
 11
2.8312396798307
 21
-52.68918859156351
 31
0.0
  0
LINE
  5
223
330
1F
100
AcDbEntity
  8
1
  6
Continuous
 62
     2
100
AcDbLine
 10
-0.66876032016924
 20
-49.68918859156351
 30
0.0
 11
1.06329048739954
 21
-52.68918859156351
 31
0.0
  0
LINE
  5
224
330
1F
100
AcDbEntity
  8
1
  6
DOT_CENTER
 62
     2
100
AcDbLine
 10
12.33123967983078
 20
-1.12367182724053
 30
0.0
 11
14.4310199439095
 21
-1.12367182724053
 31
0.0
  0
LINE
  5
225
330
1F
100
AcDbEntity
  8
1
  6
Continuous
 62
     7
100
AcDbLine
 10
-196.91485230427
 20
-20.61464852898895
 30
0.0
 11
-196.91485230427
 21
-55.61464852898895
 31
0.0
  0
LINE
  5
226
330
1F
100
AcDbEntity
  8
1
  6
Continuous
 62
     7
100
AcDbLine
 10
-168.91485230427
 20
45.38535147101105
 30
0.0
 11
-168.9148523042699
 21
16.38535147101105
 31
0.0
  0
LINE
  5
227
330
1F
100
AcDbEntity
  8
1
  6
Continuous
 62
     7
100
AcDbLine
 10
-196.91485230427
 20
45.38535147101105
 30
0.0
 11
-196.91485230427
 21
16.38535147101105
 31
0.0
  0
LINE
  5
228
330
1F
100
AcDbEntity
  8
1
  6
Continuous
 62
     7
100
AcDbLine
 10
-196.91485230427
 20
-77.1146485289887
 30
0.0
 11
-196.91485230427
 21
-86.61464852898895
 31
0.0
  0
LINE
  5
229
330
1F
100
AcDbEntity
  8
1
  6
Continuous
 62
     7
100
AcDbLine
 10
-168.91485230427
 20
-77.11464852898868
 30
0.0
 11
-168.91485230427
 21
-84.6146485289892
 31
0.0
  0
LINE
  5
22A
330
1F
100
AcDbEntity
  8
1
  6
DOT_CENTER
 62
     2
100
AcDbLine
 10
-203.657794284912
 20
-20.61464852898895
 30
0.0
 11
-144.324895871924
 21
-20.61464852898895
 31
0.0
  0
LINE
  5
22B
330
1F
100
AcDbEntity
  8
1
  6
DOT_CENTER
 62
     2
100
AcDbLine
 10
-144.324895871924
 20
-20.61464852898895
 30
0.0
 11
-135.3938869162998
 21
-20.61464852898895
 31
0.0
  0
LINE
  5
22C
330
1F
100
AcDbEntity
  8
1
  6
Continuous
 62
     7
100
AcDbLine
 10
-78.35733264471742
 20
59.38535147101105
 30
0.0
 11
-78.35733264471742
 21
-100.614648528989
 31
0.0
  0
LINE
  5
22D
102
{ACAD_REACTORS
330
389
330
389
102
}
330
1F
100
AcDbEntity
  8
1
  6
Continuous
 62
     7
100
AcDbLine
 10
-78.35733264471742
 20
-100.614648528989
 30
0.0
 11
-68.35733264471742
 21
-100.614648528989
 31
0.0
  0
LINE
  5
22E
102
{ACAD_REACTORS
330
38B
330
38B
102
}
330
1F
100
AcDbEntity
  8
1
  6
Continuous
 62
     7
100
AcDbLine
 10
-78.35733264471742
 20
59.38535147101105
 30
0.0
 11
-99.85733264471742
 21
59.38535147101106
 31
0.0
  0
LINE
  5
22F
102
{ACAD_REACTORS
330
389
330
389
330
38B
330
38B
102
}
330
1F
100
AcDbEntity
  8
1
  6
DASHED
 62
     2
100
AcDbLine
 10
-78.35733264471742
 20
-100.614648528989
 30
0.0
 11
-78.35733264471742
 21
-120.614648528989
 31
0.0
  0
LINE
  5
230
102
{ACAD_REACTORS
330
389
330
389
102
}
330
1F
100
AcDbEntity
  8
1
  6
DOT_CENTER
 62
     2
100
AcDbLine
 10
-78.35733264471742
 20
-120.614648528989
 30
0.0
 11
-68.35733264471742
 21
-120.614648528989
 31
0.0
  0
LINE
  5
231
102
{ACAD_REACTORS
330
38A
330
38A
330
38B
330
38B
102
}
330
1F
100
AcDbEntity
  8
1
  6
DASHED
 62
     2
100
AcDbLine
 10
-78.35733264471742
 20
59.38535147101105
 30
0.0
 11
-78.35733264471742
 21
79.385351471011
 31
0.0
  0
LINE
  5
232
102
{ACAD_REACTORS
330
38A
330
38A
102
}
330
1F
100
AcDbEntity
  8
1
  6
DOT_CENTER
 62
     2
100
AcDbLine
 10
-78.35733264471742
 20
79.385351471011
 30
0.0
 11
-68.35733264471742
 21
79.385351471011
 31
0.0
  0
LINE
  5
233
330
1F
100
AcDbEntity
  8
1
  6
Continuous
 62
     2
100
AcDbLine
 10
-25.3596413448097
 20
16.7452352307269
 30
0.0
 11
-12.6758187227798
 21
-12.42226436097911
 31
0.0
  0
LINE
  5
234
330
1F
100
AcDbEntity
  8
1
  6
Continuous
 62
     2
100
AcDbLine
 10
-25.3596413448097
 20
16.7452352307269
 30
0.0
 11
23.4762981686953
 21
16.7452352307269
 31
0.0
  0
LINE
  5
235
330
1F
100
AcDbEntity
  8
1
  6
PHANTOM
 62
     2
100
AcDbLine
 10
-14.66876032016941
 20
-66.6891885915635
 30
0.0
 11
-14.66876032016935
 21
-74.68918859156337
 31
0.0
  0
LINE
  5
236
330
1F
100
AcDbEntity
  8
1
  6
PHANTOM
 62
     2
100
AcDbLine
 10
-14.66876032016924
 20
-51.43918859156349
 30
0.0
 11
-14.66876032016947
 21
-53.68918859156349
 31
0.0
  0
LINE
  5
237
330
1F
100
AcDbEntity
  8
1
  6
PHANTOM
 62
     2
100
AcDbLine
 10
-12.41876032016947
 20
-51.43918859156349
 30
0.0
 11
-12.41876032016947
 21
-45.93918859156349
 31
0.0
  0
LINE
  5
238
330
1F
100
AcDbEntity
  8
1
  6
PHANTOM
 62
     2
100
AcDbLine
 10
-12.41876032016947
 20
-45.93918859156349
 30
0.0
 11
-14.66876032016947
 21
-43.68918859156349
 31
0.0
  0
LINE
  5
239
330
1F
100
AcDbEntity
  8
1
  6
PHANTOM
 62
     2
100
AcDbLine
 10
-14.66876032016924
 20
-31.43918859156349
 30
0.0
 11
-14.66876032016924
 21
-38.68918859156349
 31
0.0
  0
LINE
  5
23A
330
1F
100
AcDbEntity
  8
1
  6
PHANTOM
 62
     2
100
AcDbLine
 10
-10.66876032016947
 20
-45.93918859156349
 30
0.0
 11
-12.41876032016947
 21
-45.93918859156349
 31
0.0
  0
LINE
  5
23B
330
1F
100
AcDbEntity
  8
1
  6
PHANTOM
 62
     2
100
AcDbLine
 10
-12.41876032016947
 20
-51.43918859156349
 30
0.0
 11
-14.66876032016947
 21
-53.68918859156349
 31
0.0
  0
LINE
  5
23C
330
1F
100
AcDbEntity
  8
1
  6
PHANTOM
 62
     2
100
AcDbLine
 10
-14.66876032016924
 20
-45.93918859156349
 30
0.0
 11
-14.66876032016924
 21
-51.43918859156349
 31
0.0
  0
LINE
  5
23D
330
1F
100
AcDbEntity
  8
1
  6
PHANTOM
 62
     2
100
AcDbLine
 10
-10.66876032016947
 20
-51.43918859156349
 30
0.0
 11
-12.41876032016947
 21
-51.43918859156349
 31
0.0
  0
LINE
  5
23E
330
1F
100
AcDbEntity
  8
1
  6
PHANTOM
 62
     2
100
AcDbLine
 10
-9.16876032016935
 20
-48.68918859156349
 30
0.0
 11
-16.16876032016941
 21
-48.68918859156349
 31
0.0
  0
LINE
  5
23F
330
1F
100
AcDbEntity
  8
1
  6
PHANTOM
 62
     2
100
AcDbLine
 10
-12.41876032016947
 20
-31.43918859156349
 30
0.0
 11
-12.41876032016947
 21
-25.93918859156349
 31
0.0
  0
LINE
  5
240
330
1F
100
AcDbEntity
  8
1
  6
PHANTOM
 62
     2
100
AcDbLine
 10
-12.41876032016947
 20
-25.93918859156349
 30
0.0
 11
-14.66876032016947
 21
-23.68918859156349
 31
0.0
  0
LINE
  5
241
330
1F
100
AcDbEntity
  8
1
  6
PHANTOM
 62
     2
100
AcDbLine
 10
-14.66876032016941
 20
-18.68918859156349
 30
0.0
 11
-14.66876032016924
 21
-25.93918859156349
 31
0.0
  0
LINE
  5
242
330
1F
100
AcDbEntity
  8
1
  6
PHANTOM
 62
     2
100
AcDbLine
 10
-10.66876032016947
 20
-25.93918859156349
 30
0.0
 11
-12.41876032016947
 21
-25.93918859156349
 31
0.0
  0
LINE
  5
243
330
1F
100
AcDbEntity
  8
1
  6
PHANTOM
 62
     2
100
AcDbLine
 10
-12.41876032016947
 20
-31.43918859156349
 30
0.0
 11
-14.66876032016947
 21
-33.68918859156349
 31
0.0
  0
LINE
  5
244
330
1F
100
AcDbEntity
  8
1
  6
PHANTOM
 62
     2
100
AcDbLine
 10
-14.66876032016924
 20
-25.93918859156349
 30
0.0
 11
-14.66876032016924
 21
-31.43918859156349
 31
0.0
  0
LINE
  5
245
330
1F
100
AcDbEntity
  8
1
  6
PHANTOM
 62
     2
100
AcDbLine
 10
-10.66876032016947
 20
-31.43918859156349
 30
0.0
 11
-12.41876032016947
 21
-31.43918859156349
 31
0.0
  0
LINE
  5
246
330
1F
100
AcDbEntity
  8
1
  6
PHANTOM
 62
     2
100
AcDbLine
 10
-9.16876032016935
 20
-28.68918859156349
 30
0.0
 11
-16.16876032016941
 21
-28.68918859156349
 31
0.0
  0
LINE
  5
247
330
1F
100
AcDbEntity
  8
1
  6
PHANTOM
 62
     2
100
AcDbLine
 10
-6.16876032016935
 20
-82.1891885915635
 30
0.0
 11
-19.16876032016941
 21
-82.1891885915635
 31
0.0
  0
LINE
  5
248
330
1F
100
AcDbEntity
  8
1
  6
PHANTOM
 62
     2
100
AcDbLine
 10
-10.66876032016941
 20
-85.1891885915635
 30
0.0
 11
-14.66876032016941
 21
-85.1891885915635
 31
0.0
  0
LINE
  5
249
330
1F
100
AcDbEntity
  8
1
  6
PHANTOM
 62
     2
100
AcDbLine
 10
-10.66876032016941
 20
-79.18918859156355
 30
0.0
 11
-14.66876032016941
 21
-79.18918859156355
 31
0.0
  0
LINE
  5
24A
330
1F
100
AcDbEntity
  8
1
  6
PHANTOM
 62
     2
100
AcDbLine
 10
-10.66876032016941
 20
-84.58918859156347
 30
0.0
 11
-14.66876032016941
 21
-84.58918859156347
 31
0.0
  0
LINE
  5
24B
330
1F
100
AcDbEntity
  8
1
  6
PHANTOM
 62
     2
100
AcDbLine
 10
-10.66876032016941
 20
-79.78918859156346
 30
0.0
 11
-14.66876032016941
 21
-79.78918859156346
 31
0.0
  0
LINE
  5
24C
330
1F
100
AcDbEntity
  8
1
  6
PHANTOM
 62
     2
100
AcDbLine
 10
-10.66876032016929
 20
-18.68918859156349
 30
0.0
 11
-14.66876032016941
 21
-18.68918859156349
 31
0.0
  0
LINE
  5
24D
330
1F
100
AcDbEntity
  8
1
  6
PHANTOM
 62
     2
100
AcDbLine
 10
-10.66876032016941
 20
-70.1891885915635
 30
0.0
 11
-14.66876032016941
 21
-70.1891885915635
 31
0.0
  0
LINE
  5
24E
330
1F
100
AcDbEntity
  8
1
  6
PHANTOM
 62
     2
100
AcDbLine
 10
-10.66876032016941
 20
-64.1891885915635
 30
0.0
 11
-14.66876032016941
 21
-64.1891885915635
 31
0.0
  0
LINE
  5
24F
330
1F
100
AcDbEntity
  8
1
  6
PHANTOM
 62
     2
100
AcDbLine
 10
-10.66876032016941
 20
-69.58918859156347
 30
0.0
 11
-14.66876032016941
 21
-69.58918859156347
 31
0.0
  0
LINE
  5
250
330
1F
100
AcDbEntity
  8
1
  6
PHANTOM
 62
     2
100
AcDbLine
 10
-10.66876032016941
 20
-64.7891885915634
 30
0.0
 11
-14.66876032016941
 21
-64.7891885915634
 31
0.0
  0
LINE
  5
251
330
1F
100
AcDbEntity
  8
1
  6
PHANTOM
 62
     2
100
AcDbLine
 10
-6.16876032016935
 20
-67.1891885915635
 30
0.0
 11
-19.16876032016941
 21
-67.1891885915635
 31
0.0
  0
LINE
  5
252
330
1F
100
AcDbEntity
  8
1
  6
PHANTOM
 62
     2
100
AcDbLine
 10
-10.66876032016924
 20
-88.6891885915635
 30
0.0
 11
-10.66876032016941
 21
-71.68918859156383
 31
0.0
  0
LINE
  5
253
330
1F
100
AcDbEntity
  8
1
  6
DOT_CENTER
 62
     2
100
AcDbLine
 10
1.25861881877267
 20
-74.68918859156337
 30
0.0
 11
-14.66876032016935
 21
-74.68918859156337
 31
0.0
  0
LINE
  5
254
102
{ACAD_REACTORS
330
38B
330
38B
102
}
330
1F
100
AcDbEntity
  8
1
  6
Continuous
 62
     7
100
AcDbLine
 10
-111.3573326447174
 20
16.38535147101105
 30
0.0
 11
-111.3573326447174
 21
-55.61464852898895
 31
0.0
  0
LINE
  5
255
330
1F
100
AcDbEntity
  8
1
  6
DOT_CENTER
 62
     2
100
AcDbLine
 10
-55.35733264471736
 20
79.38535147101099
 30
0.0
 11
-50.84744871881924
 21
79.385351471011
 31
0.0
  0
LINE
  5
256
330
1F
100
AcDbEntity
  8
1
  6
Continuous
 62
     7
100
AcDbLine
 10
-168.9148523042699
 20
16.38535147101105
 30
0.0
 11
-168.9148523042699
 21
-59.61464852898895
 31
0.0
  0
LINE
  5
257
330
1F
100
AcDbEntity
  8
1
  6
Continuous
 62
     7
100
AcDbLine
 10
-168.9148523042699
 20
-59.61464852898895
 30
0.0
 11
-168.91485230427
 21
-77.11464852898868
 31
0.0
  0
LINE
  5
258
330
1F
100
AcDbEntity
  8
1
  6
DASHED
 62
     2
100
AcDbLine
 10
-182.91485230427
 20
-100.614648528989
 30
0.0
 11
-182.91485230427
 21
-120.614648528989
 31
0.0
  0
LINE
  5
259
330
1F
100
AcDbEntity
  8
1
  6
DOT_CENTER
 62
     2
100
AcDbLine
 10
-196.91485230427
 20
45.38535147101105
 30
0.0
 11
-168.91485230427
 21
45.38535147101105
 31
0.0
  0
LINE
  5
25A
330
1F
100
AcDbEntity
  8
1
  6
DOT_CENTER
 62
     2
100
AcDbLine
 10
-168.91485230427
 20
45.38535147101105
 30
0.0
 11
-166.204563032309
 21
45.38535147101105
 31
0.0
  0
LINE
  5
25B
330
1F
100
AcDbEntity
  8
1
  6
DOT_CENTER
 62
     2
100
AcDbLine
 10
146.5356570446656
 20
-89.61464852898895
 30
0.0
 11
151.0356570446656
 21
-89.61464852898895
 31
0.0
  0
LINE
  5
25C
330
1F
100
AcDbEntity
  8
1
  6
DOT_CENTER
 62
     2
100
AcDbLine
 10
161.5356570446656
 20
-89.61464852898895
 30
0.0
 11
166.0356570446656
 21
-89.61464852898895
 31
0.0
  0
LINE
  5
25D
330
1F
100
AcDbEntity
  8
1
  6
DOT_CENTER
 62
     2
100
AcDbLine
 10
163.7856570446656
 20
-91.86464852898901
 30
0.0
 11
163.7856570446656
 21
-87.36464852898895
 31
0.0
  0
LINE
  5
25E
330
1F
100
AcDbEntity
  8
1
  6
DOT_CENTER
 62
     2
100
AcDbLine
 10
151.0356570446656
 20
48.38535147101105
 30
0.0
 11
146.5356570446656
 21
48.38535147101105
 31
0.0
  0
LINE
  5
25F
330
1F
100
AcDbEntity
  8
1
  6
DOT_CENTER
 62
     2
100
AcDbLine
 10
148.7856570446656
 20
50.63535147101105
 30
0.0
 11
148.7856570446656
 21
46.13535147101105
 31
0.0
  0
LINE
  5
260
330
1F
100
AcDbEntity
  8
1
  6
DOT_CENTER
 62
     2
100
AcDbLine
 10
163.7856570446656
 20
46.13535147101105
 30
0.0
 11
163.7856570446656
 21
50.63535147101105
 31
0.0
  0
LINE
  5
261
330
1F
100
AcDbEntity
  8
1
  6
DOT_CENTER
 62
     2
100
AcDbLine
 10
166.0356570446656
 20
48.38535147101105
 30
0.0
 11
161.5356570446656
 21
48.38535147101105
 31
0.0
  0
LINE
  5
262
330
1F
100
AcDbEntity
  8
1
  6
Continuous
 62
     7
100
AcDbLine
 10
60.57232355093777
 20
-100.614648528989
 30
0.0
 11
60.57232355093777
 21
-57.61464852898895
 31
0.0
  0
LINE
  5
263
102
{ACAD_REACTORS
330
388
330
388
102
}
330
1F
100
AcDbEntity
  8
1
  6
DOT_CENTER
 62
     2
100
AcDbLine
 10
105.5723235509378
 20
-120.614648528989
 30
0.0
 11
105.5723235509378
 21
-57.61464852898895
 31
0.0
  0
LINE
  5
264
102
{ACAD_REACTORS
330
388
330
388
102
}
330
1F
100
AcDbEntity
  8
1
  6
Continuous
 62
     7
100
AcDbLine
 10
94.5723235509378
 20
-86.11464852898916
 30
0.0
 11
94.5723235509378
 21
-57.61464852898897
 31
0.0
  0
LINE
  5
265
330
1F
100
AcDbEntity
  8
1
  6
Continuous
 62
     7
100
AcDbLine
 10
60.57232355093777
 20
-57.61464852898895
 30
0.0
 11
60.57232355093777
 21
16.38535147101105
 31
0.0
  0
LINE
  5
266
102
{ACAD_REACTORS
330
388
330
388
102
}
330
1F
100
AcDbEntity
  8
1
  6
DOT_CENTER
 62
     2
100
AcDbLine
 10
105.5723235509378
 20
-57.61464852898895
 30
0.0
 11
105.5723235509378
 21
16.38535147101105
 31
0.0
  0
LINE
  5
267
102
{ACAD_REACTORS
330
388
330
388
102
}
330
1F
100
AcDbEntity
  8
1
  6
Continuous
 62
     7
100
AcDbLine
 10
94.5723235509378
 20
-57.61464852898897
 30
0.0
 11
94.5723235509378
 21
16.38535147101105
 31
0.0
  0
LINE
  5
268
330
1F
100
AcDbEntity
  8
1
  6
Continuous
 62
     7
100
AcDbLine
 10
134.2856570446656
 20
79.3853514710111
 30
0.0
 11
134.2856570446656
 21
16.38535147101106
 31
0.0
  0
LINE
  5
269
330
1F
100
AcDbEntity
  8
1
  6
Continuous
 62
     7
100
AcDbLine
 10
142.2856570446656
 20
-57.61464852898895
 30
0.0
 11
142.2856570446656
 21
16.38535147101105
 31
0.0
  0
LINE
  5
26A
330
1F
100
AcDbEntity
  8
1
  6
Continuous
 62
     7
100
AcDbLine
 10
174.2856570446656
 20
79.3853514710111
 30
0.0
 11
174.2856570446656
 21
16.38535147101105
 31
0.0
  0
LINE
  5
26B
330
1F
100
AcDbEntity
  8
1
  6
Continuous
 62
     7
100
AcDbLine
 10
170.2856570446656
 20
-57.61464852898895
 30
0.0
 11
170.2856570446656
 21
16.38535147101105
 31
0.0
  0
LINE
  5
26C
330
1F
100
AcDbEntity
  8
1
  6
DOT_CENTER
 62
     2
100
AcDbLine
 10
174.2856570446656
 20
79.3853514710111
 30
0.0
 11
176.7883995496208
 21
79.3853514710111
 31
0.0
  0
LINE
  5
26D
330
1F
100
AcDbEntity
  8
1
  6
DOT_CENTER
 62
     2
100
AcDbLine
 10
174.2856570446656
 20
-120.614648528989
 30
0.0
 11
176.7883995496208
 21
-120.614648528989
 31
0.0
  0
LINE
  5
26E
330
1F
100
AcDbEntity
  8
1
  6
Continuous
 62
     7
100
AcDbLine
 10
174.2856570446656
 20
-57.61464852898895
 30
0.0
 11
174.2856570446656
 21
-120.614648528989
 31
0.0
  0
LINE
  5
26F
330
1F
100
AcDbEntity
  8
1
  6
DOT_CENTER
 62
     2
100
AcDbLine
 10
134.2856570446656
 20
79.3853514710111
 30
0.0
 11
174.2856570446656
 21
79.3853514710111
 31
0.0
  0
LINE
  5
270
330
1F
100
AcDbEntity
  8
1
  6
DOT_CENTER
 62
     2
100
AcDbLine
 10
134.2856570446656
 20
-120.614648528989
 30
0.0
 11
174.2856570446656
 21
-120.614648528989
 31
0.0
  0
LINE
  5
271
330
1F
100
AcDbEntity
  8
1
  6
Continuous
 62
     7
100
AcDbLine
 10
134.2856570446656
 20
-55.61464852898895
 30
0.0
 11
134.2856570446656
 21
-120.614648528989
 31
0.0
  0
LINE
  5
272
330
1F
100
AcDbEntity
  8
1
  6
DOT_CENTER
 62
     2
100
AcDbLine
 10
132.1079838701278
 20
79.3853514710111
 30
0.0
 11
134.2856570446656
 21
79.3853514710111
 31
0.0
  0
LINE
  5
273
330
1F
100
AcDbEntity
  8
1
  6
DOT_CENTER
 62
     2
100
AcDbLine
 10
132.1079838701278
 20
-120.614648528989
 30
0.0
 11
134.2856570446656
 21
-120.614648528989
 31
0.0
  0
LINE
  5
274
330
1F
100
AcDbEntity
  8
1
  6
DOT_CENTER
 62
     2
100
AcDbLine
 10
132.1079838701278
 20
-20.61464852898896
 30
0.0
 11
176.7883995496208
 21
-20.61464852898896
 31
0.0
  0
LINE
  5
275
330
1F
100
AcDbEntity
  8
1
  6
DOT_CENTER
 62
     2
100
AcDbLine
 10
100.5723235509378
 20
79.3853514710111
 30
0.0
 11
108.7114859630035
 21
79.3853514710111
 31
0.0
  0
LINE
  5
276
102
{ACAD_REACTORS
330
388
330
388
102
}
330
1F
100
AcDbEntity
  8
1
  6
DOT_CENTER
 62
     2
100
AcDbLine
 10
60.57232355093777
 20
79.3853514710111
 30
0.0
 11
105.5723235509378
 21
79.3853514710111
 31
0.0
  0
LINE
  5
277
330
1F
100
AcDbEntity
  8
1
  6
DOT_CENTER
 62
     2
100
AcDbLine
 10
57.88961460838436
 20
79.3853514710111
 30
0.0
 11
60.57232355093777
 21
79.3853514710111
 31
0.0
  0
LINE
  5
278
330
1F
100
AcDbEntity
  8
1
  6
DOT_CENTER
 62
     2
100
AcDbLine
 10
100.5723235509378
 20
-120.614648528989
 30
0.0
 11
108.7114859630035
 21
-120.614648528989
 31
0.0
  0
LINE
  5
279
102
{ACAD_REACTORS
330
388
330
388
102
}
330
1F
100
AcDbEntity
  8
1
  6
DOT_CENTER
 62
     2
100
AcDbLine
 10
60.57232355093777
 20
-120.614648528989
 30
0.0
 11
105.5723235509378
 21
-120.614648528989
 31
0.0
  0
LINE
  5
27A
330
1F
100
AcDbEntity
  8
1
  6
DOT_CENTER
 62
     2
100
AcDbLine
 10
57.88961460838436
 20
-120.614648528989
 30
0.0
 11
60.57232355093777
 21
-120.614648528989
 31
0.0
  0
LINE
  5
27B
102
{ACAD_REACTORS
330
388
330
388
102
}
330
1F
100
AcDbEntity
  8
1
  6
Continuous
 62
     7
100
AcDbLine
 10
60.57232355093777
 20
59.38535147101106
 30
0.0
 11
60.57232355093777
 21
79.3853514710111
 31
0.0
  0
LINE
  5
27C
102
{ACAD_REACTORS
330
388
330
388
102
}
330
1F
100
AcDbEntity
  8
1
  6
Continuous
 62
     7
100
AcDbLine
 10
70.57232355093777
 20
59.38535147101106
 30
0.0
 11
60.57232355093777
 21
59.38535147101106
 31
0.0
  0
LINE
  5
27D
330
1F
100
AcDbEntity
  8
1
  6
Continuous
 62
     7
100
AcDbLine
 10
60.57232355093777
 20
16.38535147101105
 30
0.0
 11
60.57232355093777
 21
59.38535147101106
 31
0.0
  0
LINE
  5
27E
102
{ACAD_REACTORS
330
388
330
388
102
}
330
1F
100
AcDbEntity
  8
1
  6
Continuous
 62
     7
100
AcDbLine
 10
70.57232355093777
 20
44.88535147101106
 30
0.0
 11
70.57232355093777
 21
59.38535147101106
 31
0.0
  0
LINE
  5
27F
102
{ACAD_REACTORS
330
388
330
388
102
}
330
1F
100
AcDbEntity
  8
1
  6
Continuous
 62
     7
100
AcDbLine
 10
94.5723235509378
 20
44.88535147101106
 30
0.0
 11
70.57232355093777
 21
44.88535147101106
 31
0.0
  0
LINE
  5
280
102
{ACAD_REACTORS
330
388
330
388
102
}
330
1F
100
AcDbEntity
  8
1
  6
Continuous
 62
     7
100
AcDbLine
 10
94.5723235509378
 20
16.38535147101105
 30
0.0
 11
94.5723235509378
 21
44.88535147101106
 31
0.0
  0
LINE
  5
281
102
{ACAD_REACTORS
330
388
330
388
102
}
330
1F
100
AcDbEntity
  8
1
  6
Continuous
 62
     7
100
AcDbLine
 10
70.57232355093777
 20
-86.11464852898924
 30
0.0
 11
94.5723235509378
 21
-86.11464852898916
 31
0.0
  0
LINE
  5
282
102
{ACAD_REACTORS
330
388
330
388
102
}
330
1F
100
AcDbEntity
  8
1
  6
Continuous
 62
     7
100
AcDbLine
 10
70.57232355093777
 20
-100.614648528989
 30
0.0
 11
70.57232355093777
 21
-86.11464852898924
 31
0.0
  0
LINE
  5
283
102
{ACAD_REACTORS
330
388
330
388
102
}
330
1F
100
AcDbEntity
  8
1
  6
Continuous
 62
     7
100
AcDbLine
 10
60.57232355093777
 20
-100.614648528989
 30
0.0
 11
70.57232355093777
 21
-100.614648528989
 31
0.0
  0
LINE
  5
284
102
{ACAD_REACTORS
330
388
330
388
102
}
330
1F
100
AcDbEntity
  8
1
  6
Continuous
 62
     7
100
AcDbLine
 10
60.57232355093777
 20
-120.614648528989
 30
0.0
 11
60.57232355093777
 21
-100.614648528989
 31
0.0
  0
LINE
  5
285
102
{ACAD_REACTORS
330
388
330
388
102
}
330
1F
100
AcDbEntity
  8
1
  6
DOT_CENTER
 62
     2
100
AcDbLine
 10
105.5723235509378
 20
16.38535147101105
 30
0.0
 11
105.5723235509378
 21
79.3853514710111
 31
0.0
  0
LINE
  5
286
330
1F
100
AcDbEntity
  8
1
  6
DOT_CENTER
 62
     2
100
AcDbLine
 10
105.5723235509378
 20
-123.727582711116
 30
0.0
 11
105.5723235509378
 21
-120.614648528989
 31
0.0
  0
LINE
  5
287
330
1F
100
AcDbEntity
  8
1
  6
DOT_CENTER
 62
     2
100
AcDbLine
 10
105.5723235509378
 20
81.428151340832
 30
0.0
 11
105.5723235509378
 21
79.3853514710111
 31
0.0
  0
LINE
  5
288
330
1F
100
AcDbEntity
  8
1
  6
DOT_CENTER
 62
     2
100
AcDbLine
 10
57.97950735310474
 20
-20.61464852898896
 30
0.0
 11
107.5315854696968
 21
-20.61464852898896
 31
0.0
  0
LINE
  5
289
330
1F
100
AcDbEntity
  8
1
  6
Continuous
 62
     7
100
AcDbLine
 10
70.57232355093777
 20
32.88535147101108
 30
0.0
 11
70.57232355093777
 21
44.88535147101106
 31
0.0
  0
LINE
  5
28A
330
1F
100
AcDbEntity
  8
1
  6
Continuous
 62
     7
100
AcDbLine
 10
70.57232355093777
 20
-75.1146485289892
 30
0.0
 11
70.57232355093777
 21
-86.11464852898924
 31
0.0
  0
LINE
  5
28B
330
1F
100
AcDbEntity
  8
1
  6
DOT_CENTER
 62
     2
100
AcDbLine
 10
156.2856570446656
 20
-113.3289416243351
 30
0.0
 11
156.2856570446656
 21
73.0770835440912
 31
0.0
  0
LINE
  5
28C
330
1F
100
AcDbEntity
  8
1
  6
Continuous
 62
     7
100
AcDbLine
 10
142.2856570446656
 20
16.38535147101105
 30
0.0
 11
142.2856570446656
 21
32.13535147101108
 31
0.0
  0
LINE
  5
28D
330
1F
100
AcDbEntity
  8
1
  6
Continuous
 62
     7
100
AcDbLine
 10
170.2856570446656
 20
16.38535147101105
 30
0.0
 11
170.2856570446656
 21
44.88535147101109
 31
0.0
  0
LINE
  5
28E
330
1F
100
AcDbEntity
  8
1
  6
Continuous
 62
     7
100
AcDbLine
 10
158.5067177601509
 20
-86.1146485289892
 30
0.0
 11
158.0543313171585
 21
-86.11464852898919
 31
0.0
  0
LINE
  5
28F
330
1F
100
AcDbEntity
  8
1
  6
DOT_CENTER
 62
     2
100
AcDbLine
 10
148.7856570446656
 20
-91.86464852898901
 30
0.0
 11
148.7856570446656
 21
-87.36464852898895
 31
0.0
  0
LINE
  5
290
330
1F
100
AcDbEntity
  8
1
  6
DOT_CENTER
 62
     2
100
AcDbLine
 10
140.350396326272
 20
45.38535147101105
 30
0.0
 11
172.8712860186316
 21
45.38535147101105
 31
0.0
  0
LINE
  5
291
330
1F
100
AcDbEntity
  8
1
  6
DOT_CENTER
 62
     2
100
AcDbLine
 10
172.8712860186316
 20
-86.614648528989
 30
0.0
 11
140.350396326272
 21
-86.614648528989
 31
0.0
  0
LINE
  5
292
330
1F
100
AcDbEntity
  8
1
  6
Continuous
 62
     7
100
AcDbLine
 10
174.2856570446656
 20
16.38535147101105
 30
0.0
 11
174.2856570446656
 21
-57.61464852898895
 31
0.0
  0
LINE
  5
293
330
1F
100
AcDbEntity
  8
1
  6
Continuous
 62
     7
100
AcDbLine
 10
170.2856570446656
 20
-86.614648528989
 30
0.0
 11
170.2856570446656
 21
-86.11464852898922
 31
0.0
  0
LINE
  5
294
330
1F
100
AcDbEntity
  8
1
  6
Continuous
 62
     7
100
AcDbLine
 10
142.2856570446656
 20
-86.614648528989
 30
0.0
 11
142.2856570446656
 21
-86.11464852898916
 31
0.0
  0
LINE
  5
295
330
1F
100
AcDbEntity
  8
1
  6
Continuous
 62
     7
100
AcDbLine
 10
134.2856570446656
 20
16.38535147101106
 30
0.0
 11
134.2856570446656
 21
-55.61464852898895
 31
0.0
  0
LINE
  5
296
330
1F
100
AcDbEntity
  8
1
  6
Continuous
 62
     7
100
AcDbLine
 10
170.2856570446656
 20
44.88535147101109
 30
0.0
 11
170.2856570446656
 21
45.38535147101105
 31
0.0
  0
LINE
  5
297
330
1F
100
AcDbEntity
  8
1
  6
Continuous
 62
     7
100
AcDbLine
 10
142.2856570446656
 20
32.13535147101108
 30
0.0
 11
142.2856570446656
 21
45.38535147101105
 31
0.0
  0
LINE
  5
298
330
1F
100
AcDbEntity
  8
1
  6
Continuous
 62
     7
100
AcDbLine
 10
154.2856570446656
 20
44.88535147101106
 30
0.0
 11
158.2856570446656
 21
44.88535147101106
 31
0.0
  0
LINE
  5
299
330
1F
100
AcDbEntity
  8
1
  6
Continuous
 62
     7
100
AcDbLine
 10
170.2856570446656
 20
-86.11464852898922
 30
0.0
 11
170.2856570446656
 21
-57.61464852898895
 31
0.0
  0
LINE
  5
29A
330
1F
100
AcDbEntity
  8
1
  6
Continuous
 62
     7
100
AcDbLine
 10
142.2856570446656
 20
-86.11464852898916
 30
0.0
 11
142.2856570446656
 21
-74.11464852898919
 31
0.0
  0
LINE
  5
29B
330
1F
100
AcDbEntity
  8
1
  6
Continuous
 62
     7
100
AcDbLine
 10
142.2856570446656
 20
-74.11464852898919
 30
0.0
 11
142.2856570446656
 21
-57.61464852898895
 31
0.0
  0
LINE
  5
29C
330
1F
100
AcDbEntity
  8
1
  6
Continuous
 62
     7
100
AcDbLine
 10
158.0543313171585
 20
-86.11464852898919
 30
0.0
 11
154.5169827721728
 21
-86.11464852898919
 31
0.0
  0
LINE
  5
29D
102
{ACAD_REACTORS
330
387
330
387
102
}
330
1F
100
AcDbEntity
  8
1
  6
Continuous
 62
     7
100
AcDbLine
 10
2.83123967983047
 20
-88.68918859156331
 30
0.0
 11
12.83123967983047
 21
-88.68918859156332
 31
0.0
  0
LINE
  5
29E
330
1F
100
AcDbEntity
  8
1
  6
Continuous
 62
     7
100
AcDbLine
 10
12.83123967983067
 20
-60.68918859156356
 30
0.0
 11
12.83123967983047
 21
-88.68918859156332
 31
0.0
  0
LINE
  5
29F
102
{ACAD_REACTORS
330
387
330
387
102
}
330
1F
100
AcDbEntity
  8
1
  6
Continuous
 62
     7
100
AcDbLine
 10
12.83123967983067
 20
-60.68918859156356
 30
0.0
 11
2.83123967983067
 21
-60.68918859156356
 31
0.0
  0
LINE
  5
2A0
102
{ACAD_REACTORS
330
387
330
387
102
}
330
1F
100
AcDbEntity
  8
1
  6
Continuous
 62
     7
100
AcDbLine
 10
36.83123967983067
 20
-60.68918859156366
 30
0.0
 11
12.83123967983067
 21
-60.68918859156356
 31
0.0
  0
LINE
  5
2A1
102
{ACAD_REACTORS
330
387
330
387
102
}
330
1F
100
AcDbEntity
  8
1
  6
Continuous
 62
     7
100
AcDbLine
 10
36.83123967983045
 20
-88.68918859156352
 30
0.0
 11
36.83123967983067
 21
-60.68918859156366
 31
0.0
  0
ARC
  5
2A2
330
1F
100
AcDbEntity
  8
1
  6
Continuous
 62
     7
100
AcDbCircle
 10
-182.91485230427
 20
-86.61464852898895
 30
0.0
 40
14.0
100
AcDbArc
 50
180.0
 51
-90.0
  0
ARC
  5
2A3
330
1F
100
AcDbEntity
  8
1
  6
Continuous
 62
     7
100
AcDbCircle
 10
-182.91485230427
 20
-86.61464852898895
 30
0.0
 40
14.00000000000004
100
AcDbArc
 50
-90.0
 51
0.0
  0
ARC
  5
2A4
330
1F
100
AcDbEntity
  8
1
  6
Continuous
 62
     7
100
AcDbCircle
 10
-182.91485230427
 20
45.38535147101105
 30
0.0
 40
14.0
100
AcDbArc
 50
90.0
 51
180.0
  0
ARC
  5
2A5
330
1F
100
AcDbEntity
  8
1
  6
Continuous
 62
     7
100
AcDbCircle
 10
-182.91485230427
 20
45.38535147101105
 30
0.0
 40
14.0
100
AcDbArc
 50
0.0
 51
90.0
  0
ARC
  5
2A6
330
1F
100
AcDbEntity
  8
1
  6
Continuous
 62
     7
100
AcDbCircle
 10
154.3049840185632
 20
32.84510255440159
 30
0.0
 40
12.04026442840171
100
AcDbArc
 50
90.09197094608854
 51
-176.6205617682317
  0
ARC
  5
2A7
330
1F
100
AcDbEntity
  8
1
  6
Continuous
 62
     7
100
AcDbCircle
 10
158.2663300707681
 20
32.84510255440159
 30
0.0
 40
12.04026442840165
100
AcDbArc
 50
-3.37943823176832
 51
89.90802905391187
  0
ARC
  5
2A8
330
1F
100
AcDbEntity
  8
1
  6
Continuous
 62
     7
100
AcDbCircle
 10
154.2907895506748
 20
-74.11164673259815
 30
0.0
 40
12.00513288129789
100
AcDbArc
 50
-179.9856736058103
 51
-88.92040479796897
  0
ARC
  5
2A9
330
1F
100
AcDbEntity
  8
1
  6
Continuous
 62
     7
100
AcDbCircle
 10
158.2805245386564
 20
-74.11164673259815
 30
0.0
 40
12.00513288129778
100
AcDbArc
 50
-88.92040479798578
 51
-0.01432639418966
  0
ARC
  5
2AA
330
1F
100
AcDbEntity
  8
1
  6
Continuous
 62
     7
100
AcDbCircle
 10
158.2805245386564
 20
-74.11164673259815
 30
0.0
 40
12.00513288129783
100
AcDbArc
 50
-91.07959520203049
 51
-88.92040479798578
  0
CIRCLE
  5
2AB
330
1F
100
AcDbEntity
  8
1
  6
DOT_CENTER
 62
     2
100
AcDbCircle
 10
-180.9148523042697
 20
-86.61464852898895
 30
0.0
 40
12.00000000000031
  0
CIRCLE
  5
2AC
330
1F
100
AcDbEntity
  8
1
  6
Continuous
 62
     7
100
AcDbCircle
 10
148.7856570446656
 20
-89.61464852898895
 30
0.0
 40
1.5
  0
CIRCLE
  5
2AD
330
1F
100
AcDbEntity
  8
1
  6
Continuous
 62
     7
100
AcDbCircle
 10
163.7856570446656
 20
-89.61464852898895
 30
0.0
 40
1.5
  0
CIRCLE
  5
2AE
330
1F
100
AcDbEntity
  8
1
  6
Continuous
 62
     7
100
AcDbCircle
 10
148.7856570446656
 20
48.38535147101105
 30
0.0
 40
1.5
  0
CIRCLE
  5
2AF
330
1F
100
AcDbEntity
  8
1
  6
Continuous
 62
     7
100
AcDbCircle
 10
163.7856570446656
 20
48.38535147101105
 30
0.0
 40
1.5
  0
CIRCLE
  5
2B0
330
1F
100
AcDbEntity
  8
1
  6
DOT_CENTER
 62
     2
100
AcDbCircle
 10
154.2856570446656
 20
-86.614648528989
 30
0.0
 40
12.0
  0
XLINE
  5
2B1
330
1F
100
AcDbEntity
  8
1
  6
DOT_CENTER
 62
     3
 60
     1
100
AcDbXline
 10
-182.91485230427
 20
-100.3163184076297
 30
0.0
 11
0.0
 21
1.0
 31
0.0
  0
ARC
  5
2B2
330
1F
100
AcDbEntity
  8
1
  6
Continuous
 62
     7
100
AcDbCircle
 10
156.2856570446656
 20
-86.614648528989
 30
0.0
 40
14.0
100
AcDbArc
 50
-90.0
 51
0.0
  0
ARC
  5
2B3
330
1F
100
AcDbEntity
  8
1
  6
Continuous
 62
     7
100
AcDbCircle
 10
156.2856570446656
 20
-86.614648528989
 30
0.0
 40
14.0
100
AcDbArc
 50
180.0
 51
-90.0
  0
ARC
  5
2B4
330
1F
100
AcDbEntity
  8
1
  6
Continuous
 62
     7
100
AcDbCircle
 10
156.2856570446656
 20
45.38535147101105
 30
0.0
 40
14.0
100
AcDbArc
 50
90.0
 51
180.0
  0
ARC
  5
2B5
330
1F
100
AcDbEntity
  8
1
  6
Continuous
 62
     7
100
AcDbCircle
 10
156.2856570446656
 20
45.38535147101105
 30
0.0
 40
14.0
100
AcDbArc
 50
0.0
 51
90.0
  0
MTEXT
  5
2B6
330
1F
100
AcDbEntity
  8
1
 62
     2
100
AcDbMText
 10
176.320591619057
 20
-195.343604555224
 30
0.0
 40
2.5
 41
0.0
 71
     5
 72
     1
  1
2
  7
CONVERTER_11
 73
     1
 44
1.32052821128451
  0
MTEXT
  5
2B7
330
1F
100
AcDbEntity
  8
1
 62
     2
100
AcDbMText
 10
172.226500231661
 20
-151.388805936629
 30
0.0
 40
2.5
 41
0.0
 71
     5
 72
     1
  1
1:1
  7
CONVERTER_11
 73
     1
 44
1.32052821128451
  0
LWPOLYLINE
  5
2B8
330
1F
100
AcDbEntity
  8
1
 62
     3
100
AcDbPolyline
 90
        4
 70
     1
 43
0.0
 10
-196.4664563754178
 20
-158.4290115260756
 10
-196.4664563754178
 20
-194.4790115260756
 10
-29.34145637541789
 20
-194.4790115260756
 10
-29.34145637541789
 20
-158.4290115260756
  0
MTEXT
  5
2B9
330
1F
100
AcDbEntity
  8
1
 62
     3
100
AcDbMText
 10
-194.7164563754178
 20
-160.1790115260756
 30
0.0
 40
3.5
 41
0.0
 71
     1
 72
     1
  1
Berechnung der Fräsmasse:\PA= Zargenfalztiefe bis Dichtungsebene\PB= Türblattstärke bzw. 1. Türfalz\PA - B + 4 = Mass X\PDas Ergebnis muss ein Mass zwischen 4mm u. max. 7mm sein.
  7
CONVERTER_11
 73
     1
 44
1.20048019207683
  0
MTEXT
  5
2BA
330
1F
100
AcDbEntity
  8
1
 62
     2
100
AcDbMText
 10
-25.65725901312591
 20
17.1802828331173
 30
0.0
 40
2.5
 41
0.0
 71
     4
 72
     1
  1
Befestigungsplatte kpl.\PTECTUS TE340-3D FZ/1
  7
CONVERTER_11
 73
     1
 44
1.32052821128451
  0
MTEXT
  5
2BB
330
1F
100
AcDbEntity
  8
1
 62
     3
100
AcDbMText
 10
31.65722620659244
 20
-137.1382832889033
 30
0.0
 40
5.0
 41
0.0
 71
     5
 72
     1
  1
Flügel
  7
CONVERTER_11
 73
     1
 44
1.20048019207683
  0
MTEXT
  5
2BC
330
1F
100
AcDbEntity
  8
1
 62
     3
100
AcDbMText
 10
-31.66045484007687
 20
-148.1182392210103
 30
0.0
 40
5.0
 41
0.0
 71
     5
 72
     1
  1
Rahmen
  7
CONVERTER_11
 73
     1
 44
1.20048019207683
  0
MTEXT
  5
2BD
330
1F
100
AcDbEntity
  8
1
 62
     3
100
AcDbMText
 10
34.84999588852313
 20
-126.7487481199814
 30
0.0
 40
5.0
 41
0.0
 71
     5
 72
     1
  1
Fräsbild
  7
CONVERTER_11
 73
     1
 44
1.32052821128451
  0
MTEXT
  5
2BE
330
1F
100
AcDbEntity
  8
1
 62
     3
100
AcDbMText
 10
-48.56628452862638
 20
-131.7487481199814
 30
0.0
 40
5.0
 41
0.0
 71
     4
 72
     1
  1
Fräsbild\PFutterzarge
  7
CONVERTER_11
 73
     1
 44
1.32052821128451
  0
DIMENSION
  5
2C9
330
1F
100
AcDbEntity
  8
1
100
AcDbDimension
  2
*D2
 10
-68.35733264471742
 20
-130.2566310837739
 30
0.0
 11
-84.33392340609421
 21
-126.5066310837739
 31
0.0
 70
    32
  1
<>
 71
     5
 42
-1.0
 53
0.00013888888889
  3
ME10_DIM_10
100
AcDbAlignedDimension
 13
-99.85733264471742
 23
-100.614648528989
 33
0.0
 14
-68.35733264471742
 24
-100.614648528989
 34
0.0
100
AcDbRotatedDimension
  0
DIMENSION
  5
2D6
330
1F
100
AcDbEntity
  8
1
100
AcDbDimension
  2
*D3
 10
-23.17515141969547
 20
-92.68918859156351
 30
0.0
 11
-26.92515141969547
 21
-99.9268849186211
 31
0.0
 70
    32
  1
X
 71
     5
 42
-1.0
 53
90.0
  3
ME10_DIM_11
100
AcDbAlignedDimension
 13
-32.16876032016922
 23
-88.68918859156351
 33
0.0
 14
-41.66876032016923
 24
-92.68918859156351
 34
0.0
 50
90.0
100
AcDbRotatedDimension
  0
DIMENSION
  5
2E1
330
1F
100
AcDbEntity
  8
1
100
AcDbDimension
  2
*D4
 10
-46.78686100436367
 20
-92.68918859156351
 30
0.0
 11
-50.53686100436367
 21
-72.37015165379738
 31
0.0
 70
    32
  1
A
 71
     5
 42
-1.0
 53
90.0
  3
ME10_DIM_12
100
AcDbAlignedDimension
 13
1.06329048739954
 23
-52.68918859156351
 33
0.0
 14
-41.66876032016923
 24
-92.68918859156351
 34
0.0
 50
90.0
100
AcDbRotatedDimension
  0
DIMENSION
  5
2EC
330
1F
100
AcDbEntity
  8
1
100
AcDbDimension
  2
*D5
 10
55.73157899085594
 20
-92.68918859156351
 30
0.0
 11
51.98157899085594
 21
-71.7730098904355
 31
0.0
 70
    32
  1
B
 71
     5
 42
-1.0
 53
90.0
  3
ME10_DIM_13
100
AcDbAlignedDimension
 13
46.83123967983067
 23
-52.68918859156351
 33
0.0
 14
46.83123967983067
 24
-92.68918859156351
 34
0.0
 50
90.0
100
AcDbRotatedDimension
  0
DIMENSION
  5
2F7
330
1F
100
AcDbEntity
  8
1
100
AcDbDimension
  2
*D6
 10
-126.000304110814
 20
59.38535147101105
 30
0.0
 11
-129.750304110814
 21
-21.2581327948045
 31
0.0
 70
    32
  1
<>
 71
     5
 42
-1.0
 53
90.0
  3
ME10_DIM_14
100
AcDbAlignedDimension
 13
-182.91485230427
 23
-100.614648528989
 33
0.0
 14
-182.91485230427
 24
59.38535147101105
 34
0.0
 50
90.0
100
AcDbRotatedDimension
  0
DIMENSION
  5
302
330
1F
100
AcDbEntity
  8
1
100
AcDbDimension
  2
*D7
 10
70.57232355093777
 20
-128.729476198668
 30
0.0
 11
66.05383521492797
 21
-124.979476198668
 31
0.0
 70
    32
  1
<>
 71
     5
 42
-1.0
 53
0.00013888888889
  3
ME10_DIM_15
100
AcDbAlignedDimension
 13
60.57232355093777
 23
-120.614648528989
 33
0.0
 14
70.57232355093777
 24
-100.614648528989
 34
0.0
100
AcDbRotatedDimension
  0
DIMENSION
  5
30D
330
1F
100
AcDbEntity
  8
1
100
AcDbDimension
  2
*D8
 10
60.57232355093777
 20
-138.6142090488623
 30
0.0
 11
77.62585718126206
 21
-134.8642090488623
 31
0.0
 70
    32
  1
<>
 71
     5
 42
-1.0
 53
0.00013888888889
  3
ME10_DIM_16
100
AcDbAlignedDimension
 13
94.5723235509378
 23
-86.11464852898916
 33
0.0
 14
60.57232355093777
 24
-100.614648528989
 34
0.0
100
AcDbRotatedDimension
  0
DIMENSION
  5
318
330
1F
100
AcDbEntity
  8
1
100
AcDbDimension
  2
*D9
 10
170.2856570446656
 20
-128.729476198668
 30
0.0
 11
157.2204363751218
 21
-124.979476198668
 31
0.0
 70
    32
  1
<>
 71
     5
 42
-1.0
 53
0.00013888888889
  3
ME10_DIM_17
100
AcDbAlignedDimension
 13
142.2856570446656
 23
-86.614648528989
 33
0.0
 14
170.2856570446656
 24
-86.614648528989
 34
0.0
100
AcDbRotatedDimension
  0
DIMENSION
  5
323
330
1F
100
AcDbEntity
  8
1
100
AcDbDimension
  2
*D10
 10
163.7856570446657
 20
34.54515688290759
 30
0.0
 11
160.0870870343117
 21
38.29515688290759
 31
0.0
 70
    32
  1
<>
 71
     5
 42
-1.0
 53
0.00013888888889
  3
ME10_DIM_18
100
AcDbAlignedDimension
 13
148.7856570446656
 23
46.13535147101105
 33
0.0
 14
163.7856570446656
 24
46.13535147101105
 34
0.0
100
AcDbRotatedDimension
  0
DIMENSION
  5
330
330
1F
100
AcDbEntity
  8
1
100
AcDbDimension
  2
*D11
 10
174.2856570446656
 20
-128.729476198668
 30
0.0
 11
172.0130005346778
 21
-124.979476198668
 31
0.0
 70
    32
  1
<>
 71
     5
 42
-1.0
 53
0.00013888888889
  3
ME10_DIM_19
100
AcDbAlignedDimension
 13
170.2856570446656
 23
-86.614648528989
 33
0.0
 14
174.2856570446656
 24
-120.614648528989
 34
0.0
100
AcDbRotatedDimension
  0
DIMENSION
  5
33B
330
1F
100
AcDbEntity
  8
1
100
AcDbDimension
  2
*D12
 10
113.8308869847158
 20
59.38535147101105
 30
0.0
 11
110.0808869847158
 21
-20.6495241982269
 31
0.0
 70
    32
  1
<>
 71
     5
 42
-1.0
 53
90.0
  3
ME10_DIM_20
100
AcDbAlignedDimension
 13
156.2856570446656
 23
-100.614648528989
 33
0.0
 14
156.2856570446656
 24
59.38535147101105
 34
0.0
 50
90.0
100
AcDbRotatedDimension
  0
DIMENSION
  5
346
330
1F
100
AcDbEntity
  8
1
100
AcDbDimension
  2
*D13
 10
121.7058057972448
 20
48.38535147101105
 30
0.0
 11
117.9558057972448
 21
-20.6495241982269
 31
0.0
 70
    32
  1
<>
 71
     5
 42
-1.0
 53
90.0
  3
ME10_DIM_21
100
AcDbAlignedDimension
 13
146.5356570446656
 23
-89.61464852898895
 33
0.0
 14
146.5356570446656
 24
48.38535147101105
 34
0.0
 50
90.0
100
AcDbRotatedDimension
  0
DIMENSION
  5
351
330
1F
100
AcDbEntity
  8
1
100
AcDbDimension
  2
*D14
 10
129.4734331112388
 20
44.88535147101105
 30
0.0
 11
125.7234331112388
 21
-20.55233169408329
 31
0.0
 70
    32
  1
<>
 71
     5
 42
-1.0
 53
90.0
  3
ME10_DIM_22
100
AcDbAlignedDimension
 13
158.0543313171585
 23
-86.11464852898919
 33
0.0
 14
154.2856570446656
 24
44.88535147101106
 34
0.0
 50
90.0
100
AcDbRotatedDimension
  0
DIMENSION
  5
35E
330
1F
100
AcDbEntity
  8
1
100
AcDbDimension
  2
*D15
 10
27.3301561924627
 20
-88.68918859156332
 30
0.0
 11
23.5801561924627
 21
-99.279205836143
 31
0.0
 70
    32
  1
<>
 71
     5
 42
-1.0
 53
90.0
  3
ME10_DIM_23
100
AcDbAlignedDimension
 13
2.83123967983047
 23
-92.68918859156351
 33
0.0
 14
12.83123967983047
 24
-88.68918859156332
 34
0.0
 50
90.0
100
AcDbRotatedDimension
  0
DIMENSION
  5
36B
330
1F
100
AcDbEntity
  8
1
100
AcDbDimension
  2
*D16
 10
-200.91485230427
 20
-130.2566310837739
 30
0.0
 11
-203.776615557664
 21
-126.5066310837739
 31
0.0
 70
    32
  1
X
 71
     5
 42
-1.0
 53
0.00013888888889
  3
ME10_DIM_24
100
AcDbAlignedDimension
 13
-196.91485230427
 23
-86.61464852898895
 33
0.0
 14
-200.91485230427
 24
-120.614648528989
 34
0.0
100
AcDbRotatedDimension
  0
DIMENSION
  5
376
330
1F
100
AcDbEntity
  8
1
100
AcDbDimension
  2
*D17
 10
-196.91485230427
 20
-130.2566310837739
 30
0.0
 11
-183.3856662427407
 21
-126.5066310837739
 31
0.0
 70
    32
  1
<>
 71
     5
 42
-1.0
 53
0.00013888888889
  3
ME10_DIM_25
100
AcDbAlignedDimension
 13
-168.91485230427
 23
-84.6146485289892
 33
0.0
 14
-196.91485230427
 24
-86.61464852898895
 34
0.0
100
AcDbRotatedDimension
  0
INSERT
  5
37E
330
1F
100
AcDbEntity
  8
1
100
AcDbBlockReference
  2
*D18
 10
0.0
 20
0.0
 30
0.0
  0
INSERT
  5
386
330
1F
100
AcDbEntity
  8
1
100
AcDbBlockReference
  2
*D19
 10
0.0
 20
0.0
 30
0.0
  0
HATCH
  5
387
330
1F
100
AcDbEntity
  8
1
  6
Continuous
 62
     2
100
AcDbHatch
 10
0.0
 20
0.0
 30
0.0
210
0.0
220
0.0
230
1.0
  2
_USER
 70
     0
 71
     1
 91
        1
 92
        1
 93
       10
 72
     1
 10
2.831239679830702
 20
-52.68918859156351
 11
2.831239679830674
 21
-60.68918859156356
 72
     1
 10
2.831239679830674
 20
-60.68918859156356
 11
12.83123967983067
 21
-60.68918859156356
 72
     1
 10
12.83123967983067
 20
-60.68918859156356
 11
36.83123967983067
 21
-60.68918859156366
 72
     1
 10
36.83123967983067
 20
-60.68918859156366
 11
36.83123967983045
 21
-88.68918859156352
 72
     1
 10
36.83123967983045
 20
-88.68918859156352
 11
12.83123967983047
 21
-88.68918859156332
 72
     1
 10
12.83123967983047
 20
-88.68918859156332
 11
2.831239679830474
 21
-88.68918859156331
 72
     1
 10
2.831239679830474
 20
-88.68918859156331
 11
2.831239679830474
 21
-92.68918859156351
 72
     1
 10
2.831239679830474
 20
-92.68918859156351
 11
46.83123967983067
 21
-92.68918859156351
 72
     1
 10
46.83123967983067
 20
-92.68918859156351
 11
46.83123967983067
 21
-52.68918859156351
 72
     1
 10
46.83123967983067
 20
-52.68918859156351
 11
2.831239679830702
 21
-52.68918859156351
 97
       10
330
1D2
330
1D3
330
1D1
330
29D
330
1D4
330
2A1
330
2A0
330
29F
330
1CC
330
1D0
 75
     1
 76
     0
 52
135.0
 41
5.0
 77
     0
 78
     1
 53
135.0
 43
0.0
 44
0.0
 45
-3.535533905932738
 46
-3.535533905932737
 79
     0
 98
        1
 10
0.0
 20
0.0
  0
HATCH
  5
388
330
1F
100
AcDbEntity
  8
1
  6
Continuous
 62
     2
100
AcDbHatch
 10
0.0
 20
0.0
 30
0.0
210
0.0
220
0.0
230
1.0
  2
_USER
 70
     0
 71
     1
 91
        1
 92
        1
 93
       16
 72
     1
 10
60.57232355093777
 20
79.3853514710111
 11
60.57232355093777
 21
59.38535147101106
 72
     1
 10
60.57232355093777
 20
59.38535147101106
 11
70.57232355093777
 21
59.38535147101106
 72
     1
 10
70.57232355093777
 20
59.38535147101106
 11
70.57232355093777
 21
44.88535147101106
 72
     1
 10
70.57232355093777
 20
44.88535147101106
 11
94.5723235509378
 21
44.88535147101106
 72
     1
 10
94.5723235509378
 20
44.88535147101106
 11
94.5723235509378
 21
16.38535147101105
 72
     1
 10
94.5723235509378
 20
16.38535147101105
 11
94.5723235509378
 21
-57.61464852898897
 72
     1
 10
94.5723235509378
 20
-57.61464852898897
 11
94.5723235509378
 21
-86.11464852898916
 72
     1
 10
94.5723235509378
 20
-86.11464852898916
 11
70.57232355093777
 21
-86.11464852898924
 72
     1
 10
70.57232355093777
 20
-86.11464852898924
 11
70.57232355093777
 21
-100.614648528989
 72
     1
 10
70.57232355093777
 20
-100.614648528989
 11
60.57232355093777
 21
-100.614648528989
 72
     1
 10
60.57232355093777
 20
-100.614648528989
 11
60.57232355093777
 21
-120.614648528989
 72
     1
 10
60.57232355093777
 20
-120.614648528989
 11
105.5723235509378
 21
-120.614648528989
 72
     1
 10
105.5723235509378
 20
-120.614648528989
 11
105.5723235509378
 21
-57.61464852898895
 72
     1
 10
105.5723235509378
 20
-57.61464852898895
 11
105.5723235509378
 21
16.38535147101105
 72
     1
 10
105.5723235509378
 20
16.38535147101105
 11
105.5723235509378
 21
79.3853514710111
 72
     1
 10
105.5723235509378
 20
79.3853514710111
 11
60.57232355093777
 21
79.3853514710111
 97
       16
330
285
330
266
330
263
330
279
330
284
330
283
330
282
330
281
330
264
330
267
330
280
330
27F
330
27E
330
27C
330
27B
330
276
 75
     1
 76
     0
 52
135.0
 41
5.0
 77
     0
 78
     1
 53
135.0
 43
0.0
 44
0.0
 45
-3.535533905932738
 46
-3.535533905932737
 79
     0
 98
        1
 10
0.0
 20
0.0
  0
HATCH
  5
389
330
1F
100
AcDbEntity
  8
1
  6
Continuous
 62
     2
100
AcDbHatch
 10
0.0
 20
0.0
 30
0.0
210
0.0
220
0.0
230
1.0
  2
_USER
 70
     0
 71
     1
 91
        1
 92
        1
 93
        4
 72
     1
 10
-68.35733264471742
 20
-100.614648528989
 11
-68.35733264471742
 21
-120.614648528989
 72
     1
 10
-68.35733264471742
 20
-120.614648528989
 11
-78.35733264471742
 21
-120.614648528989
 72
     1
 10
-78.35733264471742
 20
-120.614648528989
 11
-78.35733264471742
 21
-100.614648528989
 72
     1
 10
-78.35733264471742
 20
-100.614648528989
 11
-68.35733264471742
 21
-100.614648528989
 97
        4
330
1F4
330
230
330
22F
330
22D
 75
     1
 76
     0
 52
45.0
 41
5.0
 77
     0
 78
     1
 53
45.0
 43
0.0
 44
0.0
 45
-3.535533905932737
 46
3.535533905932738
 79
     0
 98
        1
 10
0.0
 20
0.0
  0
HATCH
  5
38A
330
1F
100
AcDbEntity
  8
1
  6
Continuous
 62
     2
100
AcDbHatch
 10
0.0
 20
0.0
 30
0.0
210
0.0
220
0.0
230
1.0
  2
_USER
 70
     0
 71
     1
 91
        1
 92
        1
 93
        4
 72
     1
 10
-68.35733264471742
 20
79.385351471011
 11
-68.35733264471742
 21
59.38535147101105
 72
     1
 10
-68.35733264471742
 20
59.38535147101105
 11
-78.35733264471742
 21
59.38535147101105
 72
     1
 10
-78.35733264471742
 20
59.38535147101105
 11
-78.35733264471742
 21
79.385351471011
 72
     1
 10
-78.35733264471742
 20
79.385351471011
 11
-68.35733264471742
 21
79.385351471011
 97
        4
330
1FA
330
1F8
330
231
330
232
 75
     1
 76
     0
 52
45.0
 41
5.0
 77
     0
 78
     1
 53
45.0
 43
0.0
 44
0.0
 45
-3.535533905932737
 46
3.535533905932738
 79
     0
 98
        1
 10
0.0
 20
0.0
  0
HATCH
  5
38B
330
1F
100
AcDbEntity
  8
1
  6
Continuous
 62
     2
100
AcDbHatch
 10
0.0
 20
0.0
 30
0.0
210
0.0
220
0.0
230
1.0
  2
_USER
 70
     0
 71
     1
 91
        1
 92
        1
 93
       12
 72
     1
 10
-111.3573326447174
 20
79.385351471011
 11
-111.3573326447174
 21
16.38535147101105
 72
     1
 10
-111.3573326447174
 20
16.38535147101105
 11
-111.3573326447174
 21
-55.61464852898895
 72
     1
 10
-111.3573326447174
 20
-55.61464852898895
 11
-111.3573326447174
 21
-120.614648528989
 72
     1
 10
-111.3573326447174
 20
-120.614648528989
 11
-78.35733264471742
 21
-120.614648528989
 72
     1
 10
-78.35733264471742
 20
-120.614648528989
 11
-78.35733264471742
 21
-100.614648528989
 72
     1
 10
-78.35733264471742
 20
-100.614648528989
 11
-99.85733264471742
 21
-100.614648528989
 72
     1
 10
-99.85733264471742
 20
-100.614648528989
 11
-99.85733264471742
 21
-55.61464852898895
 72
     1
 10
-99.85733264471742
 20
-55.61464852898895
 11
-99.85733264471742
 21
16.38535147101105
 72
     1
 10
-99.85733264471742
 20
16.38535147101105
 11
-99.85733264471742
 21
59.38535147101106
 72
     1
 10
-99.85733264471742
 20
59.38535147101106
 11
-78.35733264471742
 21
59.38535147101105
 72
     1
 10
-78.35733264471742
 20
59.38535147101105
 11
-78.35733264471742
 21
79.385351471011
 72
     1
 10
-78.35733264471742
 20
79.385351471011
 11
-111.3573326447174
 21
79.385351471011
 97
       12
330
231
330
22E
330
1F6
330
1ED
330
1E9
330
1F5
330
22F
330
1FE
330
1E8
330
254
330
200
330
1FF
 75
     1
 76
     0
 52
45.0
 41
5.0
 77
     0
 78
     1
 53
45.0
 43
0.0
 44
0.0
 45
-3.535533905932737
 46
3.535533905932738
 79
     0
 98
        1
 10
0.0
 20
0.0
  0
HATCH
  5
38C
330
1F
100
AcDbEntity
  8
1
  6
Continuous
 62
     2
100
AcDbHatch
 10
0.0
 20
0.0
 30
0.0
210
0.0
220
0.0
230
1.0
  2
_USER
 70
     0
 71
     1
 91
        1
 92
        1
 93
        7
 72
     1
 10
-41.66876032016923
 20
-74.68918859156351
 11
-41.66876032016923
 21
-92.68918859156351
 72
     1
 10
-41.66876032016923
 20
-92.68918859156351
 11
-0.6687603201692409
 21
-92.68918859156351
 72
     1
 10
-0.6687603201692409
 20
-92.68918859156351
 11
-0.6687603201692409
 21
-88.68918859156351
 72
     1
 10
-0.6687603201692409
 20
-88.68918859156351
 11
-10.66876032016924
 21
-88.6891885915635
 72
     1
 10
-10.66876032016924
 20
-88.6891885915635
 11
-32.16876032016922
 21
-88.68918859156351
 72
     1
 10
-32.16876032016922
 20
-88.68918859156351
 11
-32.16876032016926
 21
-74.68918859156351
 72
     1
 10
-32.16876032016926
 20
-74.68918859156351
 11
-41.66876032016923
 21
-74.68918859156351
 97
        7
330
217
330
1F2
330
219
330
212
330
211
330
1D8
330
1D9
 75
     1
 76
     0
 52
45.0
 41
5.0
 77
     0
 78
     1
 53
45.0
 43
0.0
 44
0.0
 45
-3.535533905932737
 46
3.535533905932738
 79
     0
 98
        1
 10
0.0
 20
0.0
  0
HATCH
  5
38D
330
1F
100
AcDbEntity
  8
1
  6
Continuous
 62
     2
100
AcDbHatch
 10
0.0
 20
0.0
 30
0.0
210
0.0
220
0.0
230
1.0
  2
_USER
 70
     0
 71
     1
 91
        1
 92
        1
 93
        8
 72
     1
 10
-10.66876032016936
 20
-1.123671827240543
 11
-10.66876032016929
 21
-38.68918859156349
 72
     1
 10
-10.66876032016929
 20
-38.68918859156349
 11
-10.66876032016929
 21
-53.68918859156349
 72
     1
 10
-10.66876032016929
 20
-53.68918859156349
 11
-10.66876032016941
 21
-60.68918859156349
 72
     1
 10
-10.66876032016941
 20
-60.68918859156349
 11
-0.6687603201692409
 21
-60.68918859156354
 72
     1
 10
-0.6687603201692409
 20
-60.68918859156354
 11
-0.668760320169355
 21
-47.68918859156351
 72
     1
 10
-0.668760320169355
 20
-47.68918859156351
 11
12.33123967983078
 21
-47.68918859156351
 72
     1
 10
12.33123967983078
 20
-47.68918859156351
 11
12.33123967983078
 21
-1.123671827240528
 72
     1
 10
12.33123967983078
 20
-1.123671827240528
 11
-10.66876032016936
 21
-1.123671827240543
 97
        8
330
214
330
215
330
216
330
1F1
330
1DB
330
1C5
330
1C8
330
213
 75
     1
 76
     0
 52
45.0
 41
5.0
 77
     0
 78
     1
 53
45.0
 43
0.0
 44
0.0
 45
-3.535533905932737
 46
3.535533905932738
 79
     0
 98
        1
 10
0.0
 20
0.0
  0
ENDSEC
  0
SECTION
  2
OBJECTS
  0
DICTIONARY
  5
C
330
0
100
AcDbDictionary
281
     1
  3
ACAD_GROUP
350
D
  3
ACAD_LAYOUT
350
1A
  3
ACAD_MLINESTYLE
350
17
  3
ACAD_PLOTSETTINGS
350
19
  3
ACAD_PLOTSTYLENAME
350
E
  0
DICTIONARY
  5
D
102
{ACAD_REACTORS
330
C
102
}
330
C
100
AcDbDictionary
281
     1
  0
DICTIONARY
  5
1A
102
{ACAD_REACTORS
330
C
102
}
330
C
100
AcDbDictionary
281
     1
  3
Layout1
350
1E
  3
Layout2
350
26
  3
Model
350
22
  0
DICTIONARY
  5
17
102
{ACAD_REACTORS
330
C
102
}
330
C
100
AcDbDictionary
281
     1
  3
Standard
350
18
  0
DICTIONARY
  5
19
102
{ACAD_REACTORS
330
C
102
}
330
C
100
AcDbDictionary
281
     1
  0
ACDBDICTIONARYWDFLT
  5
E
102
{ACAD_REACTORS
330
C
102
}
330
C
100
AcDbDictionary
281
     1
  3
Normal
350
F
100
AcDbDictionaryWithDefault
340
F
  0
LAYOUT
  5
1E
102
{ACAD_REACTORS
330
1A
102
}
330
1A
100
AcDbPlotSettings
  1

  2

  4

  6

 40
0.0
 41
0.0
 42
0.0
 43
0.0
 44
0.0
 45
0.0
 46
0.0
 47
0.0
 48
0.0
 49
0.0
140
0.0
141
0.0
142
1.0
143
1.0
 70
   688
 72
     0
 73
     0
 74
     5
  7

 75
    16
147
1.0
148
0.0
149
0.0
100
AcDbLayout
  1
Layout1
 70
     1
 71
     1
 10
0.0
 20
0.0
 11
0.0
 21
0.0
 12
0.0
 22
0.0
 32
0.0
 14
0.0
 24
0.0
 34
0.0
 15
0.0
 25
0.0
 35
0.0
146
0.0
 13
0.0
 23
0.0
 33
0.0
 16
1.0
 26
0.0
 36
0.0
 17
0.0
 27
1.0
 37
0.0
 76
     0
330
1B
  0
LAYOUT
  5
26
102
{ACAD_REACTORS
330
1A
102
}
330
1A
100
AcDbPlotSettings
  1

  2

  4

  6

 40
0.0
 41
0.0
 42
0.0
 43
0.0
 44
0.0
 45
0.0
 46
0.0
 47
0.0
 48
0.0
 49
0.0
140
0.0
141
0.0
142
1.0
143
1.0
 70
   688
 72
     0
 73
     0
 74
     5
  7

 75
    16
147
1.0
148
0.0
149
0.0
100
AcDbLayout
  1
Layout2
 70
     1
 71
     2
 10
0.0
 20
0.0
 11
0.0
 21
0.0
 12
0.0
 22
0.0
 32
0.0
 14
0.0
 24
0.0
 34
0.0
 15
0.0
 25
0.0
 35
0.0
146
0.0
 13
0.0
 23
0.0
 33
0.0
 16
1.0
 26
0.0
 36
0.0
 17
0.0
 27
1.0
 37
0.0
 76
     0
330
23
  0
LAYOUT
  5
22
102
{ACAD_REACTORS
330
1A
102
}
330
1A
100
AcDbPlotSettings
  1

  2

  4

  6

 40
0.0
 41
0.0
 42
0.0
 43
0.0
 44
0.0
 45
0.0
 46
0.0
 47
0.0
 48
0.0
 49
0.0
140
0.0
141
0.0
142
1.0
143
1.0
 70
  1712
 72
     0
 73
     0
 74
     0
  7

 75
     0
147
1.0
148
0.0
149
0.0
100
AcDbLayout
  1
Model
 70
     1
 71
     0
 10
0.0
 20
0.0
 11
0.0
 21
0.0
 12
0.0
 22
0.0
 32
0.0
 14
-226.4130699746456
 24
-201.1114976387062
 34
0.0
 15
183.5869300253544
 25
84.88850236129383
 35
0.0
146
0.0
 13
0.0
 23
0.0
 33
0.0
 16
1.0
 26
0.0
 36
0.0
 17
0.0
 27
1.0
 37
0.0
 76
     0
330
1F
  0
MLINESTYLE
  5
18
102
{ACAD_REACTORS
330
17
102
}
330
17
100
AcDbMlineStyle
  2
Standard
 70
     0
  3

 62
   256
 51
90.0
 52
90.0
 71
     2
 49
0.5
 62
   256
  6
BYLAYER
 49
-0.5
 62
   256
  6
BYLAYER
  0
ACDBPLACEHOLDER
  5
F
102
{ACAD_REACTORS
330
E
102
}
330
E
  0
ENDSEC
  0
EOF
