  0
SECTION
  2
HEADER
  9
$ACADVER
  1
AC1018
  9
$ACADMAINTVER
 70
     0
  9
$DWGCODEPAGE
  3
ANSI_1252
  9
$INSBASE
 10
0.0
 20
0.0
 30
0.0
  9
$EXTMIN
 10
57.7262206653976
 20
97.618907128273
 30
0.0
  9
$EXTMAX
 10
191.545245666253
 20
205.3884974905457
 30
0.0
  9
$LIMMIN
 10
0.0
 20
0.0
  9
$LIMMAX
 10
12.0
 20
9.0
  9
$ORTHOMODE
 70
     0
  9
$REGENMODE
 70
     1
  9
$FILLMODE
 70
     1
  9
$QTEXTMODE
 70
     0
  9
$MIRRTEXT
 70
     1
  9
$LTSCALE
 40
1.0
  9
$ATTMODE
 70
     1
  9
$TEXTSIZE
 40
0.2
  9
$TRACEWID
 40
0.05
  9
$TEXTSTYLE
  7
Standard
  9
$CLAYER
  8
0
  9
$CELTYPE
  6
ByLayer
  9
$CECOLOR
 62
   256
  9
$CELTSCALE
 40
1.0
  9
$DISPSILH
 70
     0
  9
$DIMSCALE
 40
1.0
  9
$DIMASZ
 40
0.18
  9
$DIMEXO
 40
0.0625
  9
$DIMDLI
 40
0.38
  9
$DIMRND
 40
0.0
  9
$DIMDLE
 40
0.0
  9
$DIMEXE
 40
0.18
  9
$DIMTP
 40
0.0
  9
$DIMTM
 40
0.0
  9
$DIMTXT
 40
0.18
  9
$DIMCEN
 40
0.09
  9
$DIMTSZ
 40
0.0
  9
$DIMTOL
 70
     0
  9
$DIMLIM
 70
     0
  9
$DIMTIH
 70
     1
  9
$DIMTOH
 70
     1
  9
$DIMSE1
 70
     0
  9
$DIMSE2
 70
     0
  9
$DIMTAD
 70
     0
  9
$DIMZIN
 70
     0
  9
$DIMBLK
  1

  9
$DIMASO
 70
     1
  9
$DIMSHO
 70
     1
  9
$DIMPOST
  1

  9
$DIMAPOST
  1

  9
$DIMALT
 70
     0
  9
$DIMALTD
 70
     2
  9
$DIMALTF
 40
25.4
  9
$DIMLFAC
 40
1.0
  9
$DIMTOFL
 70
     0
  9
$DIMTVP
 40
0.0
  9
$DIMTIX
 70
     0
  9
$DIMSOXD
 70
     0
  9
$DIMSAH
 70
     0
  9
$DIMBLK1
  1

  9
$DIMBLK2
  1

  9
$DIMSTYLE
  2
Standard
  9
$DIMCLRD
 70
     0
  9
$DIMCLRE
 70
     0
  9
$DIMCLRT
 70
     0
  9
$DIMTFAC
 40
1.0
  9
$DIMGAP
 40
0.09
  9
$DIMJUST
 70
     0
  9
$DIMSD1
 70
     0
  9
$DIMSD2
 70
     0
  9
$DIMTOLJ
 70
     1
  9
$DIMTZIN
 70
     0
  9
$DIMALTZ
 70
     0
  9
$DIMALTTZ
 70
     0
  9
$DIMUPT
 70
     0
  9
$DIMDEC
 70
     4
  9
$DIMTDEC
 70
     4
  9
$DIMALTU
 70
     2
  9
$DIMALTTD
 70
     2
  9
$DIMTXSTY
  7
Standard
  9
$DIMAUNIT
 70
     0
  9
$DIMADEC
 70
     0
  9
$DIMALTRND
 40
0.0
  9
$DIMAZIN
 70
     0
  9
$DIMDSEP
 70
    46
  9
$DIMATFIT
 70
     3
  9
$DIMFRAC
 70
     0
  9
$DIMLDRBLK
  1

  9
$DIMLUNIT
 70
     2
  9
$DIMLWD
 70
    -2
  9
$DIMLWE
 70
    -2
  9
$DIMTMOVE
 70
     0
  9
$LUNITS
 70
     2
  9
$LUPREC
 70
     4
  9
$SKETCHINC
 40
0.1
  9
$FILLETRAD
 40
0.5
  9
$AUNITS
 70
     0
  9
$AUPREC
 70
     0
  9
$MENU
  1
.
  9
$ELEVATION
 40
0.0
  9
$PELEVATION
 40
0.0
  9
$THICKNESS
 40
0.0
  9
$LIMCHECK
 70
     0
  9
$CHAMFERA
 40
0.5
  9
$CHAMFERB
 40
0.5
  9
$CHAMFERC
 40
1.0
  9
$CHAMFERD
 40
0.0
  9
$SKPOLY
 70
     0
  9
$TDCREATE
 40
2454852.380289132
  9
$TDUCREATE
 40
2454852.338622465
  9
$TDUPDATE
 40
2454852.380289143
  9
$TDUUPDATE
 40
2454852.338622477
  9
$TDINDWG
 40
0.0000000116
  9
$TDUSRTIMER
 40
0.0000000116
  9
$USRTIMER
 70
     1
  9
$ANGBASE
 50
0.0
  9
$ANGDIR
 70
     0
  9
$PDMODE
 70
     0
  9
$PDSIZE
 40
0.0
  9
$PLINEWID
 40
0.0
  9
$SPLFRAME
 70
     0
  9
$SPLINETYPE
 70
     6
  9
$SPLINESEGS
 70
     8
  9
$HANDSEED
  5
1D6
  9
$SURFTAB1
 70
     6
  9
$SURFTAB2
 70
     6
  9
$SURFTYPE
 70
     6
  9
$SURFU
 70
     6
  9
$SURFV
 70
     6
  9
$UCSBASE
  2

  9
$UCSNAME
  2

  9
$UCSORG
 10
0.0
 20
0.0
 30
0.0
  9
$UCSXDIR
 10
1.0
 20
0.0
 30
0.0
  9
$UCSYDIR
 10
0.0
 20
1.0
 30
0.0
  9
$UCSORTHOREF
  2

  9
$UCSORTHOVIEW
 70
     0
  9
$UCSORGTOP
 10
0.0
 20
0.0
 30
0.0
  9
$UCSORGBOTTOM
 10
0.0
 20
0.0
 30
0.0
  9
$UCSORGLEFT
 10
0.0
 20
0.0
 30
0.0
  9
$UCSORGRIGHT
 10
0.0
 20
0.0
 30
0.0
  9
$UCSORGFRONT
 10
0.0
 20
0.0
 30
0.0
  9
$UCSORGBACK
 10
0.0
 20
0.0
 30
0.0
  9
$PUCSBASE
  2

  9
$PUCSNAME
  2

  9
$PUCSORG
 10
0.0
 20
0.0
 30
0.0
  9
$PUCSXDIR
 10
1.0
 20
0.0
 30
0.0
  9
$PUCSYDIR
 10
0.0
 20
1.0
 30
0.0
  9
$PUCSORTHOREF
  2

  9
$PUCSORTHOVIEW
 70
     0
  9
$PUCSORGTOP
 10
0.0
 20
0.0
 30
0.0
  9
$PUCSORGBOTTOM
 10
0.0
 20
0.0
 30
0.0
  9
$PUCSORGLEFT
 10
0.0
 20
0.0
 30
0.0
  9
$PUCSORGRIGHT
 10
0.0
 20
0.0
 30
0.0
  9
$PUCSORGFRONT
 10
0.0
 20
0.0
 30
0.0
  9
$PUCSORGBACK
 10
0.0
 20
0.0
 30
0.0
  9
$USERI1
 70
     0
  9
$USERI2
 70
     0
  9
$USERI3
 70
     0
  9
$USERI4
 70
     0
  9
$USERI5
 70
     0
  9
$USERR1
 40
14.5
  9
$USERR2
 40
0.0
  9
$USERR3
 40
0.0
  9
$USERR4
 40
0.0
  9
$USERR5
 40
0.0
  9
$WORLDVIEW
 70
     1
  9
$SHADEDGE
 70
     3
  9
$SHADEDIF
 70
    70
  9
$TILEMODE
 70
     1
  9
$MAXACTVP
 70
    64
  9
$PINSBASE
 10
0.0
 20
0.0
 30
0.0
  9
$PLIMCHECK
 70
     0
  9
$PEXTMIN
 10
1.00000000000000E+20
 20
1.00000000000000E+20
 30
1.00000000000000E+20
  9
$PEXTMAX
 10
-1.00000000000000E+20
 20
-1.00000000000000E+20
 30
-1.00000000000000E+20
  9
$PLIMMIN
 10
0.0
 20
0.0
  9
$PLIMMAX
 10
12.0
 20
9.0
  9
$UNITMODE
 70
     0
  9
$VISRETAIN
 70
     1
  9
$PLINEGEN
 70
     0
  9
$PSLTSCALE
 70
     1
  9
$TREEDEPTH
 70
  3020
  9
$CMLSTYLE
  2
Standard
  9
$CMLJUST
 70
     0
  9
$CMLSCALE
 40
1.0
  9
$PROXYGRAPHICS
 70
     1
  9
$MEASUREMENT
 70
     1
  9
$CELWEIGHT
370
    -1
  9
$ENDCAPS
280
     0
  9
$JOINSTYLE
280
     0
  9
$LWDISPLAY
290
     0
  9
$INSUNITS
 70
     1
  9
$HYPERLINKBASE
  1

  9
$STYLESHEET
  1

  9
$XEDIT
290
     1
  9
$CEPSNTYPE
380
     0
  9
$PSTYLEMODE
290
     1
  9
$FINGERPRINTGUID
  2
{F04B76A9-1ACE-4C69-8F88-234D4B492FC6}
  9
$VERSIONGUID
  2
{FAEB1C32-E019-11D5-929B-00C0DF256EC4}
  9
$EXTNAMES
290
     1
  9
$PSVPSCALE
 40
0.0
  9
$OLESTARTUP
290
     0
  9
$SORTENTS
280
   127
  9
$INDEXCTL
280
     0
  9
$HIDETEXT
280
     1
  9
$XCLIPFRAME
290
     0
  9
$HALOGAP
280
     0
  9
$OBSCOLOR
 70
   257
  9
$OBSLTYPE
280
     0
  9
$INTERSECTIONDISPLAY
280
     0
  9
$INTERSECTIONCOLOR
 70
   257
  9
$DIMASSOC
280
     2
  9
$PROJECTNAME
  1

  0
ENDSEC
  0
SECTION
  2
CLASSES
  0
CLASS
  1
ACDBDICTIONARYWDFLT
  2
AcDbDictionaryWithDefault
  3
ObjectDBX Classes
 90
        0
 91
        3
280
     0
281
     0
  0
CLASS
  1

  2
exOdDbCircle
  3

 90
        0
 91
        3
280
     0
281
     1
  0
CLASS
  1

  2
exOdDbSpline
  3

 90
        0
 91
        3
280
     0
281
     1
  0
ENDSEC
  0
SECTION
  2
TABLES
  0
TABLE
  2
VPORT
  5
8
330
0
100
AcDbSymbolTable
 70
     1
  0
VPORT
  5
29
330
8
100
AcDbSymbolTableRecord
100
AcDbViewportTableRecord
  2
*Active
 70
     0
 10
0.0
 20
0.0
 11
1.0
 21
1.0
 12
124.6357331658253
 22
151.5037023094093
 13
0.0
 23
0.0
 14
0.5
 24
0.5
 15
0.5
 25
0.5
 16
0.0
 26
0.0
 36
1.0
 17
0.0
 27
0.0
 37
0.0
 40
118.5465493985
 41
1.60267857142857
 42
50.0
 43
0.0
 44
0.0
 50
0.0
 51
0.0
 71
     0
 72
   100
 73
     1
 74
     3
 75
     0
 76
     0
 77
     0
 78
     0
281
     0
 65
     1
110
0.0
120
0.0
130
0.0
111
1.0
121
0.0
131
0.0
112
0.0
122
1.0
132
0.0
 79
     0
146
0.0
  0
ENDTAB
  0
TABLE
  2
LTYPE
  5
5
330
0
100
AcDbSymbolTable
 70
     8
  0
LTYPE
  5
14
330
5
100
AcDbSymbolTableRecord
100
AcDbLinetypeTableRecord
  2
ByBlock
 70
     0
  3

 72
    65
 73
     0
 40
0.0
  0
LTYPE
  5
15
330
5
100
AcDbSymbolTableRecord
100
AcDbLinetypeTableRecord
  2
ByLayer
 70
     0
  3

 72
    65
 73
     0
 40
0.0
  0
LTYPE
  5
16
330
5
100
AcDbSymbolTableRecord
100
AcDbLinetypeTableRecord
  2
Continuous
 70
     0
  3
Solid line
 72
    65
 73
     0
 40
0.0
  0
LTYPE
  5
2A
330
5
100
AcDbSymbolTableRecord
100
AcDbLinetypeTableRecord
  2
DASHED
 70
     0
  3
Dashed
 72
    65
 73
     2
 40
15.0
 49
7.0
 74
     0
 49
-8.0
 74
     0
  0
LTYPE
  5
2B
330
5
100
AcDbSymbolTableRecord
100
AcDbLinetypeTableRecord
  2
DOTTED
 70
     0
  3
Dotted
 72
    65
 73
     2
 40
1.0
 49
0.0
 74
     0
 49
-1.0
 74
     0
  0
LTYPE
  5
2C
330
5
100
AcDbSymbolTableRecord
100
AcDbLinetypeTableRecord
  2
DOT_CENTER
 70
     0
  3
Dot_Center
 72
    65
 73
     4
 40
14.0
 49
12.0
 74
     0
 49
-1.0
 74
     0
 49
0.0
 74
     0
 49
-1.0
 74
     0
  0
LTYPE
  5
2D
330
5
100
AcDbSymbolTableRecord
100
AcDbLinetypeTableRecord
  2
LONG_DASHED
 70
     0
  3
Long_Dashed
 72
    65
 73
     2
 40
15.0
 49
10.0
 74
     0
 49
-5.0
 74
     0
  0
LTYPE
  5
2E
330
5
100
AcDbSymbolTableRecord
100
AcDbLinetypeTableRecord
  2
DASH_CENTER
 70
     0
  3
Dash_Center
 72
    65
 73
     4
 40
14.0
 49
11.0
 74
     0
 49
-1.0
 74
     0
 49
1.0
 74
     0
 49
-1.0
 74
     0
  0
LTYPE
  5
2F
330
5
100
AcDbSymbolTableRecord
100
AcDbLinetypeTableRecord
  2
PHANTOM
 70
     0
  3
Phantom
 72
    65
 73
     6
 40
13.0
 49
10.0
 74
     0
 49
-1.0
 74
     0
 49
0.0
 74
     0
 49
-1.0
 74
     0
 49
0.0
 74
     0
 49
-1.0
 74
     0
  0
LTYPE
  5
30
330
5
100
AcDbSymbolTableRecord
100
AcDbLinetypeTableRecord
  2
CENTER_DASH_DASH
 70
     0
  3
Center_Dash_Dash
 72
    65
 73
     6
 40
14.0
 49
9.0
 74
     0
 49
-1.0
 74
     0
 49
1.0
 74
     0
 49
-1.0
 74
     0
 49
1.0
 74
     0
 49
-1.0
 74
     0
  0
ENDTAB
  0
TABLE
  2
LAYER
  5
2
330
0
100
AcDbSymbolTable
 70
     3
  0
LAYER
  5
10
330
2
100
AcDbSymbolTableRecord
100
AcDbLayerTableRecord
  2
0
 70
     0
 62
     7
  6
Continuous
370
    -3
390
F
  0
LAYER
  5
31
330
2
100
AcDbSymbolTableRecord
100
AcDbLayerTableRecord
  2
1
 70
     0
 62
     7
  6
Continuous
370
    -3
390
F
  0
LAYER
  5
32
330
2
100
AcDbSymbolTableRecord
100
AcDbLayerTableRecord
  2
DEFAULT_1
 70
     0
 62
     7
  6
Continuous
370
    -3
390
F
  0
ENDTAB
  0
TABLE
  2
STYLE
  5
3
330
0
100
AcDbSymbolTable
 70
     2
  0
STYLE
  5
11
330
3
100
AcDbSymbolTableRecord
100
AcDbTextStyleTableRecord
  2
Standard
 70
     0
 40
0.0
 41
1.0
 50
0.0
 71
     0
 42
0.2
  3
txt
  4

  0
STYLE
  5
170
330
3
100
AcDbSymbolTableRecord
100
AcDbTextStyleTableRecord
  2
CONVERTER_11
 70
     0
 40
0.0
 41
0.9
 50
0.0
 71
     0
 42
0.2
  3
txt.shx
  4

  0
ENDTAB
  0
TABLE
  2
VIEW
  5
6
330
0
100
AcDbSymbolTable
 70
     0
  0
ENDTAB
  0
TABLE
  2
UCS
  5
7
330
0
100
AcDbSymbolTable
 70
     0
  0
ENDTAB
  0
TABLE
  2
APPID
  5
9
330
0
100
AcDbSymbolTable
 70
     1
  0
APPID
  5
12
330
9
100
AcDbSymbolTableRecord
100
AcDbRegAppTableRecord
  2
ACAD
 70
     0
  0
ENDTAB
  0
TABLE
  2
DIMSTYLE
  5
A
330
0
100
AcDbSymbolTable
 70
    10
100
AcDbDimStyleTable
  0
DIMSTYLE
105
27
330
A
100
AcDbSymbolTableRecord
100
AcDbDimStyleTableRecord
  2
Standard
 70
     0
340
11
  0
DIMSTYLE
105
174
102
{ACAD_REACTORS
330
175
102
}
330
A
100
AcDbSymbolTableRecord
100
AcDbDimStyleTableRecord
  2
ME10_DIM_10
 70
     0
 41
3.5
 42
0.0
 44
2.0
 73
     0
 74
     0
 77
     1
 78
     8
140
3.5
147
2.0
172
     1
173
     1
176
     2
177
     2
178
     2
271
     3
340
170
  0
DIMSTYLE
105
17F
102
{ACAD_REACTORS
330
180
102
}
330
A
100
AcDbSymbolTableRecord
100
AcDbDimStyleTableRecord
  2
ME10_DIM_11
 70
     0
  3
min.<>
 41
3.5
 42
0.0
 44
2.0
 73
     0
 74
     0
 77
     1
 78
     8
140
3.5
147
2.0
172
     1
173
     1
176
     2
177
     2
178
     2
271
     3
340
170
  0
DIMSTYLE
105
18C
102
{ACAD_REACTORS
330
18D
102
}
330
A
100
AcDbSymbolTableRecord
100
AcDbDimStyleTableRecord
  2
ME10_DIM_12
 70
     0
 41
3.5
 42
0.0
 44
2.0
 73
     0
 74
     0
 77
     1
 78
     8
140
3.5
147
2.0
172
     1
173
     1
176
     2
177
     2
178
     2
271
     3
340
170
  0
DIMSTYLE
105
197
102
{ACAD_REACTORS
330
198
102
}
330
A
100
AcDbSymbolTableRecord
100
AcDbDimStyleTableRecord
  2
ME10_DIM_13
 70
     0
 41
3.5
 42
0.0
 44
2.0
 73
     0
 74
     0
 77
     1
 78
     8
140
3.5
147
2.0
172
     1
173
     1
176
     2
177
     2
178
     2
271
     3
340
170
  0
DIMSTYLE
105
1A4
102
{ACAD_REACTORS
330
1A5
102
}
330
A
100
AcDbSymbolTableRecord
100
AcDbDimStyleTableRecord
  2
ME10_DIM_14
 70
     0
 41
3.5
 42
0.0
 44
2.0
 73
     0
 74
     0
 77
     1
 78
     8
140
3.5
147
2.0
172
     1
173
     1
176
     2
177
     2
178
     2
271
     3
340
170
  0
DIMSTYLE
105
1AF
102
{ACAD_REACTORS
330
1B0
102
}
330
A
100
AcDbSymbolTableRecord
100
AcDbDimStyleTableRecord
  2
ME10_DIM_15
 70
     0
 41
3.5
 42
0.0
 44
2.0
 73
     0
 74
     0
 77
     1
 78
     8
140
3.5
147
2.0
172
     1
173
     1
176
     2
177
     2
178
     2
271
     3
340
170
  0
DIMSTYLE
105
1BD
102
{ACAD_REACTORS
330
1BE
102
}
330
A
100
AcDbSymbolTableRecord
100
AcDbDimStyleTableRecord
  2
ME10_DIM_16
 70
     0
 41
3.5
 42
0.0
 44
2.0
 73
     0
 74
     0
 77
     1
 78
     8
140
3.5
147
2.0
172
     1
173
     1
176
     2
177
     2
178
     2
271
     3
340
170
  0
DIMSTYLE
105
1C9
102
{ACAD_REACTORS
330
1CA
102
}
330
A
100
AcDbSymbolTableRecord
100
AcDbDimStyleTableRecord
  2
ME10_DIM_17
 70
     0
 41
3.5
 42
0.0
 44
2.0
 73
     0
 74
     0
 77
     1
 78
     8
140
3.5
147
2.0
172
     1
173
     1
176
     2
177
     2
178
     2
271
     3
340
170
  0
DIMSTYLE
105
1D4
102
{ACAD_REACTORS
330
1D5
102
}
330
A
100
AcDbSymbolTableRecord
100
AcDbDimStyleTableRecord
  2
ME10_DIM_18
 70
     0
 41
3.5
 42
0.0
 44
2.0
 73
     0
 74
     0
 77
     1
 78
     8
140
3.5
147
2.0
172
     1
173
     1
176
     2
177
     2
178
     2
271
     3
340
170
  0
ENDTAB
  0
TABLE
  2
BLOCK_RECORD
  5
1
330
0
100
AcDbSymbolTable
 70
    10
  0
BLOCK_RECORD
  5
1F
330
1
100
AcDbSymbolTableRecord
100
AcDbBlockTableRecord
  2
*Model_Space
340
22
  0
BLOCK_RECORD
  5
1B
330
1
100
AcDbSymbolTableRecord
100
AcDbBlockTableRecord
  2
*Paper_Space
340
1E
  0
BLOCK_RECORD
  5
23
330
1
100
AcDbSymbolTableRecord
100
AcDbBlockTableRecord
  2
*Paper_Space0
340
26
  0
BLOCK_RECORD
  5
168
330
1
100
AcDbSymbolTableRecord
100
AcDbBlockTableRecord
  2
*D1
340
0
  0
BLOCK_RECORD
  5
176
330
1
100
AcDbSymbolTableRecord
100
AcDbBlockTableRecord
  2
*D2
340
0
  0
BLOCK_RECORD
  5
181
330
1
100
AcDbSymbolTableRecord
100
AcDbBlockTableRecord
  2
*D3
340
0
  0
BLOCK_RECORD
  5
18E
330
1
100
AcDbSymbolTableRecord
100
AcDbBlockTableRecord
  2
*D4
340
0
  0
BLOCK_RECORD
  5
199
330
1
100
AcDbSymbolTableRecord
100
AcDbBlockTableRecord
  2
*D5
340
0
  0
BLOCK_RECORD
  5
1A6
330
1
100
AcDbSymbolTableRecord
100
AcDbBlockTableRecord
  2
*D6
340
0
  0
BLOCK_RECORD
  5
1B1
330
1
100
AcDbSymbolTableRecord
100
AcDbBlockTableRecord
  2
*D7
340
0
  0
BLOCK_RECORD
  5
1BF
330
1
100
AcDbSymbolTableRecord
100
AcDbBlockTableRecord
  2
*D8
340
0
  0
BLOCK_RECORD
  5
1CB
330
1
100
AcDbSymbolTableRecord
100
AcDbBlockTableRecord
  2
*D9
340
0
  0
ENDTAB
  0
ENDSEC
  0
SECTION
  2
BLOCKS
  0
BLOCK
  5
20
330
1F
100
AcDbEntity
  8
0
100
AcDbBlockBegin
  2
*Model_Space
 70
     0
 71
     0
 10
0.0
 20
0.0
 30
0.0
  3
*Model_Space
  1

  0
ENDBLK
  5
21
330
1F
100
AcDbEntity
  8
0
100
AcDbBlockEnd
  0
BLOCK
  5
1C
330
1B
100
AcDbEntity
 67
     1
  8
0
100
AcDbBlockBegin
  2
*Paper_Space
 70
     0
 71
     0
 10
0.0
 20
0.0
 30
0.0
  3
*Paper_Space
  1

  0
ENDBLK
  5
1D
330
1B
100
AcDbEntity
 67
     1
  8
0
100
AcDbBlockEnd
  0
BLOCK
  5
24
330
23
100
AcDbEntity
  8
0
100
AcDbBlockBegin
  2
*Paper_Space0
 70
     0
 71
     0
 10
0.0
 20
0.0
 30
0.0
  3
*Paper_Space0
  1

  0
ENDBLK
  5
25
330
23
100
AcDbEntity
  8
0
100
AcDbBlockEnd
  0
BLOCK
  5
172
330
168
100
AcDbEntity
  8
0
100
AcDbBlockBegin
  2
*D1
 70
     1
 71
     0
 10
0.0
 20
0.0
 30
0.0
  3
*D1
  1

  0
LINE
  5
169
330
168
100
AcDbEntity
  8
1
  6
Continuous
 62
     2
100
AcDbLine
 10
179.736195943135
 20
128.5996543779
 30
0.0
 11
179.736195943135
 21
121.5996543779
 31
0.0
  0
LINE
  5
16A
330
168
100
AcDbEntity
  8
1
  6
Continuous
 62
     2
100
AcDbLine
 10
179.736195943135
 20
129.5996543779
 30
0.0
 11
179.736195943135
 21
128.5996543779
 31
0.0
  0
LINE
  5
16B
330
168
100
AcDbEntity
  8
1
  6
Continuous
 62
     2
100
AcDbLine
 10
179.736195943135
 20
136.5996543779
 30
0.0
 11
179.736195943135
 21
129.5996543779
 31
0.0
  0
LINE
  5
16C
330
168
100
AcDbEntity
  8
1
  6
Continuous
 62
     2
100
AcDbLine
 10
169.7834101381999
 20
129.5996543779
 30
0.0
 11
181.736195943135
 21
129.5996543779
 31
0.0
  0
LINE
  5
16D
330
168
100
AcDbEntity
  8
1
  6
Continuous
 62
     2
100
AcDbLine
 10
108.7834101381999
 20
128.5996543779
 30
0.0
 11
181.736195943135
 21
128.5996543779
 31
0.0
  0
SOLID
  5
16E
330
168
100
AcDbEntity
  8
1
 62
     2
100
AcDbTrace
 10
179.2754122015791
 20
133.0996543779
 30
0.0
 11
180.1969796846909
 21
133.0996543779
 31
0.0
 12
179.736195943135
 22
129.5996543779
 32
0.0
 13
179.736195943135
 23
129.5996543779
 33
0.0
  0
SOLID
  5
16F
330
168
100
AcDbEntity
  8
1
 62
     2
100
AcDbTrace
 10
180.1969796846909
 20
125.0996543779
 30
0.0
 11
179.2754122015791
 21
125.0996543779
 31
0.0
 12
179.736195943135
 22
128.5996543779
 32
0.0
 13
179.736195943135
 23
128.5996543779
 33
0.0
  0
MTEXT
  5
171
330
168
100
AcDbEntity
  8
1
 62
     2
100
AcDbMText
 10
177.736195943135
 20
123.794751955626
 30
0.0
 40
3.5
 41
0.0
 71
     7
 72
     1
  1
1
  7
CONVERTER_11
 11
0.0
 21
1.0
 31
0.0
 73
     1
 44
0.60024009603842
  0
ENDBLK
  5
173
330
168
100
AcDbEntity
  8
0
100
AcDbBlockEnd
  0
BLOCK
  5
17D
330
176
100
AcDbEntity
  8
0
100
AcDbBlockBegin
  2
*D2
 70
     1
 71
     0
 10
0.0
 20
0.0
 30
0.0
  3
*D2
  1

  0
LINE
  5
177
330
176
100
AcDbEntity
  8
1
  6
Continuous
 62
     2
100
AcDbLine
 10
111.2834101381999
 20
99.618907128273
 30
0.0
 11
73.2834101382
 21
99.618907128273
 31
0.0
  0
LINE
  5
178
330
176
100
AcDbEntity
  8
1
  6
Continuous
 62
     2
100
AcDbLine
 10
111.2834101381999
 20
131.0996543779
 30
0.0
 11
111.2834101381999
 21
97.618907128273
 31
0.0
  0
LINE
  5
179
330
176
100
AcDbEntity
  8
1
  6
Continuous
 62
     2
100
AcDbLine
 10
73.2834101382
 20
131.0996543778999
 30
0.0
 11
73.2834101382
 21
97.618907128273
 31
0.0
  0
SOLID
  5
17A
330
176
100
AcDbEntity
  8
1
 62
     2
100
AcDbTrace
 10
107.7834101381999
 20
99.15812338671711
 30
0.0
 11
107.7834101381999
 21
100.0796908698289
 31
0.0
 12
111.2834101381999
 22
99.618907128273
 32
0.0
 13
111.2834101381999
 23
99.618907128273
 33
0.0
  0
SOLID
  5
17B
330
176
100
AcDbEntity
  8
1
 62
     2
100
AcDbTrace
 10
76.7834101382
 20
100.0796908698289
 30
0.0
 11
76.7834101382
 21
99.15812338671711
 31
0.0
 12
73.2834101382
 22
99.618907128273
 32
0.0
 13
73.2834101382
 23
99.618907128273
 33
0.0
  0
MTEXT
  5
17C
330
176
100
AcDbEntity
  8
1
 62
     2
100
AcDbMText
 10
81.29957380671763
 20
101.6188792999677
 30
0.0
 40
3.5
 41
0.0
 71
     7
 72
     1
  1
\C2;min.\C2;38
  7
CONVERTER_11
 11
0.9999999999970621
 21
2.424068405545307E-6
 31
0.0
 73
     1
 44
0.60024009603842
  0
ENDBLK
  5
17E
330
176
100
AcDbEntity
  8
0
100
AcDbBlockEnd
  0
BLOCK
  5
18A
330
181
100
AcDbEntity
  8
0
100
AcDbBlockBegin
  2
*D3
 70
     1
 71
     0
 10
0.0
 20
0.0
 30
0.0
  3
*D3
  1

  0
LINE
  5
182
330
181
100
AcDbEntity
  8
1
  6
Continuous
 62
     2
100
AcDbLine
 10
114.7834101382
 20
119.559191074472
 30
0.0
 11
121.7834101382
 21
119.559191074472
 31
0.0
  0
LINE
  5
183
330
181
100
AcDbEntity
  8
1
  6
Continuous
 62
     2
100
AcDbLine
 10
111.2834101381999
 20
119.559191074472
 30
0.0
 11
114.7834101382
 21
119.559191074472
 31
0.0
  0
LINE
  5
184
330
181
100
AcDbEntity
  8
1
  6
Continuous
 62
     2
100
AcDbLine
 10
101.82904351886
 20
119.559191074472
 30
0.0
 11
111.2834101381999
 21
119.559191074472
 31
0.0
  0
LINE
  5
185
330
181
100
AcDbEntity
  8
1
  6
Continuous
 62
     2
100
AcDbLine
 10
111.2834101381999
 20
131.0996543779
 30
0.0
 11
111.2834101381999
 21
117.559191074472
 31
0.0
  0
LINE
  5
186
330
181
100
AcDbEntity
  8
1
  6
Continuous
 62
     2
100
AcDbLine
 10
114.7834101382
 20
129.5996543779
 30
0.0
 11
114.7834101382
 21
117.559191074472
 31
0.0
  0
SOLID
  5
187
330
181
100
AcDbEntity
  8
1
 62
     2
100
AcDbTrace
 10
107.7834101381999
 20
119.0984073329161
 30
0.0
 11
107.7834101381999
 21
120.0199748160279
 31
0.0
 12
111.2834101381999
 22
119.559191074472
 32
0.0
 13
111.2834101381999
 23
119.559191074472
 33
0.0
  0
SOLID
  5
188
330
181
100
AcDbEntity
  8
1
 62
     2
100
AcDbTrace
 10
118.2834101382
 20
120.0199748160279
 30
0.0
 11
118.2834101382
 21
119.0984073329161
 31
0.0
 12
114.7834101382
 22
119.559191074472
 32
0.0
 13
114.7834101382
 23
119.559191074472
 33
0.0
  0
MTEXT
  5
189
330
181
100
AcDbEntity
  8
1
 62
     2
100
AcDbMText
 10
101.82904351886
 20
121.559191074472
 30
0.0
 40
3.5
 41
0.0
 71
     7
 72
     1
  1
3.5
  7
CONVERTER_11
 11
0.9999999999970621
 21
2.424068405545307E-6
 31
0.0
 73
     1
 44
0.60024009603842
  0
ENDBLK
  5
18B
330
181
100
AcDbEntity
  8
0
100
AcDbBlockEnd
  0
BLOCK
  5
195
330
18E
100
AcDbEntity
  8
0
100
AcDbBlockBegin
  2
*D4
 70
     1
 71
     0
 10
0.0
 20
0.0
 30
0.0
  3
*D4
  1

  0
LINE
  5
18F
330
18E
100
AcDbEntity
  8
1
  6
Continuous
 62
     2
100
AcDbLine
 10
80.2834101382
 20
109.668012950943
 30
0.0
 11
111.2834101381999
 21
109.668012950943
 31
0.0
  0
LINE
  5
190
330
18E
100
AcDbEntity
  8
1
  6
Continuous
 62
     2
100
AcDbLine
 10
80.2834101382
 20
133.5996543779
 30
0.0
 11
80.2834101382
 21
107.668012950943
 31
0.0
  0
LINE
  5
191
330
18E
100
AcDbEntity
  8
1
  6
Continuous
 62
     2
100
AcDbLine
 10
111.2834101381999
 20
131.0996543779
 30
0.0
 11
111.2834101381999
 21
107.668012950943
 31
0.0
  0
SOLID
  5
192
330
18E
100
AcDbEntity
  8
1
 62
     2
100
AcDbTrace
 10
83.7834101382
 20
110.1287966924989
 30
0.0
 11
83.7834101382
 21
109.2072292093871
 31
0.0
 12
80.2834101382
 22
109.668012950943
 32
0.0
 13
80.2834101382
 23
109.668012950943
 33
0.0
  0
SOLID
  5
193
330
18E
100
AcDbEntity
  8
1
 62
     2
100
AcDbTrace
 10
107.7834101381999
 20
109.2072292093871
 30
0.0
 11
107.7834101381999
 21
110.1287966924989
 31
0.0
 12
111.2834101381999
 22
109.668012950943
 32
0.0
 13
111.2834101381999
 23
109.668012950943
 33
0.0
  0
MTEXT
  5
194
330
18E
100
AcDbEntity
  8
1
 62
     2
100
AcDbMText
 10
95.39028094786491
 20
111.668012950943
 30
0.0
 40
3.5
 41
0.0
 71
     7
 72
     1
  1
31
  7
CONVERTER_11
 11
0.9999999999970621
 21
2.424068405545307E-6
 31
0.0
 73
     1
 44
0.60024009603842
  0
ENDBLK
  5
196
330
18E
100
AcDbEntity
  8
0
100
AcDbBlockEnd
  0
BLOCK
  5
1A2
330
199
100
AcDbEntity
  8
0
100
AcDbBlockBegin
  2
*D5
 70
     1
 71
     0
 10
0.0
 20
0.0
 30
0.0
  3
*D5
  1

  0
LINE
  5
19A
330
199
100
AcDbEntity
  8
1
  6
Continuous
 62
     2
100
AcDbLine
 10
63.2262206653976
 20
128.5996543778999
 30
0.0
 11
63.2262206653976
 21
121.5996543778999
 31
0.0
  0
LINE
  5
19B
330
199
100
AcDbEntity
  8
1
  6
Continuous
 62
     2
100
AcDbLine
 10
63.2262206653976
 20
133.5996543779
 30
0.0
 11
63.2262206653976
 21
128.5996543778999
 31
0.0
  0
LINE
  5
19C
330
199
100
AcDbEntity
  8
1
  6
Continuous
 62
     2
100
AcDbLine
 10
63.2262206653976
 20
140.5996543779
 30
0.0
 11
63.2262206653976
 21
133.5996543779
 31
0.0
  0
LINE
  5
19D
330
199
100
AcDbEntity
  8
1
  6
Continuous
 62
     2
100
AcDbLine
 10
80.2834101382
 20
133.5996543779
 30
0.0
 11
61.2262206653976
 21
133.5996543779
 31
0.0
  0
LINE
  5
19E
330
199
100
AcDbEntity
  8
1
  6
Continuous
 62
     2
100
AcDbLine
 10
75.7834101382
 20
128.5996543778999
 30
0.0
 11
61.2262206653976
 21
128.5996543778999
 31
0.0
  0
SOLID
  5
19F
330
199
100
AcDbEntity
  8
1
 62
     2
100
AcDbTrace
 10
62.76543692384171
 20
137.0996543779
 30
0.0
 11
63.68700440695348
 21
137.0996543779
 31
0.0
 12
63.2262206653976
 22
133.5996543779
 32
0.0
 13
63.2262206653976
 23
133.5996543779
 33
0.0
  0
SOLID
  5
1A0
330
199
100
AcDbEntity
  8
1
 62
     2
100
AcDbTrace
 10
63.68700440695348
 20
125.0996543778999
 30
0.0
 11
62.76543692384171
 21
125.0996543778999
 31
0.0
 12
63.2262206653976
 22
128.5996543778999
 32
0.0
 13
63.2262206653976
 23
128.5996543778999
 33
0.0
  0
MTEXT
  5
1A1
330
199
100
AcDbEntity
  8
1
 62
     2
100
AcDbMText
 10
61.2262206653976
 20
130.248906507483
 30
0.0
 40
3.5
 41
0.0
 71
     7
 72
     1
  1
5
  7
CONVERTER_11
 11
0.0
 21
1.0
 31
0.0
 73
     1
 44
0.60024009603842
  0
ENDBLK
  5
1A3
330
199
100
AcDbEntity
  8
0
100
AcDbBlockEnd
  0
BLOCK
  5
1AD
330
1A6
100
AcDbEntity
  8
0
100
AcDbBlockBegin
  2
*D6
 70
     1
 71
     0
 10
0.0
 20
0.0
 30
0.0
  3
*D6
  1

  0
LINE
  5
1A7
330
1A6
100
AcDbEntity
  8
1
  6
Continuous
 62
     2
100
AcDbLine
 10
63.2262206653976
 20
161.5996543779
 30
0.0
 11
63.2262206653976
 21
133.5996543779
 31
0.0
  0
LINE
  5
1A8
330
1A6
100
AcDbEntity
  8
1
  6
Continuous
 62
     2
100
AcDbLine
 10
80.2834101382
 20
161.5996543779
 30
0.0
 11
61.2262206653976
 21
161.5996543779
 31
0.0
  0
LINE
  5
1A9
330
1A6
100
AcDbEntity
  8
1
  6
Continuous
 62
     2
100
AcDbLine
 10
80.2834101382
 20
133.5996543779
 30
0.0
 11
61.2262206653976
 21
133.5996543779
 31
0.0
  0
SOLID
  5
1AA
330
1A6
100
AcDbEntity
  8
1
 62
     2
100
AcDbTrace
 10
63.68700440695348
 20
158.0996543779
 30
0.0
 11
62.76543692384171
 21
158.0996543779
 31
0.0
 12
63.2262206653976
 22
161.5996543779
 32
0.0
 13
63.2262206653976
 23
161.5996543779
 33
0.0
  0
SOLID
  5
1AB
330
1A6
100
AcDbEntity
  8
1
 62
     2
100
AcDbTrace
 10
62.76543692384171
 20
137.0996543779
 30
0.0
 11
63.68700440695348
 21
137.0996543779
 31
0.0
 12
63.2262206653976
 22
133.5996543779
 32
0.0
 13
63.2262206653976
 23
133.5996543779
 33
0.0
  0
MTEXT
  5
1AC
330
1A6
100
AcDbEntity
  8
1
 62
     2
100
AcDbMText
 10
61.2262206653976
 20
145.250102568892
 30
0.0
 40
3.5
 41
0.0
 71
     7
 72
     1
  1
28
  7
CONVERTER_11
 11
0.0
 21
1.0
 31
0.0
 73
     1
 44
0.60024009603842
  0
ENDBLK
  5
1AE
330
1A6
100
AcDbEntity
  8
0
100
AcDbBlockEnd
  0
BLOCK
  5
1BB
330
1B1
100
AcDbEntity
  8
0
100
AcDbBlockBegin
  2
*D7
 70
     1
 71
     0
 10
0.0
 20
0.0
 30
0.0
  3
*D7
  1

  0
LINE
  5
1B2
330
1B1
100
AcDbEntity
  8
1
  6
Continuous
 62
     2
100
AcDbLine
 10
189.545245666253
 20
133.5996543779
 30
0.0
 11
189.545245666253
 21
140.5996543779
 31
0.0
  0
LINE
  5
1B3
330
1B1
100
AcDbEntity
  8
1
  6
Continuous
 62
     2
100
AcDbLine
 10
189.545245666253
 20
129.5996543779
 30
0.0
 11
189.545245666253
 21
133.5996543779
 31
0.0
  0
LINE
  5
1B4
330
1B1
100
AcDbEntity
  8
1
  6
Continuous
 62
     2
100
AcDbLine
 10
189.545245666253
 20
122.5996543779
 30
0.0
 11
189.545245666253
 21
129.5996543779
 31
0.0
  0
LINE
  5
1B5
330
1B1
100
AcDbEntity
  8
1
  6
Continuous
 62
     2
100
AcDbLine
 10
169.7834101381999
 20
129.5996543779
 30
0.0
 11
191.545245666253
 21
129.5996543779
 31
0.0
  0
LINE
  5
1B6
330
1B1
100
AcDbEntity
  8
1
  6
Continuous
 62
     2
100
AcDbLine
 10
148.2834101382
 20
133.5996543779
 30
0.0
 11
177.396412416633
 21
133.5996543779
 31
0.0
  0
LINE
  5
1B7
330
1B1
100
AcDbEntity
  8
1
  6
Continuous
 62
     2
100
AcDbLine
 10
182.928800120357
 20
133.5996543779
 30
0.0
 11
191.545245666253
 21
133.5996543779
 31
0.0
  0
SOLID
  5
1B8
330
1B1
100
AcDbEntity
  8
1
 62
     2
100
AcDbTrace
 10
190.0060294078089
 20
126.0996543779
 30
0.0
 11
189.0844619246971
 21
126.0996543779
 31
0.0
 12
189.545245666253
 22
129.5996543779
 32
0.0
 13
189.545245666253
 23
129.5996543779
 33
0.0
  0
SOLID
  5
1B9
330
1B1
100
AcDbEntity
  8
1
 62
     2
100
AcDbTrace
 10
189.0844619246971
 20
137.0996543779
 30
0.0
 11
190.0060294078089
 21
137.0996543779
 31
0.0
 12
189.545245666253
 22
133.5996543779
 32
0.0
 13
189.545245666253
 23
133.5996543779
 33
0.0
  0
MTEXT
  5
1BA
330
1B1
100
AcDbEntity
  8
1
 62
     2
100
AcDbMText
 10
187.545245666253
 20
123.935581066349
 30
0.0
 40
3.5
 41
0.0
 71
     7
 72
     1
  1
4
  7
CONVERTER_11
 11
0.0
 21
1.0
 31
0.0
 73
     1
 44
0.60024009603842
  0
ENDBLK
  5
1BC
330
1B1
100
AcDbEntity
  8
0
100
AcDbBlockEnd
  0
BLOCK
  5
1C7
330
1BF
100
AcDbEntity
  8
0
100
AcDbBlockBegin
  2
*D8
 70
     1
 71
     0
 10
0.0
 20
0.0
 30
0.0
  3
*D8
  1

  0
LINE
  5
1C0
330
1BF
100
AcDbEntity
  8
1
  6
Continuous
 62
     2
100
AcDbLine
 10
189.545245666253
 20
133.5996543779
 30
0.0
 11
189.545245666253
 21
161.5996543779
 31
0.0
  0
LINE
  5
1C1
330
1BF
100
AcDbEntity
  8
1
  6
Continuous
 62
     2
100
AcDbLine
 10
148.2834101382
 20
133.5996543779
 30
0.0
 11
177.396412416633
 21
133.5996543779
 31
0.0
  0
LINE
  5
1C2
330
1BF
100
AcDbEntity
  8
1
  6
Continuous
 62
     2
100
AcDbLine
 10
182.928800120357
 20
133.5996543779
 30
0.0
 11
191.545245666253
 21
133.5996543779
 31
0.0
  0
LINE
  5
1C3
330
1BF
100
AcDbEntity
  8
1
  6
Continuous
 62
     2
100
AcDbLine
 10
148.2834101382
 20
161.5996543779
 30
0.0
 11
191.545245666253
 21
161.5996543779
 31
0.0
  0
SOLID
  5
1C4
330
1BF
100
AcDbEntity
  8
1
 62
     2
100
AcDbTrace
 10
189.0844619246971
 20
137.0996543779
 30
0.0
 11
190.0060294078089
 21
137.0996543779
 31
0.0
 12
189.545245666253
 22
133.5996543779
 32
0.0
 13
189.545245666253
 23
133.5996543779
 33
0.0
  0
SOLID
  5
1C5
330
1BF
100
AcDbEntity
  8
1
 62
     2
100
AcDbTrace
 10
190.0060294078089
 20
158.0996543779
 30
0.0
 11
189.0844619246971
 21
158.0996543779
 31
0.0
 12
189.545245666253
 22
161.5996543779
 32
0.0
 13
189.545245666253
 23
161.5996543779
 33
0.0
  0
MTEXT
  5
1C6
330
1BF
100
AcDbEntity
  8
1
 62
     2
100
AcDbMText
 10
187.545245666253
 20
146.716522068059
 30
0.0
 40
3.5
 41
0.0
 71
     7
 72
     1
  1
28
  7
CONVERTER_11
 11
0.0
 21
1.0
 31
0.0
 73
     1
 44
0.60024009603842
  0
ENDBLK
  5
1C8
330
1BF
100
AcDbEntity
  8
0
100
AcDbBlockEnd
  0
BLOCK
  5
1D2
330
1CB
100
AcDbEntity
  8
0
100
AcDbBlockBegin
  2
*D9
 70
     1
 71
     0
 10
0.0
 20
0.0
 30
0.0
  3
*D9
  1

  0
LINE
  5
1CC
330
1CB
100
AcDbEntity
  8
1
  6
Continuous
 62
     2
100
AcDbLine
 10
114.7834101382
 20
109.75173284228
 30
0.0
 11
148.2834101382
 21
109.75173284228
 31
0.0
  0
LINE
  5
1CD
330
1CB
100
AcDbEntity
  8
1
  6
Continuous
 62
     2
100
AcDbLine
 10
114.7834101382
 20
129.5996543779
 30
0.0
 11
114.7834101382
 21
107.75173284228
 31
0.0
  0
LINE
  5
1CE
330
1CB
100
AcDbEntity
  8
1
  6
Continuous
 62
     2
100
AcDbLine
 10
148.2834101382
 20
137.4625545311
 30
0.0
 11
148.2834101382
 21
107.75173284228
 31
0.0
  0
SOLID
  5
1CF
330
1CB
100
AcDbEntity
  8
1
 62
     2
100
AcDbTrace
 10
118.2834101382
 20
110.2125165838359
 30
0.0
 11
118.2834101382
 21
109.2909491007241
 31
0.0
 12
114.7834101382
 22
109.75173284228
 32
0.0
 13
114.7834101382
 23
109.75173284228
 33
0.0
  0
SOLID
  5
1D0
330
1CB
100
AcDbEntity
  8
1
 62
     2
100
AcDbTrace
 10
144.7834101382
 20
109.2909491007241
 30
0.0
 11
144.7834101382
 21
110.2125165838359
 31
0.0
 12
148.2834101382
 22
109.75173284228
 32
0.0
 13
148.2834101382
 23
109.75173284228
 33
0.0
  0
MTEXT
  5
1D1
330
1CB
100
AcDbEntity
  8
1
 62
     2
100
AcDbMText
 10
126.047472682731
 20
111.75173284228
 30
0.0
 40
3.5
 41
0.0
 71
     7
 72
     1
  1
33.5
  7
CONVERTER_11
 11
0.9999999999970621
 21
2.424068405545307E-6
 31
0.0
 73
     1
 44
0.60024009603842
  0
ENDBLK
  5
1D3
330
1CB
100
AcDbEntity
  8
0
100
AcDbBlockEnd
  0
ENDSEC
  0
SECTION
  2
ENTITIES
  0
POINT
  5
33
330
1F
100
AcDbEntity
  8
1
 62
     3
 60
     1
100
AcDbPoint
 10
80.2834101382
 20
157.890458049706
 30
0.0
  0
POINT
  5
34
330
1F
100
AcDbEntity
  8
1
 62
     3
 60
     1
100
AcDbPoint
 10
80.2834101382
 20
161.5996543779
 30
0.0
  0
POINT
  5
35
330
1F
100
AcDbEntity
  8
1
 62
     3
 60
     1
100
AcDbPoint
 10
80.2834101382
 20
137.231165688396
 30
0.0
  0
POINT
  5
36
330
1F
100
AcDbEntity
  8
1
 62
     3
 60
     1
100
AcDbPoint
 10
80.2834101382
 20
133.5996543779
 30
0.0
  0
POINT
  5
37
330
1F
100
AcDbEntity
  8
1
 62
     3
 60
     1
100
AcDbPoint
 10
148.2834101382
 20
133.5996543779
 30
0.0
  0
POINT
  5
38
330
1F
100
AcDbEntity
  8
1
 62
     3
 60
     1
100
AcDbPoint
 10
148.2834101382
 20
161.5996543779
 30
0.0
  0
POINT
  5
39
330
1F
100
AcDbEntity
  8
1
 62
     3
 60
     1
100
AcDbPoint
 10
102.0579285040183
 20
144.2470324281679
 30
0.0
  0
POINT
  5
3A
330
1F
100
AcDbEntity
  8
1
 62
     3
 60
     1
100
AcDbPoint
 10
102.448147756792
 20
150.4292732805587
 30
0.0
  0
POINT
  5
3B
330
1F
100
AcDbEntity
  8
1
 62
     3
 60
     1
100
AcDbPoint
 10
113.0334101382
 20
152.8495543779
 30
0.0
  0
POINT
  5
3C
330
1F
100
AcDbEntity
  8
1
 62
     3
 60
     1
100
AcDbPoint
 10
110.9794853569297
 20
150.8889425610934
 30
0.0
  0
POINT
  5
3D
330
1F
100
AcDbEntity
  8
1
 62
     3
 60
     1
100
AcDbPoint
 10
111.4881120879724
 20
151.0944410350558
 30
0.0
  0
POINT
  5
3E
330
1F
100
AcDbEntity
  8
1
 62
     3
 60
     1
100
AcDbPoint
 10
121.60321178728
 20
155.181205307007
 30
0.0
  0
POINT
  5
3F
330
1F
100
AcDbEntity
  8
1
 62
     3
 60
     1
100
AcDbPoint
 10
120.5334101382
 20
138.8496543779
 30
0.0
  0
POINT
  5
40
330
1F
100
AcDbEntity
  8
1
 62
     3
 60
     1
100
AcDbPoint
 10
109.7834101382
 20
158.2996543779
 30
0.0
  0
POINT
  5
41
330
1F
100
AcDbEntity
  8
1
 62
     3
 60
     1
100
AcDbPoint
 10
113.0334101382
 20
155.8496543779
 30
0.0
  0
POINT
  5
42
330
1F
100
AcDbEntity
  8
1
 62
     3
 60
     1
100
AcDbPoint
 10
116.2834101382
 20
160.5996543779
 30
0.0
  0
LINE
  5
43
330
1F
100
AcDbEntity
  8
1
  6
Continuous
 62
     7
100
AcDbLine
 10
77.2834101382
 20
130.0996543778998
 30
0.0
 11
79.7834101382
 21
130.0996543778998
 31
0.0
  0
LINE
  5
44
330
1F
100
AcDbEntity
  8
1
  6
Continuous
 62
     7
100
AcDbLine
 10
107.2834101381999
 20
130.0996543778998
 30
0.0
 11
107.2834101381999
 21
132.5996543778998
 31
0.0
  0
LINE
  5
45
330
1F
100
AcDbEntity
  8
1
  6
Continuous
 62
     7
100
AcDbLine
 10
107.2834101381999
 20
132.5996543778998
 30
0.0
 11
109.7834101381999
 21
132.5996543778998
 31
0.0
  0
LINE
  5
46
330
1F
100
AcDbEntity
  8
1
  6
Continuous
 62
     7
100
AcDbLine
 10
109.2834101381999
 20
164.5996543778998
 30
0.0
 11
80.28341013820001
 21
164.5996543778998
 31
0.0
  0
LINE
  5
47
330
1F
100
AcDbEntity
  8
1
  6
Continuous
 62
     7
100
AcDbLine
 10
109.7834101381999
 20
162.0996543778998
 30
0.0
 11
107.2834101381999
 21
162.0996543779
 31
0.0
  0
LINE
  5
48
330
1F
100
AcDbEntity
  8
1
  6
Continuous
 62
     7
100
AcDbLine
 10
109.2834101381999
 20
162.0996543778998
 30
0.0
 11
109.2834101381999
 21
164.5996543778998
 31
0.0
  0
LINE
  5
49
330
1F
100
AcDbEntity
  8
1
  6
Continuous
 62
     7
100
AcDbLine
 10
79.78341013820045
 20
161.5996543778998
 30
0.0
 11
79.7834101382
 21
130.0996543778998
 31
0.0
  0
LINE
  5
4A
330
1F
100
AcDbEntity
  8
1
  6
Continuous
 62
     7
100
AcDbLine
 10
79.7834101382
 20
130.0996543778998
 30
0.0
 11
86.0834101382
 21
130.0996543778998
 31
0.0
  0
LINE
  5
4B
330
1F
100
AcDbEntity
  8
1
  6
Continuous
 62
     7
100
AcDbLine
 10
107.2834101381999
 20
162.0996543779
 30
0.0
 11
80.2834101382
 21
162.0996543778998
 31
0.0
  0
LINE
  5
4C
330
1F
100
AcDbEntity
  8
1
  6
Continuous
 62
     7
100
AcDbLine
 10
96.28341013819993
 20
130.0996543778998
 30
0.0
 11
107.2834101381999
 21
130.0996543778998
 31
0.0
  0
LINE
  5
4D
330
1F
100
AcDbEntity
  8
1
  6
Continuous
 62
     7
100
AcDbLine
 10
77.28341013819998
 20
161.5996543778998
 30
0.0
 11
77.2834101382
 21
130.0996543778998
 31
0.0
  0
LINE
  5
4E
330
1F
100
AcDbEntity
  8
1
  6
Continuous
 62
     7
100
AcDbLine
 10
96.78341013819993
 20
130.0996543778998
 30
0.0
 11
96.28341013819993
 21
130.0996543778998
 31
0.0
  0
LINE
  5
4F
330
1F
100
AcDbEntity
  8
1
  6
Continuous
 62
     7
100
AcDbLine
 10
98.28341013819993
 20
164.5996543778998
 30
0.0
 11
98.28341013819993
 21
164.7996543778997
 31
0.0
  0
LINE
  5
50
330
1F
100
AcDbEntity
  8
1
  6
Continuous
 62
     7
100
AcDbLine
 10
101.2834101381999
 20
166.0996543778998
 30
0.0
 11
101.2834101381999
 21
164.7996543778997
 31
0.0
  0
LINE
  5
51
330
1F
100
AcDbEntity
  8
1
  6
Continuous
 62
     7
100
AcDbLine
 10
97.78341013819993
 20
130.0996543778998
 30
0.0
 11
96.78341013819993
 21
130.0996543778998
 31
0.0
  0
LINE
  5
52
330
1F
100
AcDbEntity
  8
1
  6
Continuous
 62
     7
100
AcDbLine
 10
98.28341013819993
 20
166.0996543778998
 30
0.0
 11
101.2834101381999
 21
166.0996543778998
 31
0.0
  0
LINE
  5
53
330
1F
100
AcDbEntity
  8
1
  6
Continuous
 62
     7
100
AcDbLine
 10
96.28341013819993
 20
130.0996543778998
 30
0.0
 11
86.28341013819993
 21
130.0996543778998
 31
0.0
  0
LINE
  5
54
330
1F
100
AcDbEntity
  8
1
  6
Continuous
 62
     7
100
AcDbLine
 10
101.2834101381999
 20
164.7996543778997
 30
0.0
 11
98.28341013819993
 21
164.7996543778997
 31
0.0
  0
LINE
  5
55
330
1F
100
AcDbEntity
  8
1
  6
Continuous
 62
     7
100
AcDbLine
 10
101.2834101381999
 20
164.7996543778997
 30
0.0
 11
101.2834101381999
 21
164.5996543778998
 31
0.0
  0
LINE
  5
56
330
1F
100
AcDbEntity
  8
1
  6
Continuous
 62
     7
100
AcDbLine
 10
98.28341013819993
 20
164.7996543778997
 30
0.0
 11
98.28341013819993
 21
166.0996543778998
 31
0.0
  0
LINE
  5
57
330
1F
100
AcDbEntity
  8
1
  6
Continuous
 62
     7
100
AcDbLine
 10
98.28341013819993
 20
161.5996543779
 30
0.0
 11
98.28341013819993
 21
162.0996543779
 31
0.0
  0
LINE
  5
58
330
1F
100
AcDbEntity
  8
1
  6
Continuous
 62
     7
100
AcDbLine
 10
101.2834101381999
 20
162.0996543779
 30
0.0
 11
101.2834101381999
 21
161.5996543779
 31
0.0
  0
LINE
  5
59
330
1F
100
AcDbEntity
  8
1
  6
Continuous
 62
     7
100
AcDbLine
 10
107.2834101381999
 20
161.5996543779
 30
0.0
 11
107.2834101381999
 21
162.0996543779
 31
0.0
  0
LINE
  5
5A
330
1F
100
AcDbEntity
  8
1
  6
Continuous
 62
     7
100
AcDbLine
 10
107.2834101381999
 20
132.5996543778998
 30
0.0
 11
107.2834101381999
 21
133.5996543779
 31
0.0
  0
LINE
  5
5B
330
1F
100
AcDbEntity
  8
1
  6
Continuous
 62
     7
100
AcDbLine
 10
111.2834101381999
 20
159.4465283426873
 30
0.0
 11
111.2834101381999
 21
165.5996543779
 31
0.0
  0
LINE
  5
5C
330
1F
100
AcDbEntity
  8
1
  6
Continuous
 62
     7
100
AcDbLine
 10
111.2834101381999
 20
133.5996543779
 30
0.0
 11
109.7834101381999
 21
133.5996543779
 31
0.0
  0
LINE
  5
5D
330
1F
100
AcDbEntity
  8
1
  6
Continuous
 62
     7
100
AcDbLine
 10
73.2834101382
 20
138.5996543779
 30
0.0
 11
74.7834101382
 21
138.5996543779
 31
0.0
  0
LINE
  5
5E
330
1F
100
AcDbEntity
  8
1
  6
Continuous
 62
     7
100
AcDbLine
 10
74.7834101382
 20
131.0996543778999
 30
0.0
 11
74.7834101382
 21
138.5996543779
 31
0.0
  0
LINE
  5
5F
330
1F
100
AcDbEntity
  8
1
  6
Continuous
 62
     7
100
AcDbLine
 10
108.7834101381999
 20
130.0996543779
 30
0.0
 11
75.7834101382
 21
130.0996543778999
 31
0.0
  0
LINE
  5
60
330
1F
100
AcDbEntity
  8
1
  6
Continuous
 62
     7
100
AcDbLine
 10
75.7834101382
 20
128.5996543778999
 30
0.0
 11
108.7834101381999
 21
128.5996543779
 31
0.0
  0
LINE
  5
61
330
1F
100
AcDbEntity
  8
1
  6
Continuous
 62
     7
100
AcDbLine
 10
73.2834101382
 20
138.5996543779
 30
0.0
 11
73.2834101382
 21
131.0996543778999
 31
0.0
  0
LINE
  5
62
330
1F
100
AcDbEntity
  8
1
  6
Continuous
 62
     7
100
AcDbLine
 10
121.3055856722546
 20
182.5820162876949
 30
0.0
 11
119.374769307195
 21
175.3761115132075
 31
0.0
  0
LINE
  5
63
330
1F
100
AcDbEntity
  8
1
  6
Continuous
 62
     7
100
AcDbLine
 10
114.2834101381999
 20
185.0996543779
 30
0.0
 11
119.3737340196764
 21
185.0996543779
 31
0.0
  0
LINE
  5
64
330
1F
100
AcDbEntity
  8
1
  6
Continuous
 62
     7
100
AcDbLine
 10
112.2834101381999
 20
171.5996543779
 30
0.0
 11
112.2834101381999
 21
183.0996543779
 31
0.0
  0
LINE
  5
65
330
1F
100
AcDbEntity
  8
1
  6
Continuous
 62
     7
100
AcDbLine
 10
113.2834101381999
 20
170.5996543779
 30
0.0
 11
121.0893308294423
 21
170.5996543779
 31
0.0
  0
LINE
  5
66
330
1F
100
AcDbEntity
  8
1
  6
Continuous
 62
     7
100
AcDbLine
 10
122.2715114985437
 20
182.3231972425924
 30
0.0
 11
120.3406951334843
 21
175.1172924681049
 31
0.0
  0
LINE
  5
67
330
1F
100
AcDbEntity
  8
1
  6
Continuous
 62
     7
100
AcDbLine
 10
119.3737340196764
 20
186.0996543779
 30
0.0
 11
122.6317974517794
 21
186.0996543779
 31
0.0
  0
LINE
  5
68
330
1F
100
AcDbEntity
  8
1
  6
Continuous
 62
     7
100
AcDbLine
 10
111.2834101381999
 20
183.0996543779
 30
0.0
 11
111.2834101381999
 21
185.5996543779
 31
0.0
  0
LINE
  5
69
330
1F
100
AcDbEntity
  8
1
  6
Continuous
 62
     7
100
AcDbLine
 10
114.2834101381999
 20
186.0996543779
 30
0.0
 11
119.3737340196764
 21
186.0996543779
 31
0.0
  0
LINE
  5
6A
330
1F
100
AcDbEntity
  8
1
  6
Continuous
 62
     7
100
AcDbLine
 10
113.2834101381999
 20
169.5996543779
 30
0.0
 11
121.0893308294423
 21
169.5996543779
 31
0.0
  0
LINE
  5
6B
330
1F
100
AcDbEntity
  8
1
  6
Continuous
 62
     7
100
AcDbLine
 10
111.2834101381999
 20
171.5996543779
 30
0.0
 11
111.2834101381999
 21
183.0996543779
 31
0.0
  0
LINE
  5
6C
330
1F
100
AcDbEntity
  8
1
  6
Continuous
 62
     7
100
AcDbLine
 10
111.7834101381999
 20
186.0996543779
 30
0.0
 11
114.2834101381999
 21
186.0996543779
 31
0.0
  0
LINE
  5
6D
330
1F
100
AcDbEntity
  8
1
  6
Continuous
 62
     7
100
AcDbLine
 10
123.1147603649239
 20
185.4702448553486
 30
0.0
 11
122.2715114985437
 21
182.3231972425924
 31
0.0
  0
LINE
  5
6E
330
1F
100
AcDbEntity
  8
1
  6
Continuous
 62
     7
100
AcDbLine
 10
111.2834101381999
 20
187.5996543778998
 30
0.0
 11
123.2834101381999
 21
187.5996543779
 31
0.0
  0
LINE
  5
6F
330
1F
100
AcDbEntity
  8
1
  6
Continuous
 62
     7
100
AcDbLine
 10
124.7322988776336
 20
185.7114258102461
 30
0.0
 11
121.9582336461937
 21
175.3584734230024
 31
0.0
  0
LINE
  5
70
330
1F
100
AcDbEntity
  8
1
  6
Continuous
 62
     7
100
AcDbLine
 10
122.924159472483
 20
174.0996543779
 30
0.0
 11
123.7834101381999
 21
174.0996543779
 31
0.0
  0
LINE
  5
71
330
1F
100
AcDbEntity
  8
1
  6
Continuous
 62
     7
100
AcDbLine
 10
122.2725467860623
 20
172.5996543779
 30
0.0
 11
124.2834101381999
 21
172.5996543779
 31
0.0
  0
LINE
  5
72
330
1F
100
AcDbEntity
  8
1
  6
Continuous
 62
     7
100
AcDbLine
 10
126.2834101381999
 20
174.5996543779
 30
0.0
 11
126.2834101381999
 21
205.1923572156004
 31
0.0
  0
LINE
  5
73
330
1F
100
AcDbEntity
  8
1
  6
Continuous
 62
     7
100
AcDbLine
 10
124.7834101381999
 20
175.0996543779
 30
0.0
 11
124.7834101381999
 21
205.1923572156004
 31
0.0
  0
LINE
  5
74
330
1F
100
AcDbEntity
  8
1
  6
Continuous
 62
     7
100
AcDbLine
 10
111.2834101381999
 20
171.5996543779
 30
0.0
 11
111.2834101381999
 21
165.5996543779
 31
0.0
  0
LINE
  5
75
330
1F
100
AcDbEntity
  8
1
  6
Continuous
 62
     7
100
AcDbLine
 10
111.2834101381999
 20
133.5996543779
 30
0.0
 11
111.2834101381999
 21
131.0996543779
 31
0.0
  0
LINE
  5
76
330
1F
100
AcDbEntity
  8
1
  6
Continuous
 62
     7
100
AcDbLine
 10
109.7834101381999
 20
131.0996543779
 30
0.0
 11
109.7834101381999
 21
133.5996543779
 31
0.0
  0
LINE
  5
77
330
1F
100
AcDbEntity
  8
1
  6
Continuous
 62
     7
100
AcDbLine
 10
109.7834101382
 20
161.4996543779
 30
0.0
 11
109.7834101381999
 21
186.0996543779
 31
0.0
  0
LINE
  5
78
330
1F
100
AcDbEntity
  8
1
  6
Continuous
 62
     7
100
AcDbLine
 10
96.28341013819993
 20
133.0996543778999
 30
0.0
 11
96.28341013819993
 21
130.0996543778998
 31
0.0
  0
LINE
  5
79
330
1F
100
AcDbEntity
  8
1
  6
Continuous
 62
     7
100
AcDbLine
 10
86.28341013819993
 20
133.0996543778999
 30
0.0
 11
96.28341013819993
 21
133.0996543778999
 31
0.0
  0
LINE
  5
7A
330
1F
100
AcDbEntity
  8
1
  6
Continuous
 62
     7
100
AcDbLine
 10
96.28341013819993
 20
133.0996543778999
 30
0.0
 11
96.28341013819993
 21
130.0996543778998
 31
0.0
  0
LINE
  5
7B
330
1F
100
AcDbEntity
  8
1
  6
Continuous
 62
     7
100
AcDbLine
 10
96.28341013819993
 20
133.0996543778999
 30
0.0
 11
96.78341013819993
 21
133.0996543778999
 31
0.0
  0
LINE
  5
7C
330
1F
100
AcDbEntity
  8
1
  6
Continuous
 62
     7
100
AcDbLine
 10
96.78341013819993
 20
133.0996543778999
 30
0.0
 11
97.78341013819993
 21
133.0996543778999
 31
0.0
  0
LINE
  5
7D
330
1F
100
AcDbEntity
  8
1
  6
Continuous
 62
     7
100
AcDbLine
 10
97.78341013819993
 20
133.0996543778999
 30
0.0
 11
97.78341013819993
 21
130.0996543778998
 31
0.0
  0
LINE
  5
7E
330
1F
100
AcDbEntity
  8
1
  6
Continuous
 62
     7
100
AcDbLine
 10
86.0834101382
 20
133.0996543778999
 30
0.0
 11
96.28341013819993
 21
133.0996543778999
 31
0.0
  0
LINE
  5
7F
330
1F
100
AcDbEntity
  8
1
  6
Continuous
 62
     7
100
AcDbLine
 10
86.28341013819993
 20
130.0996543778998
 30
0.0
 11
86.28341013819993
 21
133.0996543778999
 31
0.0
  0
LINE
  5
80
330
1F
100
AcDbEntity
  8
1
  6
Continuous
 62
     7
100
AcDbLine
 10
86.0834101382
 20
130.0996543778998
 30
0.0
 11
86.0834101382
 21
133.0996543778999
 31
0.0
  0
LINE
  5
81
330
1F
100
AcDbEntity
  8
0
  6
DASHED
 62
     2
100
AcDbLine
 10
139.2257743068523
 20
148.6142470195568
 30
0.0
 11
139.2777377583
 21
148.6291604253
 31
0.0
  0
LINE
  5
82
330
1F
100
AcDbEntity
  8
0
  6
Continuous
 62
     7
100
AcDbLine
 10
141.5100092379511
 20
149.2698178369514
 30
0.0
 11
142.2902864499
 21
149.4937558227
 31
0.0
  0
LINE
  5
83
330
1F
100
AcDbEntity
  8
1
  6
DASHED
 62
     2
100
AcDbLine
 10
139.2777377583
 20
148.6291604253
 30
0.0
 11
141.4842291734
 21
149.2624190104
 31
0.0
  0
LINE
  5
84
330
1F
100
AcDbEntity
  8
0
  6
Continuous
 62
     7
100
AcDbLine
 10
140.5062004662
 20
155.275959735
 30
0.0
 11
137.5817361382
 21
157.7298763779
 31
0.0
  0
LINE
  5
85
330
1F
100
AcDbEntity
  8
1
  6
DASHED
 62
     2
100
AcDbLine
 10
135.5345728861
 20
153.8491126484
 30
0.0
 11
140.5062004662
 21
155.275959735
 31
0.0
  0
LINE
  5
86
330
1F
100
AcDbEntity
  8
1
  6
Continuous
 62
     7
100
AcDbLine
 10
80.2834101382
 20
161.5996543779
 30
0.0
 11
80.2834101382
 21
157.890458049706
 31
0.0
  0
LINE
  5
87
330
1F
100
AcDbEntity
  8
1
  6
Continuous
 62
     7
100
AcDbLine
 10
89.5597147714
 20
161.5996543779
 30
0.0
 11
80.2834101382
 21
161.5996543779
 31
0.0
  0
LINE
  5
88
330
1F
100
AcDbEntity
  8
1
  6
Continuous
 62
     7
100
AcDbLine
 10
80.2834101382
 20
133.5996543779
 30
0.0
 11
80.2834101382
 21
137.231165688396
 31
0.0
  0
LINE
  5
89
330
1F
100
AcDbEntity
  8
1
  6
Continuous
 62
     7
100
AcDbLine
 10
89.5597147714
 20
133.5996543779
 30
0.0
 11
80.2834101382
 21
133.5996543779
 31
0.0
  0
LINE
  5
8A
330
1F
100
AcDbEntity
  8
1
  6
Continuous
 62
     7
100
AcDbLine
 10
148.2834101382
 20
133.5996543779
 30
0.0
 11
148.2834101382
 21
137.4625545311
 31
0.0
  0
LINE
  5
8B
330
1F
100
AcDbEntity
  8
1
  6
Continuous
 62
     7
100
AcDbLine
 10
139.3533369502
 20
133.5996543779
 30
0.0
 11
148.2834101382
 21
133.5996543779
 31
0.0
  0
LINE
  5
8C
330
1F
100
AcDbEntity
  8
1
  6
Continuous
 62
     7
100
AcDbLine
 10
148.2834101382
 20
161.5996543779
 30
0.0
 11
148.2834101382
 21
157.7367542246
 31
0.0
  0
LINE
  5
8D
330
1F
100
AcDbEntity
  8
1
  6
Continuous
 62
     7
100
AcDbLine
 10
139.3533369502
 20
161.5996543779
 30
0.0
 11
148.2834101382
 21
161.5996543779
 31
0.0
  0
LINE
  5
8E
330
1F
100
AcDbEntity
  8
1
  6
Continuous
 62
     7
100
AcDbLine
 10
114.7834101382001
 20
169.5996543779
 30
0.0
 11
114.7834101382
 21
160.5996543779
 31
0.0
  0
LINE
  5
8F
330
1F
100
AcDbEntity
  8
1
  6
Continuous
 62
     7
100
AcDbLine
 10
114.7834101382001
 20
169.5996543779
 30
0.0
 11
169.7834101381999
 21
169.5996543779
 31
0.0
  0
LINE
  5
90
330
1F
100
AcDbEntity
  8
1
  6
DOT_CENTER
 62
     2
100
AcDbLine
 10
169.7834101381999
 20
169.5996543779
 30
0.0
 11
169.7834101381999
 21
172.3513093790352
 31
0.0
  0
LINE
  5
91
330
1F
100
AcDbEntity
  8
1
  6
PHANTOM
 62
     2
100
AcDbLine
 10
169.7834101381999
 20
129.5996543779
 30
0.0
 11
169.7834101381999
 21
169.5996543779
 31
0.0
  0
LINE
  5
92
330
1F
100
AcDbEntity
  8
1
  6
DOT_CENTER
 62
     2
100
AcDbLine
 10
169.7834101381999
 20
129.5996543779
 30
0.0
 11
169.7834101381999
 21
126.6996543779
 31
0.0
  0
LINE
  5
93
330
1F
100
AcDbEntity
  8
1
  6
Continuous
 62
     7
100
AcDbLine
 10
131.2834101382001
 20
129.5996543779
 30
0.0
 11
132.2834101382001
 21
129.5996543779
 31
0.0
  0
LINE
  5
94
330
1F
100
AcDbEntity
  8
1
  6
Continuous
 62
     7
100
AcDbLine
 10
132.2834101382001
 20
129.5996543779
 30
0.0
 11
169.7834101381999
 21
129.5996543779
 31
0.0
  0
LINE
  5
95
330
1F
100
AcDbEntity
  8
1
  6
Continuous
 62
     7
100
AcDbLine
 10
114.7834101382
 20
133.6996543779116
 30
0.0
 11
114.7834101382
 21
129.5996543779
 31
0.0
  0
LINE
  5
96
330
1F
100
AcDbEntity
  8
1
  6
Continuous
 62
     7
100
AcDbLine
 10
114.7834101382
 20
129.5996543779
 30
0.0
 11
131.2834101382001
 21
129.5996543779
 31
0.0
  0
LINE
  5
97
330
1F
100
AcDbEntity
  8
0
  6
Continuous
 62
     7
100
AcDbLine
 10
102.0334101382
 20
144.2540691496984
 30
0.0
 11
102.0334101382
 21
148.435440566
 31
0.0
  0
LINE
  5
98
330
1F
100
AcDbEntity
  8
1
  6
DASHED
 62
     2
100
AcDbLine
 10
103.9803231814689
 20
143.6953090336548
 30
0.0
 11
102.0579285040183
 21
144.2470324281679
 31
0.0
  0
LINE
  5
99
330
1F
100
AcDbEntity
  8
1
  6
DASHED
 62
     2
100
AcDbLine
 10
106.3346220913435
 20
148.2734938971566
 30
0.0
 11
105.2173822174634
 21
144.3806446751421
 31
0.0
  0
LINE
  5
9A
330
1F
100
AcDbEntity
  8
1
  6
DASHED
 62
     2
100
AcDbLine
 10
102.448147756792
 20
150.4292732805587
 30
0.0
 11
105.6492864498523
 21
149.5105529331375
 31
0.0
  0
LINE
  5
9B
330
1F
100
AcDbEntity
  8
1
  6
DASHED
 62
     2
100
AcDbLine
 10
84.5825911031
 20
149.2624190104
 30
0.0
 11
86.7890825182
 21
148.6291604253
 31
0.0
  0
LINE
  5
9C
330
1F
100
AcDbEntity
  8
0
  6
Continuous
 62
     7
100
AcDbLine
 10
85.5606198103
 20
155.275959735
 30
0.0
 11
88.4850841382
 21
157.7298763779
 31
0.0
  0
LINE
  5
9D
330
1F
100
AcDbEntity
  8
1
  6
DASHED
 62
     2
100
AcDbLine
 10
85.5606198103
 20
155.275959735
 30
0.0
 11
90.5322473904
 21
153.8491126484
 31
0.0
  0
LINE
  5
9E
330
1F
100
AcDbEntity
  8
0
  6
DASHED
 62
     2
100
AcDbLine
 10
106.0622244505
 20
154.5353226902
 30
0.0
 11
110.2049859268
 21
158.6780841665
 31
0.0
  0
LINE
  5
9F
330
1F
100
AcDbEntity
  8
1
  6
Continuous
 62
     7
100
AcDbLine
 10
110.9794853569297
 20
150.8889425610934
 30
0.0
 11
111.4881120879724
 21
151.0944410350558
 31
0.0
  0
LINE
  5
A0
330
1F
100
AcDbEntity
  8
0
  6
Continuous
 62
     7
100
AcDbLine
 10
120.0045958259
 20
154.5353226902
 30
0.0
 11
122.5689440442
 21
151.9709744719
 31
0.0
  0
LINE
  5
A1
330
1F
100
AcDbEntity
  8
1
  6
DASHED
 62
     2
100
AcDbLine
 10
111.4881120879724
 20
151.0944410350558
 30
0.0
 11
120.0045958259
 21
154.5353226902
 31
0.0
  0
LINE
  5
A2
330
1F
100
AcDbEntity
  8
1
  6
DASHED
 62
     2
100
AcDbLine
 10
119.7321981850404
 20
148.2734938971085
 30
0.0
 11
120.8494380589759
 21
144.3806446751096
 31
0.0
  0
LINE
  5
A3
330
1F
100
AcDbEntity
  8
0
  6
Continuous
 62
     7
100
AcDbLine
 10
124.0334101382
 20
144.2540691496697
 30
0.0
 11
139.2257743068523
 21
148.6142470195568
 31
0.0
  0
LINE
  5
A4
330
1F
100
AcDbEntity
  8
0
  6
DASHED
 62
     2
100
AcDbLine
 10
123.6186725196428
 20
150.42927328054
 30
0.0
 11
120.4175338265276
 21
149.5105529331031
 31
0.0
  0
LINE
  5
A5
330
1F
100
AcDbEntity
  8
0
  6
Continuous
 62
     7
100
AcDbLine
 10
109.7834101382
 20
158.8996543779
 30
0.0
 11
110.1012562349
 21
158.8996543779
 31
0.0
  0
LINE
  5
A6
330
1F
100
AcDbEntity
  8
1
  6
DASHED
 62
     2
100
AcDbLine
 10
109.7834101382
 20
158.8996543779
 30
0.0
 11
109.7834101382
 21
158.2996543779
 31
0.0
  0
LINE
  5
A7
330
1F
100
AcDbEntity
  8
1
  6
DASHED
 62
     2
100
AcDbLine
 10
89.3513894684
 20
158.2996543779
 30
0.0
 11
109.7834101382
 21
158.2996543779
 31
0.0
  0
LINE
  5
A8
330
1F
100
AcDbEntity
  8
0
  6
DASHED
 62
     2
100
AcDbLine
 10
98.13341013819996
 20
158.8996543779
 30
0.0
 11
94.63341013819996
 21
155.3996543779
 31
0.0
  0
LINE
  5
A9
330
1F
100
AcDbEntity
  8
0
  6
Continuous
 62
     7
100
AcDbLine
 10
131.4334101382
 20
155.3996543779
 30
0.0
 11
127.9334101382
 21
158.8996543779
 31
0.0
  0
LINE
  5
AA
330
1F
100
AcDbEntity
  8
0
  6
Continuous
 62
     7
100
AcDbLine
 10
80.2834101382
 20
137.5112141874
 30
0.0
 11
80.2834101382
 21
157.6880945683
 31
0.0
  0
LINE
  5
AB
330
1F
100
AcDbEntity
  8
0
  6
Continuous
 62
     7
100
AcDbLine
 10
81.2834101382
 20
157.7367542246
 30
0.0
 11
81.2834101382
 21
137.5113016954
 31
0.0
  0
LINE
  5
AC
330
1F
100
AcDbEntity
  8
0
  6
Continuous
 62
     7
100
AcDbLine
 10
81.7834101382
 20
157.2996543779
 30
0.0
 11
81.7834101382
 21
141.0996543779
 31
0.0
  0
LINE
  5
AD
330
1F
100
AcDbEntity
  8
0
  6
Continuous
 62
     7
100
AcDbLine
 10
84.208438059
 20
154.6236640806
 30
0.0
 11
83.9903720735
 21
153.863846944
 31
0.0
  0
LINE
  5
AE
330
1F
100
AcDbEntity
  8
0
  6
Continuous
 62
     7
100
AcDbLine
 10
83.3189618393
 20
151.5244220191
 30
0.0
 11
83.0911981851
 21
150.7308148587
 31
0.0
  0
LINE
  5
AF
330
1F
100
AcDbEntity
  8
0
  6
DOT_CENTER
 62
     2
100
AcDbLine
 10
86.5334101382
 20
155.5621543779
 30
0.0
 11
86.5334101382
 21
148.1371543779
 31
0.0
  0
LINE
  5
B0
330
1F
100
AcDbEntity
  8
DEFAULT_1
  6
DOT_CENTER
 62
     2
100
AcDbLine
 10
86.5334101382
 20
148.1371543779
 30
0.0
 11
86.5334101382
 21
146.8246543779
 31
0.0
  0
LINE
  5
B1
330
1F
100
AcDbEntity
  8
DEFAULT_1
  6
DOT_CENTER
 62
     2
100
AcDbLine
 10
86.5334101382
 20
155.5621543779
 30
0.0
 11
86.5334101382
 21
156.8746543779
 31
0.0
  0
LINE
  5
B2
330
1F
100
AcDbEntity
  8
0
  6
Continuous
 62
     7
100
AcDbLine
 10
90.2534811382
 20
153.1761113779
 30
0.0
 11
89.6726691382
 21
151.0084923779
 31
0.0
  0
LINE
  5
B3
330
1F
100
AcDbEntity
  8
0
  6
Continuous
 62
     7
100
AcDbLine
 10
84.4443483846
 20
154.3392969064
 30
0.0
 11
85.5606198103
 21
155.275959735
 31
0.0
  0
LINE
  5
B4
330
1F
100
AcDbEntity
  8
0
  6
Continuous
 62
     7
100
AcDbLine
 10
84.7834101382
 20
158.2996543779
 30
0.0
 11
81.7834101382
 21
157.2996543779
 31
0.0
  0
LINE
  5
B5
330
1F
100
AcDbEntity
  8
0
  6
Continuous
 62
     7
100
AcDbLine
 10
139.3533369502
 20
133.5996543779
 30
0.0
 11
145.7009294411
 21
134.4917503249
 31
0.0
  0
LINE
  5
B6
330
1F
100
AcDbEntity
  8
0
  6
Continuous
 62
     7
100
AcDbLine
 10
89.5597147714
 20
133.5996543779
 30
0.0
 11
82.8658908354
 21
134.5404099812
 31
0.0
  0
LINE
  5
B7
330
1F
100
AcDbEntity
  8
0
  6
Continuous
 62
     7
100
AcDbLine
 10
99.7834101382
 20
139.0996543779
 30
0.0
 11
99.7834101382
 21
134.7996543779
 31
0.0
  0
LINE
  5
B8
330
1F
100
AcDbEntity
  8
0
  6
Continuous
 62
     7
100
AcDbLine
 10
145.5617563402
 20
135.4820183936
 30
0.0
 11
139.2834101382
 21
134.5996543779
 31
0.0
  0
LINE
  5
B9
330
1F
100
AcDbEntity
  8
0
  6
Continuous
 62
     7
100
AcDbLine
 10
82.9900268389
 20
135.5329371588
 30
0.0
 11
89.2834101382
 21
134.5996543779
 31
0.0
  0
LINE
  5
BA
330
1F
100
AcDbEntity
  8
0
  6
Continuous
 62
     7
100
AcDbLine
 10
81.7834101382
 20
141.0996543779
 30
0.0
 11
84.7834101382
 21
140.0996543779
 31
0.0
  0
LINE
  5
BB
330
1F
100
AcDbEntity
  8
0
  6
Continuous
 62
     7
100
AcDbLine
 10
101.5834101382
 20
134.5996543779
 30
0.0
 11
101.5834101382
 21
133.5996543779
 31
0.0
  0
LINE
  5
BC
330
1F
100
AcDbEntity
  8
0
  6
Continuous
 62
     7
100
AcDbLine
 10
102.0334101382
 20
141.2475701395
 30
0.0
 11
102.0334101382
 21
144.2540691496984
 31
0.0
  0
LINE
  5
BD
330
1F
100
AcDbEntity
  8
0
  6
Continuous
 62
     7
100
AcDbLine
 10
101.5834101382
 20
133.5996543779
 30
0.0
 11
89.5597147714
 21
133.5996543779
 31
0.0
  0
LINE
  5
BE
330
1F
100
AcDbEntity
  8
0
  6
Continuous
 62
     7
100
AcDbLine
 10
124.4834101382
 20
133.5996543779
 30
0.0
 11
139.3533369502
 21
133.5996543779
 31
0.0
  0
LINE
  5
BF
330
1F
100
AcDbEntity
  8
0
  6
Continuous
 62
     7
100
AcDbLine
 10
124.4834101382
 20
133.6996543779
 30
0.0
 11
114.7834101382
 21
133.6996543779
 31
0.0
  0
LINE
  5
C0
330
1F
100
AcDbEntity
  8
0
  6
Continuous
 62
     7
100
AcDbLine
 10
101.5834101382
 20
133.6996543779
 30
0.0
 11
109.7834101382
 21
133.6996543779
 31
0.0
  0
LINE
  5
C1
330
1F
100
AcDbEntity
  8
0
  6
Continuous
 62
     7
100
AcDbLine
 10
139.2834101382
 20
134.5996543779
 30
0.0
 11
124.4834101382
 21
134.5996543779
 31
0.0
  0
LINE
  5
C2
330
1F
100
AcDbEntity
  8
0
  6
Continuous
 62
     7
100
AcDbLine
 10
89.2834101382
 20
134.5996543779
 30
0.0
 11
101.5834101382
 21
134.5996543779
 31
0.0
  0
LINE
  5
C3
330
1F
100
AcDbEntity
  8
0
  6
Continuous
 62
     7
100
AcDbLine
 10
99.7834101382
 20
134.7996543779
 30
0.0
 11
111.2834101382
 21
134.7996543779
 31
0.0
  0
LINE
  5
C4
330
1F
100
AcDbEntity
  8
0
  6
Continuous
 62
     7
100
AcDbLine
 10
106.0622244506
 20
154.5353226902
 30
0.0
 11
103.4978762323
 21
151.9709744719
 31
0.0
  0
LINE
  5
C5
330
1F
100
AcDbEntity
  8
0
  6
DOT_CENTER
 62
     2
100
AcDbLine
 10
105.5334101382
 20
142.5621543779
 30
0.0
 11
105.5334101382
 21
138.1071543779
 31
0.0
  0
LINE
  5
C6
330
1F
100
AcDbEntity
  8
DEFAULT_1
  6
DOT_CENTER
 62
     2
100
AcDbLine
 10
105.5334101382
 20
138.1071543779
 30
0.0
 11
105.5334101382
 21
131.8496543779
 31
0.0
  0
LINE
  5
C7
330
1F
100
AcDbEntity
  8
DEFAULT_1
  6
DOT_CENTER
 62
     2
100
AcDbLine
 10
105.5334101382
 20
142.5621543779
 30
0.0
 11
105.5334101382
 21
145.8496543779
 31
0.0
  0
LINE
  5
C8
330
1F
100
AcDbEntity
  8
0
  6
DOT_CENTER
 62
     2
100
AcDbLine
 10
124.2459101382
 20
138.8496543779
 30
0.0
 11
116.8209101382
 21
138.8496543779
 31
0.0
  0
LINE
  5
C9
330
1F
100
AcDbEntity
  8
DEFAULT_1
  6
DOT_CENTER
 62
     2
100
AcDbLine
 10
116.8209101382
 20
138.8496543779
 30
0.0
 11
113.5334101382
 21
138.8496543779
 31
0.0
  0
LINE
  5
CA
330
1F
100
AcDbEntity
  8
0
  6
DOT_CENTER
 62
     2
100
AcDbLine
 10
106.2759101382
 20
138.8496543779
 30
0.0
 11
101.8209101382
 21
138.8496543779
 31
0.0
  0
LINE
  5
CB
330
1F
100
AcDbEntity
  8
DEFAULT_1
  6
DOT_CENTER
 62
     2
100
AcDbLine
 10
101.8209101382
 20
138.8496543779
 30
0.0
 11
98.5334101382
 21
138.8496543779
 31
0.0
  0
LINE
  5
CC
330
1F
100
AcDbEntity
  8
DEFAULT_1
  6
DOT_CENTER
 62
     2
100
AcDbLine
 10
106.2759101382
 20
138.8496543779
 30
0.0
 11
112.5334101382
 21
138.8496543779
 31
0.0
  0
LINE
  5
CD
330
1F
100
AcDbEntity
  8
DEFAULT_1
  6
DOT_CENTER
 62
     2
100
AcDbLine
 10
124.2459101382
 20
138.8496543779
 30
0.0
 11
127.5334101382
 21
138.8496543779
 31
0.0
  0
LINE
  5
CE
330
1F
100
AcDbEntity
  8
0
  6
Continuous
 62
     7
100
AcDbLine
 10
84.7834101382
 20
140.0996543779
 30
0.0
 11
98.7834101382
 21
140.0996543779
 31
0.0
  0
LINE
  5
CF
330
1F
100
AcDbEntity
  8
0
  6
Continuous
 62
     7
100
AcDbLine
 10
109.0974365044
 20
140.6656156592
 30
0.0
 11
106.5852924696
 21
145.5959775407
 31
0.0
  0
LINE
  5
D0
330
1F
100
AcDbEntity
  8
0
  6
Continuous
 62
     7
100
AcDbLine
 10
109.5834101382
 20
161.5996543779
 30
0.0
 11
109.5834101382
 21
160.5996543779
 31
0.0
  0
LINE
  5
D1
330
1F
100
AcDbEntity
  8
0
  6
DASHED
 62
     2
100
AcDbLine
 10
119.7415039429
 20
146.3274514188
 30
0.0
 11
124.0337232068
 21
141.2121840336
 31
0.0
  0
LINE
  5
D2
330
1F
100
AcDbEntity
  8
0
  6
Continuous
 62
     7
100
AcDbLine
 10
141.2834101382
 20
140.8496543779
 30
0.0
 11
125.7834101382
 21
140.8496543779
 31
0.0
  0
LINE
  5
D3
330
1F
100
AcDbEntity
  8
0
  6
Continuous
 62
     7
100
AcDbLine
 10
83.7765338266
 20
149.4937558227
 30
0.0
 11
84.5825911031
 21
149.2624190104
 31
0.0
  0
LINE
  5
D4
330
1F
100
AcDbEntity
  8
0
  6
Continuous
 62
     7
100
AcDbLine
 10
86.7890825182
 20
148.6291604253
 30
0.0
 11
102.0334101382
 21
144.2540691496984
 31
0.0
  0
LINE
  5
D5
330
1F
100
AcDbEntity
  8
0
  6
Continuous
 62
     7
100
AcDbLine
 10
109.7834101382
 20
133.6996543779
 30
0.0
 11
109.7834101382
 21
134.7996543779
 31
0.0
  0
LINE
  5
D6
330
1F
100
AcDbEntity
  8
0
  6
Continuous
 62
     7
100
AcDbLine
 10
109.7834101382
 20
158.8996543779
 30
0.0
 11
109.7834101382
 21
161.4996543779
 31
0.0
  0
LINE
  5
D7
330
1F
100
AcDbEntity
  8
0
  6
Continuous
 62
     7
100
AcDbLine
 10
111.2834101382
 20
134.7996543779
 30
0.0
 11
111.2834101382
 21
150.9603409186
 31
0.0
  0
LINE
  5
D8
330
1F
100
AcDbEntity
  8
0
  6
Continuous
 62
     7
100
AcDbLine
 10
108.134496229
 20
149.7394914145
 30
0.0
 11
110.8759972974
 21
150.8471296832
 31
0.0
  0
LINE
  5
D9
330
1F
100
AcDbEntity
  8
0
  6
Continuous
 62
     7
100
AcDbLine
 10
120.0045958259
 20
154.5353226902
 30
0.0
 11
121.6032133693
 21
155.1812060672
 31
0.0
  0
LINE
  5
DA
330
1F
100
AcDbEntity
  8
0
  6
DOT_CENTER
 62
     2
100
AcDbLine
 10
113.0334101382
 20
160.8497543779
 30
0.0
 11
113.0334101382
 21
152.8495543779
 31
0.0
  0
LINE
  5
DB
330
1F
100
AcDbEntity
  8
DEFAULT_1
  6
DOT_CENTER
 62
     2
100
AcDbLine
 10
113.0334101382
 20
149.1371543779001
 30
0.0
 11
113.0334101382
 21
152.8495543779
 31
0.0
  0
LINE
  5
DC
330
1F
100
AcDbEntity
  8
0
  6
Continuous
 62
     7
100
AcDbLine
 10
140.6213231815
 20
155.3089997221
 30
0.0
 11
140.5062004662
 21
155.275959735
 31
0.0
  0
LINE
  5
DD
330
1F
100
AcDbEntity
  8
0
  6
Continuous
 62
     7
100
AcDbLine
 10
135.5345728861
 20
153.8491126484
 30
0.0
 11
123.6186725196428
 21
150.42927328054
 31
0.0
  0
LINE
  5
DE
330
1F
100
AcDbEntity
  8
0
  6
Continuous
 62
     7
100
AcDbLine
 10
102.448147756792
 20
150.4292732805587
 30
0.0
 11
90.5322473904
 21
153.8491126484
 31
0.0
  0
LINE
  5
DF
330
1F
100
AcDbEntity
  8
0
  6
Continuous
 62
     7
100
AcDbLine
 10
85.5606198103
 20
155.275959735
 30
0.0
 11
85.445497095
 21
155.3089997221
 31
0.0
  0
LINE
  5
E0
330
1F
100
AcDbEntity
  8
0
  6
Continuous
 62
     7
100
AcDbLine
 10
114.7834101382
 20
133.6996543779
 30
0.0
 11
114.7834101382
 21
150.9603409186
 31
0.0
  0
LINE
  5
E1
330
1F
100
AcDbEntity
  8
0
  6
Continuous
 62
     7
100
AcDbLine
 10
114.7834101382
 20
159.4353314761
 30
0.0
 11
114.7834101382
 21
160.5996543779
 31
0.0
  0
LINE
  5
E2
330
1F
100
AcDbEntity
  8
0
  6
Continuous
 62
     7
100
AcDbLine
 10
116.2834101382
 20
161.4996543779
 30
0.0
 11
116.2834101382
 21
160.5996543779
 31
0.0
  0
LINE
  5
E3
330
1F
100
AcDbEntity
  8
0
  6
Continuous
 62
     7
100
AcDbLine
 10
116.4834101382
 20
161.5996543779
 30
0.0
 11
116.4834101382
 21
160.5996543779
 31
0.0
  0
LINE
  5
E4
330
1F
100
AcDbEntity
  8
0
  6
DOT_CENTER
 62
     2
100
AcDbLine
 10
143.2459101382
 20
151.8496543779
 30
0.0
 11
135.8209101382
 21
151.8496543779
 31
0.0
  0
LINE
  5
E5
330
1F
100
AcDbEntity
  8
DEFAULT_1
  6
DOT_CENTER
 62
     2
100
AcDbLine
 10
135.8209101382
 20
151.8496543779
 30
0.0
 11
134.5084101382
 21
151.8496543779
 31
0.0
  0
LINE
  5
E6
330
1F
100
AcDbEntity
  8
0
  6
DOT_CENTER
 62
     2
100
AcDbLine
 10
87.2759101382
 20
151.8496543779
 30
0.0
 11
82.8209101382
 21
151.8496543779
 31
0.0
  0
LINE
  5
E7
330
1F
100
AcDbEntity
  8
DEFAULT_1
  6
DOT_CENTER
 62
     2
100
AcDbLine
 10
82.8209101382
 20
151.8496543779
 30
0.0
 11
81.5084101382
 21
151.8496543779
 31
0.0
  0
LINE
  5
E8
330
1F
100
AcDbEntity
  8
DEFAULT_1
  6
DOT_CENTER
 62
     2
100
AcDbLine
 10
87.2759101382
 20
151.8496543779
 30
0.0
 11
91.5584101382
 21
151.8496543779
 31
0.0
  0
LINE
  5
E9
330
1F
100
AcDbEntity
  8
DEFAULT_1
  6
DOT_CENTER
 62
     2
100
AcDbLine
 10
143.2459101382
 20
151.8496543779
 30
0.0
 11
144.5584101382
 21
151.8496543779
 31
0.0
  0
LINE
  5
EA
330
1F
100
AcDbEntity
  8
0
  6
Continuous
 62
     7
100
AcDbLine
 10
117.9323241382
 20
149.7394913779
 30
0.0
 11
115.1908229791
 21
150.8471296832
 31
0.0
  0
LINE
  5
EB
330
1F
100
AcDbEntity
  8
0
  6
Continuous
 62
     7
100
AcDbLine
 10
108.006451644
 20
153.7498039585
 30
0.0
 11
104.4636077622
 21
155.1812057217
 31
0.0
  0
LINE
  5
EC
330
1F
100
AcDbEntity
  8
0
  6
DOT_CENTER
 62
     2
100
AcDbLine
 10
120.5334101382
 20
142.5621543779
 30
0.0
 11
120.5334101382
 21
138.1071543779
 31
0.0
  0
LINE
  5
ED
330
1F
100
AcDbEntity
  8
DEFAULT_1
  6
DOT_CENTER
 62
     2
100
AcDbLine
 10
120.5334101382
 20
138.1071543779
 30
0.0
 11
120.5334101382
 21
131.8496543779
 31
0.0
  0
LINE
  5
EE
330
1F
100
AcDbEntity
  8
DEFAULT_1
  6
DOT_CENTER
 62
     2
100
AcDbLine
 10
120.5334101382
 20
142.5621543779
 30
0.0
 11
120.5334101382
 21
145.8496543779
 31
0.0
  0
LINE
  5
EF
330
1F
100
AcDbEntity
  8
0
  6
Continuous
 62
     7
100
AcDbLine
 10
116.9693837721
 20
140.6656156592
 30
0.0
 11
119.4815278069
 21
145.5959775407
 31
0.0
  0
LINE
  5
F0
330
1F
100
AcDbEntity
  8
0
  6
DASHED
 62
     2
100
AcDbLine
 10
122.0864970949665
 20
143.6953090336361
 30
0.0
 11
124.0334101382
 21
144.2540691496697
 31
0.0
  0
LINE
  5
F1
330
1F
100
AcDbEntity
  8
0
  6
DASHED
 62
     2
100
AcDbLine
 10
141.4842291734
 20
149.2624190104
 30
0.0
 11
141.5100092379511
 21
149.2698178369514
 31
0.0
  0
LINE
  5
F2
330
1F
100
AcDbEntity
  8
0
  6
Continuous
 62
     7
100
AcDbLine
 10
124.0334101382
 20
148.435440566
 30
0.0
 11
124.0334101382
 21
141.2475701395
 31
0.0
  0
LINE
  5
F3
330
1F
100
AcDbEntity
  8
0
  6
Continuous
 62
     7
100
AcDbLine
 10
103.3397871382
 20
155.3996543779
 30
0.0
 11
93.1512619177
 21
155.3996543779
 31
0.0
  0
LINE
  5
F4
330
1F
100
AcDbEntity
  8
0
  6
Continuous
 62
     7
100
AcDbLine
 10
122.7270331382
 20
155.3996543779
 30
0.0
 11
132.9155583588
 21
155.3996543779
 31
0.0
  0
LINE
  5
F5
330
1F
100
AcDbEntity
  8
DEFAULT_1
  6
DOT_CENTER
 62
     2
100
AcDbLine
 10
116.7459101382
 20
155.8496543779
 30
0.0
 11
113.7759101382
 21
155.8496543779
 31
0.0
  0
LINE
  5
F6
330
1F
100
AcDbEntity
  8
0
  6
DOT_CENTER
 62
     2
100
AcDbLine
 10
113.7759101382
 20
155.8496543779
 30
0.0
 11
110.0333101382
 21
155.8496543779
 31
0.0
  0
LINE
  5
F7
330
1F
100
AcDbEntity
  8
DEFAULT_1
  6
DOT_CENTER
 62
     2
100
AcDbLine
 10
109.3209101382
 20
155.8496543779
 30
0.0
 11
110.0333101382
 21
155.8496543779
 31
0.0
  0
LINE
  5
F8
330
1F
100
AcDbEntity
  8
0
  6
Continuous
 62
     7
100
AcDbLine
 10
115.8618343496
 20
158.6780841665
 30
0.0
 11
120.0045958259
 21
154.5353226902
 31
0.0
  0
LINE
  5
F9
330
1F
100
AcDbEntity
  8
0
  6
Continuous
 62
     7
100
AcDbLine
 10
124.4834101382
 20
134.5996543779
 30
0.0
 11
124.4834101382
 21
133.5996543779
 31
0.0
  0
LINE
  5
FA
330
1F
100
AcDbEntity
  8
0
  6
Continuous
 62
     7
100
AcDbLine
 10
124.7834101382
 20
139.8496543779
 30
0.0
 11
124.7834101382
 21
134.5996543779
 31
0.0
  0
LINE
  5
FB
330
1F
100
AcDbEntity
  8
0
  6
Continuous
 62
     7
100
AcDbLine
 10
89.3513894684
 20
158.2996543779
 30
0.0
 11
84.7834101382
 21
158.2996543779
 31
0.0
  0
LINE
  5
FC
330
1F
100
AcDbEntity
  8
0
  6
Continuous
 62
     7
100
AcDbLine
 10
91.6990238176
 20
158.8996543779
 30
0.0
 11
109.7834101382
 21
158.8996543779
 31
0.0
  0
LINE
  5
FD
330
1F
100
AcDbEntity
  8
0
  6
Continuous
 62
     7
100
AcDbLine
 10
115.9655591382
 20
158.8996543779
 30
0.0
 11
134.3677964589
 21
158.8996543779
 31
0.0
  0
LINE
  5
FE
330
1F
100
AcDbEntity
  8
0
  6
Continuous
 62
     7
100
AcDbLine
 10
144.2834101382
 20
141.8496543779
 30
0.0
 11
141.2834101382
 21
140.8496543779
 31
0.0
  0
LINE
  5
FF
330
1F
100
AcDbEntity
  8
0
  6
Continuous
 62
     7
100
AcDbLine
 10
109.5834101382
 20
160.5996543779
 30
0.0
 11
89.2834101382
 21
160.5996543779
 31
0.0
  0
LINE
  5
100
330
1F
100
AcDbEntity
  8
0
  6
Continuous
 62
     7
100
AcDbLine
 10
116.4834101382
 20
160.5996543779
 30
0.0
 11
139.2834101382
 21
160.5996543779
 31
0.0
  0
LINE
  5
101
330
1F
100
AcDbEntity
  8
0
  6
Continuous
 62
     7
100
AcDbLine
 10
116.4834101382
 20
161.4996543779
 30
0.0
 11
116.2834101382
 21
161.4996543779
 31
0.0
  0
LINE
  5
102
330
1F
100
AcDbEntity
  8
0
  6
Continuous
 62
     7
100
AcDbLine
 10
109.5834101382
 20
161.4996543779
 30
0.0
 11
109.7834101382
 21
161.4996543779
 31
0.0
  0
LINE
  5
103
330
1F
100
AcDbEntity
  8
0
  6
Continuous
 62
     7
100
AcDbLine
 10
139.3533369502
 20
161.5996543779
 30
0.0
 11
116.4834101382
 21
161.5996543779
 31
0.0
  0
LINE
  5
104
330
1F
100
AcDbEntity
  8
0
  6
Continuous
 62
     7
100
AcDbLine
 10
89.5597147714
 20
161.5996543779
 30
0.0
 11
109.5834101382
 21
161.5996543779
 31
0.0
  0
LINE
  5
105
330
1F
100
AcDbEntity
  8
0
  6
Continuous
 62
     7
100
AcDbLine
 10
89.2834101382
 20
160.5996543779
 30
0.0
 11
83.0050639363
 21
159.7172903621
 31
0.0
  0
LINE
  5
106
330
1F
100
AcDbEntity
  8
0
  6
Continuous
 62
     7
100
AcDbLine
 10
82.8658908354
 20
160.6588987746
 30
0.0
 11
89.5597147714
 21
161.5996543779
 31
0.0
  0
LINE
  5
107
330
1F
100
AcDbEntity
  8
0
  6
Continuous
 62
     7
100
AcDbLine
 10
139.2834101382
 20
160.5996543779
 30
0.0
 11
145.5617563402
 21
159.7172903621
 31
0.0
  0
LINE
  5
108
330
1F
100
AcDbEntity
  8
0
  6
Continuous
 62
     7
100
AcDbLine
 10
145.7009294411
 20
160.7075584309
 30
0.0
 11
139.3533369502
 21
161.5996543779
 31
0.0
  0
LINE
  5
109
330
1F
100
AcDbEntity
  8
0
  6
Continuous
 62
     7
100
AcDbLine
 10
136.2834101382
 20
160.4996543779
 30
0.0
 11
144.2834101382
 21
158.4996543779
 31
0.0
  0
LINE
  5
10A
330
1F
100
AcDbEntity
  8
0
  6
Continuous
 62
     7
100
AcDbLine
 10
135.8133391382
 20
153.1761113779
 30
0.0
 11
136.3941511382
 21
151.0084923779
 31
0.0
  0
LINE
  5
10B
330
1F
100
AcDbEntity
  8
0
  6
Continuous
 62
     7
100
AcDbLine
 10
141.6224718919
 20
154.3392969064
 30
0.0
 11
140.5062004662
 21
155.275959735
 31
0.0
  0
LINE
  5
10C
330
1F
100
AcDbEntity
  8
0
  6
DOT_CENTER
 62
     2
100
AcDbLine
 10
139.5334101382
 20
152.5921543779
 30
0.0
 11
139.5334101382
 21
148.1371543779
 31
0.0
  0
LINE
  5
10D
330
1F
100
AcDbEntity
  8
DEFAULT_1
  6
DOT_CENTER
 62
     2
100
AcDbLine
 10
139.5334101382
 20
148.1371543779
 30
0.0
 11
139.5334101382
 21
146.8246543779
 31
0.0
  0
LINE
  5
10E
330
1F
100
AcDbEntity
  8
DEFAULT_1
  6
DOT_CENTER
 62
     2
100
AcDbLine
 10
139.5334101382
 20
152.5921543779
 30
0.0
 11
139.5334101382
 21
156.8746543779
 31
0.0
  0
LINE
  5
10F
330
1F
100
AcDbEntity
  8
0
  6
Continuous
 62
     7
100
AcDbLine
 10
142.9756220914
 20
150.7308148587
 30
0.0
 11
142.7478584372
 21
151.5244220191
 31
0.0
  0
LINE
  5
110
330
1F
100
AcDbEntity
  8
0
  6
Continuous
 62
     7
100
AcDbLine
 10
142.076448203
 20
153.863846944
 30
0.0
 11
141.8583822175
 21
154.6236640806
 31
0.0
  0
LINE
  5
111
330
1F
100
AcDbEntity
  8
0
  6
Continuous
 62
     7
100
AcDbLine
 10
144.2834101382
 20
158.4996543779
 30
0.0
 11
144.2834101382
 21
141.8496543779
 31
0.0
  0
LINE
  5
112
330
1F
100
AcDbEntity
  8
0
  6
Continuous
 62
     7
100
AcDbLine
 10
147.2834101382
 20
157.7367542246
 30
0.0
 11
147.2834101382
 21
137.4625545311
 31
0.0
  0
LINE
  5
113
330
1F
100
AcDbEntity
  8
0
  6
Continuous
 62
     7
100
AcDbLine
 10
148.2834101382
 20
137.4625545311
 30
0.0
 11
148.2834101382
 21
157.7367542246
 31
0.0
  0
LINE
  5
114
330
1F
100
AcDbEntity
  8
1
  6
Continuous
 62
     7
100
AcDbLine
 10
116.4834101382
 20
160.5996543779
 30
0.0
 11
116.2834101382
 21
160.5996543779
 31
0.0
  0
LINE
  5
115
330
1F
100
AcDbEntity
  8
1
  6
Continuous
 62
     7
100
AcDbLine
 10
116.2834101382
 20
160.5996543779
 30
0.0
 11
114.7834101382
 21
160.5996543779
 31
0.0
  0
LINE
  5
116
330
1F
100
AcDbEntity
  8
0
  6
Continuous
 62
     7
100
AcDbLine
 10
102.0330970696
 20
141.2121840336
 30
0.0
 11
106.3253163335
 21
146.3274514188
 31
0.0
  0
ARC
  5
117
330
1F
100
AcDbEntity
  8
0
  6
Continuous
 62
     7
100
AcDbCircle
 10
113.0334101382
 20
155.8496543779
 30
0.0
 40
4.00000028982056
100
AcDbArc
 50
54.09592568303341
 51
115.9444777525885
  0
ARC
  5
118
330
1F
100
AcDbEntity
  8
1
  6
Continuous
 62
     7
100
AcDbCircle
 10
121.0893308294423
 20
171.1996543779
 30
0.0
 40
0.5999999999999943
100
AcDbArc
 50
-90.0
 51
70.81186354627319
  0
ARC
  5
119
330
1F
100
AcDbEntity
  8
1
  6
Continuous
 62
     7
100
AcDbCircle
 10
119.3737340196764
 20
183.0996543779
 30
0.0
 40
2.000000000000068
100
AcDbArc
 50
-15.00000000000153
 51
90.0
  0
ARC
  5
11A
330
1F
100
AcDbEntity
  8
1
  6
Continuous
 62
     7
100
AcDbCircle
 10
114.2834101381999
 20
183.0996543779
 30
0.0
 40
2.0
100
AcDbArc
 50
90.0
 51
180.0
  0
ARC
  5
11B
330
1F
100
AcDbEntity
  8
1
  6
Continuous
 62
     7
100
AcDbCircle
 10
113.2834101381999
 20
171.5996543779
 30
0.0
 40
1.0
100
AcDbArc
 50
180.0
 51
-90.0
  0
ARC
  5
11C
330
1F
100
AcDbEntity
  8
1
  6
Continuous
 62
     7
100
AcDbCircle
 10
119.3737340196764
 20
183.0996543779
 30
0.0
 40
3.000000000000098
100
AcDbArc
 50
-15.00000000000015
 51
90.0
  0
ARC
  5
11D
330
1F
100
AcDbEntity
  8
1
  6
Continuous
 62
     7
100
AcDbCircle
 10
114.2834101381999
 20
183.0996543779
 30
0.0
 40
3.0
100
AcDbArc
 50
90.0
 51
180.0
  0
ARC
  5
11E
330
1F
100
AcDbEntity
  8
1
  6
Continuous
 62
     7
100
AcDbCircle
 10
121.0893308294423
 20
171.1996543779
 30
0.0
 40
1.599999999999994
100
AcDbArc
 50
-90.0
 51
70.81186354628282
  0
ARC
  5
11F
330
1F
100
AcDbEntity
  8
1
  6
Continuous
 62
     7
100
AcDbCircle
 10
113.2834101381999
 20
171.5996543779
 30
0.0
 40
2.0
100
AcDbArc
 50
180.0
 51
-90.0
  0
ARC
  5
120
330
1F
100
AcDbEntity
  8
0
  6
Continuous
 62
     7
100
AcDbCircle
 10
113.0334101382
 20
155.8496543779
 30
0.0
 40
4.000000289820602
100
AcDbArc
 50
115.9444777525885
 51
126.5566956539212
  0
ARC
  5
121
330
1F
100
AcDbEntity
  8
0
  6
Continuous
 62
     7
100
AcDbCircle
 10
107.0334101382
 20
148.435440566
 30
0.0
 40
4.999999999953697
100
AcDbArc
 50
135.0
 51
156.498908261462
  0
ARC
  5
122
330
1F
100
AcDbEntity
  8
0
  6
DASHED
 62
     2
100
AcDbCircle
 10
113.0334101382
 20
155.8496543779
 30
0.0
 40
4.000000289820568
100
AcDbArc
 50
126.5566956539212
 51
134.999943509701
  0
ARC
  5
123
330
1F
100
AcDbEntity
  8
0
  6
Continuous
 62
     7
100
AcDbCircle
 10
110.1012611382
 20
159.8996543779
 30
0.0
 40
0.9999994860000063
100
AcDbArc
 50
-90.00028094169168
 51
-54.09593496920156
  0
ARC
  5
124
330
1F
100
AcDbEntity
  8
0
  6
Continuous
 62
     7
100
AcDbCircle
 10
113.0334101382
 20
155.8496543779
 30
0.0
 40
5.000000000000425
100
AcDbArc
 50
-145.6054645521021
 51
-108.0025673719685
  0
ARC
  5
125
330
1F
100
AcDbEntity
  8
0
  6
Continuous
 62
     7
100
AcDbCircle
 10
98.7834101382
 20
139.0996543779
 30
0.0
 40
1.0
100
AcDbArc
 50
0.0
 51
90.0
  0
ARC
  5
126
330
1F
100
AcDbEntity
  8
0
  6
Continuous
 62
     7
100
AcDbCircle
 10
85.1696353977
 20
154.3478023833
 30
0.0
 40
1.000000000076707
100
AcDbArc
 50
73.9866277318347
 51
163.9866277302536
  0
ARC
  5
127
330
1F
100
AcDbEntity
  8
0
  6
Continuous
 62
     7
100
AcDbCircle
 10
84.0523955238
 20
150.4549531614
 30
0.0
 40
0.9999999999806034
100
AcDbArc
 50
163.9866277302536
 51
-106.0133722642391
  0
ARC
  5
128
330
1F
100
AcDbEntity
  8
0
  6
Continuous
 62
     7
100
AcDbCircle
 10
125.7834101382
 20
139.8496543779
 30
0.0
 40
1.0
100
AcDbArc
 50
90.0
 51
180.0
  0
ARC
  5
129
330
1F
100
AcDbEntity
  8
0
  6
Continuous
 62
     7
100
AcDbCircle
 10
142.0144247527
 20
150.4549531614
 30
0.0
 40
0.9999999999530207
100
AcDbArc
 50
-73.98662773576012
 51
16.01337226974646
  0
ARC
  5
12A
330
1F
100
AcDbEntity
  8
0
  6
Continuous
 62
     7
100
AcDbCircle
 10
140.8971848788
 20
154.3478023833
 30
0.0
 40
0.9999999999806034
100
AcDbArc
 50
16.01337226974646
 51
106.0133722681661
  0
ARC
  5
12B
330
1F
100
AcDbEntity
  8
0
  6
Continuous
 62
     7
100
AcDbCircle
 10
83.2834101382
 20
137.5112141874
 30
0.0
 40
3.0
100
AcDbArc
 50
180.0
 51
-97.99999999854907
  0
ARC
  5
12C
330
1F
100
AcDbEntity
  8
0
  6
Continuous
 62
     7
100
AcDbCircle
 10
83.2834101382
 20
157.6880945683
 30
0.0
 40
3.000000000063412
100
AcDbArc
 50
97.99999999828316
 51
180.0
  0
ARC
  5
12D
330
1F
100
AcDbEntity
  8
0
  6
Continuous
 62
     7
100
AcDbCircle
 10
83.2834101382
 20
157.7367542246
 30
0.0
 40
2.000000000013888
100
AcDbArc
 50
97.99999999936149
 51
180.0
  0
ARC
  5
12E
330
1F
100
AcDbEntity
  8
0
  6
Continuous
 62
     7
100
AcDbCircle
 10
83.2834101382
 20
137.5113016954
 30
0.0
 40
2.0
100
AcDbArc
 50
180.0
 51
-98.43525116880156
  0
ARC
  5
12F
330
1F
100
AcDbEntity
  8
0
  6
Continuous
 62
     7
100
AcDbCircle
 10
145.2834101382
 20
137.4625545311
 30
0.0
 40
2.999999999978284
100
AcDbArc
 50
-81.99999999955996
 51
0.0
  0
ARC
  5
130
330
1F
100
AcDbEntity
  8
0
  6
Continuous
 62
     7
100
AcDbCircle
 10
145.2834101382
 20
157.7367542246
 30
0.0
 40
3.0
100
AcDbArc
 50
0.0
 51
81.9999999998258
  0
ARC
  5
131
330
1F
100
AcDbEntity
  8
0
  6
Continuous
 62
     7
100
AcDbCircle
 10
145.2834101382
 20
157.7367542246
 30
0.0
 40
2.0
100
AcDbArc
 50
0.0
 51
81.99999999780155
  0
ARC
  5
132
330
1F
100
AcDbEntity
  8
0
  6
Continuous
 62
     7
100
AcDbCircle
 10
145.2834101382
 20
137.4625545311
 30
0.0
 40
2.000000000027834
100
AcDbArc
 50
-81.99999999780167
 51
0.0
  0
ARC
  5
133
330
1F
100
AcDbEntity
  8
0
  6
Continuous
 62
     7
100
AcDbCircle
 10
113.0334101382
 20
155.8496543779
 30
0.0
 40
5.000000000000074
100
AcDbArc
 50
-108.0025673719685
 51
-78.3945332511046
  0
ARC
  5
134
330
1F
100
AcDbEntity
  8
0
  6
Continuous
 62
     7
100
AcDbCircle
 10
103.3397871382
 20
152.3996543779
 30
0.0
 40
3.000000000000311
100
AcDbArc
 50
67.99998348609908
 51
90.0
  0
ARC
  5
135
330
1F
100
AcDbEntity
  8
0
  6
Continuous
 62
     7
100
AcDbCircle
 10
93.1512581382
 20
152.3996543779
 30
0.0
 40
2.999999502400378
100
AcDbArc
 50
89.99992781840044
 51
165.000000129051
  0
ARC
  5
136
330
1F
100
AcDbEntity
  8
0
  6
Continuous
 62
     7
100
AcDbCircle
 10
91.6990221382
 20
153.8996543779
 30
0.0
 40
4.999999803700289
100
AcDbArc
 50
89.99998075610007
 51
130.0000011628765
  0
ARC
  5
137
330
1F
100
AcDbEntity
  8
0
  6
Continuous
 62
     7
100
AcDbCircle
 10
110.1012611382
 20
159.8996543779
 30
0.0
 40
0.9999994860000063
100
AcDbArc
 50
-90.00028094169168
 51
-54.09597209271803
  0
ARC
  5
138
330
1F
100
AcDbEntity
  8
0
  6
Continuous
 62
     7
100
AcDbCircle
 10
119.0334101382
 20
148.435440566
 30
0.0
 40
5.0
100
AcDbArc
 50
0.0
 51
44.9999999991897
  0
ARC
  5
139
330
1F
100
AcDbEntity
  8
0
  6
Continuous
 62
     7
100
AcDbCircle
 10
126.0334101382
 20
141.2475701395
 30
0.0
 40
2.0
100
AcDbArc
 50
180.0
 51
-156.443535690907
  0
ARC
  5
13A
330
1F
100
AcDbEntity
  8
0
  6
Continuous
 62
     7
100
AcDbCircle
 10
116.8085041382
 20
146.9579393779
 30
0.0
 40
3.000000486900502
100
AcDbArc
 50
-26.99980006590083
 51
67.99999923013539
  0
ARC
  5
13B
330
1F
100
AcDbEntity
  8
0
  6
Continuous
 62
     7
100
AcDbCircle
 10
107.2572384927
 20
151.895436235
 30
0.0
 40
1.999999999993699
100
AcDbArc
 50
34.39453544792053
 51
68.00000109796733
  0
ARC
  5
13C
330
1F
100
AcDbEntity
  8
0
  6
Continuous
 62
     7
100
AcDbCircle
 10
114.4416098278
 20
148.9927619597
 30
0.0
 40
2.000000000009858
100
AcDbArc
 50
68.00000109796694
 51
101.6054667511938
  0
ARC
  5
13D
330
1F
100
AcDbEntity
  8
0
  6
Continuous
 62
     7
100
AcDbCircle
 10
86.5334101382
 20
151.8496543779
 30
0.0
 40
3.250000089099896
100
AcDbArc
 50
130.0000489727013
 51
-15.00000146648043
  0
ARC
  5
13E
330
1F
100
AcDbEntity
  8
0
  6
Continuous
 62
     7
100
AcDbCircle
 10
120.5334101382
 20
138.8496543779
 30
0.0
 40
4.000000000000295
100
AcDbArc
 50
153.0000109112984
 51
23.55646430836519
  0
ARC
  5
13F
330
1F
100
AcDbEntity
  8
0
  6
Continuous
 62
     7
100
AcDbCircle
 10
111.6252104487
 20
148.9927619597
 30
0.0
 40
2.000000000000081
100
AcDbArc
 50
78.39453325149674
 51
111.9999989020327
  0
ARC
  5
140
330
1F
100
AcDbEntity
  8
0
  6
Continuous
 62
     7
100
AcDbCircle
 10
100.0334101382
 20
141.2475701395
 30
0.0
 40
1.999999999999513
100
AcDbArc
 50
-23.556464309093
 51
-1.01379015892381
  0
ARC
  5
141
330
1F
100
AcDbEntity
  8
0
  6
Continuous
 62
     7
100
AcDbCircle
 10
134.3677981382
 20
153.8996543779
 30
0.0
 40
4.99999980371282
100
AcDbArc
 50
49.99999883712341
 51
90.00001924389962
  0
ARC
  5
142
330
1F
100
AcDbEntity
  8
0
  6
Continuous
 62
     7
100
AcDbCircle
 10
132.9155621382
 20
152.3996543779
 30
0.0
 40
2.999999502429649
100
AcDbArc
 50
14.99999987094887
 51
90.00007218159767
  0
ARC
  5
143
330
1F
100
AcDbEntity
  8
0
  6
Continuous
 62
     7
100
AcDbCircle
 10
115.9655591382
 20
159.8996543779
 30
0.0
 40
0.99999948599941
100
AcDbArc
 50
-125.9040650307991
 51
-89.99971905830914
  0
ARC
  5
144
330
1F
100
AcDbEntity
  8
0
  6
Continuous
 62
     7
100
AcDbCircle
 10
107.0334101382
 20
148.435440566
 30
0.0
 40
4.999999999999986
100
AcDbArc
 50
156.498908261462
 51
180.0
  0
ARC
  5
145
330
1F
100
AcDbEntity
  8
0
  6
Continuous
 62
     7
100
AcDbCircle
 10
109.2583161382
 20
146.9579393779
 30
0.0
 40
3.00000048677128
100
AcDbArc
 50
111.9999989001337
 51
-153.0001999340992
  0
ARC
  5
146
330
1F
100
AcDbEntity
  8
0
  6
Continuous
 62
     7
100
AcDbCircle
 10
122.7270331382
 20
152.3996543779
 30
0.0
 40
3.0
100
AcDbArc
 50
90.0
 51
112.0000323534909
  0
ARC
  5
147
330
1F
100
AcDbEntity
  8
0
  6
Continuous
 62
     7
100
AcDbCircle
 10
105.5334101382
 20
138.8496543779
 30
0.0
 40
3.999999999977959
100
AcDbArc
 50
156.4435356916348
 51
26.99998908870151
  0
ARC
  5
148
330
1F
100
AcDbEntity
  8
0
  6
Continuous
 62
     7
100
AcDbCircle
 10
139.5334101382
 20
151.8496543779
 30
0.0
 40
3.250000089126931
100
AcDbArc
 50
-164.9999985335196
 51
49.99995102729589
  0
CIRCLE
  5
149
330
1F
100
AcDbEntity
  8
0
  6
Continuous
 62
     7
100
AcDbCircle
 10
105.5334101382
 20
138.8496543779
 30
0.0
 40
2.0
  0
CIRCLE
  5
14A
330
1F
100
AcDbEntity
  8
0
  6
Continuous
 62
     7
100
AcDbCircle
 10
120.5334101382
 20
138.8496543779
 30
0.0
 40
2.0
  0
CIRCLE
  5
14B
330
1F
100
AcDbEntity
  8
0
  6
Continuous
 62
     7
100
AcDbCircle
 10
86.5334101382
 20
151.8496543779
 30
0.0
 40
2.025000000000006
  0
CIRCLE
  5
14C
330
1F
100
AcDbEntity
  8
0
  6
Continuous
 62
     7
100
AcDbCircle
 10
139.5334101382
 20
151.8496543779
 30
0.0
 40
2.025000000000006
  0
CIRCLE
  5
14D
330
1F
100
AcDbEntity
  8
1
  6
Continuous
 62
     7
100
AcDbCircle
 10
113.0334101382
 20
155.8496543779
 30
0.0
 40
2.0
  0
SPLINE
  5
14E
330
1F
100
AcDbEntity
  8
1
  6
Continuous
 62
     2
100
AcDbSpline
210
0.0
220
0.0
230
1.0
 70
     8
 71
     3
 72
    12
 73
     8
 74
     6
 42
0.0000000001
 43
0.0000000001
 44
0.00000001
 40
0.0
 40
0.0
 40
0.0
 40
0.0
 40
0.277529159979706
 40
0.5641738536600441
 40
0.8992522958635316
 40
1.297504019331758
 40
1.680834346735695
 40
1.680834346735695
 40
1.680834346735695
 40
1.680834346735695
 10
124.7834101381999
 20
205.1923572156004
 30
0.0
 10
124.8713540121509
 20
205.2615569223715
 30
0.0
 10
125.0501303046182
 20
205.4022292223348
 30
0.0
 10
125.2512778882332
 20
205.0374812436395
 30
0.0
 10
125.6208615315415
 20
205.2016334517477
 30
0.0
 10
125.9397093469672
 20
205.4664156455459
 30
0.0
 10
126.1703106988865
 20
205.2825398848191
 30
0.0
 10
126.2834101381999
 20
205.1923572156004
 30
0.0
 11
124.7834101381999
 21
205.1923572156004
 31
0.0
 11
125.0345180777417
 21
205.3105402826536
 31
0.0
 11
125.2587693457918
 21
205.1320002333844
 31
0.0
 11
125.5862110197026
 21
205.2031304844456
 31
0.0
 11
125.9458992675831
 21
205.3740948069872
 31
0.0
 11
126.2834101381999
 21
205.1923572156004
 31
0.0
  0
XLINE
  5
14F
330
1F
100
AcDbEntity
  8
1
  6
DOT_CENTER
 62
     3
 60
     1
100
AcDbXline
 10
113.0334101382
 20
160.8497543779
 30
0.0
 11
0.0
 21
1.0
 31
0.0
  0
XLINE
  5
150
330
1F
100
AcDbEntity
  8
1
  6
DOT_CENTER
 62
     3
 60
     1
100
AcDbXline
 10
113.0334101382
 20
155.011634029903
 30
0.0
 11
0.0
 21
1.0
 31
0.0
  0
XLINE
  5
151
330
1F
100
AcDbEntity
  8
1
  6
DOT_CENTER
 62
     3
 60
     1
100
AcDbXline
 10
113.0334101382
 20
152.8495543779
 30
0.0
 11
0.0
 21
1.0
 31
0.0
  0
ARC
  5
152
330
1F
100
AcDbEntity
  8
1
  6
Continuous
 62
     7
100
AcDbCircle
 10
80.2834101382
 20
161.5996543779
 30
0.0
 40
0.499999999999801
100
AcDbArc
 50
90.0
 51
-179.9999999999772
  0
ARC
  5
153
330
1F
100
AcDbEntity
  8
1
  6
Continuous
 62
     7
100
AcDbCircle
 10
80.2834101382
 20
161.5996543779
 30
0.0
 40
2.999999999999801
100
AcDbArc
 50
89.99999999999973
 51
-179.9999999999962
  0
ARC
  5
154
330
1F
100
AcDbEntity
  8
1
  6
Continuous
 62
     7
100
AcDbCircle
 10
108.7834101381999
 20
131.0996543779
 30
0.0
 40
1.0
100
AcDbArc
 50
-90.0
 51
0.0
  0
ARC
  5
155
330
1F
100
AcDbEntity
  8
1
  6
Continuous
 62
     7
100
AcDbCircle
 10
108.7834101381999
 20
131.0996543779
 30
0.0
 40
2.5
100
AcDbArc
 50
-90.0
 51
0.0
  0
ARC
  5
156
330
1F
100
AcDbEntity
  8
1
  6
Continuous
 62
     7
100
AcDbCircle
 10
75.7834101382
 20
131.0996543778999
 30
0.0
 40
2.5
100
AcDbArc
 50
180.0
 51
-90.0
  0
ARC
  5
157
330
1F
100
AcDbEntity
  8
1
  6
Continuous
 62
     7
100
AcDbCircle
 10
75.7834101382
 20
131.0996543778999
 30
0.0
 40
1.0
100
AcDbArc
 50
180.0
 51
-90.0
  0
ARC
  5
158
330
1F
100
AcDbEntity
  8
1
  6
Continuous
 62
     7
100
AcDbCircle
 10
122.2725467860623
 20
174.5996543778998
 30
0.0
 40
3.000000000000134
100
AcDbArc
 50
164.9999999999984
 51
-109.1881364537224
  0
ARC
  5
159
330
1F
100
AcDbEntity
  8
1
  6
Continuous
 62
     7
100
AcDbCircle
 10
122.2725467860623
 20
174.5996543778998
 30
0.0
 40
1.999999999999883
100
AcDbArc
 50
164.9999999999979
 51
-109.1881364537279
  0
ARC
  5
15A
330
1F
100
AcDbEntity
  8
1
  6
Continuous
 62
     7
100
AcDbCircle
 10
122.6317974517794
 20
185.5996543779
 30
0.0
 40
0.4999999999999971
100
AcDbArc
 50
-15.00000000001816
 51
90.0
  0
ARC
  5
15B
330
1F
100
AcDbEntity
  8
1
  6
Continuous
 62
     7
100
AcDbCircle
 10
123.2834101381999
 20
186.0996543779
 30
0.0
 40
1.500000000000123
100
AcDbArc
 50
-15.00000000000333
 51
90.0
  0
ARC
  5
15C
330
1F
100
AcDbEntity
  8
1
  6
Continuous
 62
     7
100
AcDbCircle
 10
122.924159472483
 20
175.0996543779
 30
0.0
 40
1.000000000000186
100
AcDbArc
 50
165.0000000000101
 51
-90.0
  0
ARC
  5
15D
330
1F
100
AcDbEntity
  8
1
  6
Continuous
 62
     7
100
AcDbCircle
 10
123.7834101381999
 20
175.0996543779
 30
0.0
 40
1.0
100
AcDbArc
 50
-90.0
 51
0.0
  0
ARC
  5
15E
330
1F
100
AcDbEntity
  8
1
  6
Continuous
 62
     7
100
AcDbCircle
 10
122.2725467860623
 20
174.5996543778998
 30
0.0
 40
1.99999999999969
100
AcDbArc
 50
-109.1881364537279
 51
-90.0
  0
ARC
  5
15F
330
1F
100
AcDbEntity
  8
1
  6
Continuous
 62
     7
100
AcDbCircle
 10
124.2834101381999
 20
174.5996543778998
 30
0.0
 40
1.999999999999801
100
AcDbArc
 50
-90.0
 51
0.0000000000057
  0
ARC
  5
160
330
1F
100
AcDbEntity
  8
1
  6
Continuous
 62
     7
100
AcDbCircle
 10
111.7834101381999
 20
185.5996543779
 30
0.0
 40
0.5
100
AcDbArc
 50
90.0
 51
180.0
  0
ARC
  5
161
330
1F
100
AcDbEntity
  8
1
  6
Continuous
 62
     7
100
AcDbCircle
 10
111.2834101381999
 20
186.0996543779
 30
0.0
 40
1.499999999999801
100
AcDbArc
 50
90.0
 51
180.0
  0
ARC
  5
162
330
1F
100
AcDbEntity
  8
1
  6
Continuous
 62
     7
100
AcDbCircle
 10
97.78341013819993
 20
133.5996543778999
 30
0.0
 40
0.5
100
AcDbArc
 50
-90.0
 51
0.00000000001303
  0
ARC
  5
163
330
1F
100
AcDbEntity
  8
1
  6
Continuous
 62
     7
100
AcDbCircle
 10
97.78341013819993
 20
133.5996543778999
 30
0.0
 40
3.500000000000085
100
AcDbArc
 50
-90.0
 51
0.0
  0
ARC
  5
164
330
1F
100
AcDbEntity
  8
1
  6
DASHED
 62
     2
100
AcDbCircle
 10
104.2561848787274
 20
144.6565063723869
 30
0.0
 40
0.9999999999999954
100
AcDbArc
 50
-106.0133722669532
 51
-16.01337226613779
  0
ARC
  5
165
330
1F
100
AcDbEntity
  8
1
  6
DASHED
 62
     2
100
AcDbCircle
 10
105.3734247526075
 20
148.5493555944015
 30
0.0
 40
1.0
100
AcDbArc
 50
-16.01337226614249
 51
73.98662773386276
  0
ARC
  5
166
330
1F
100
AcDbEntity
  8
1
  6
DASHED
 62
     2
100
AcDbCircle
 10
121.810635397708
 20
144.6565063723682
 30
0.0
 40
1.000000000000023
100
AcDbArc
 50
-163.9866277330413
 51
-73.98662773304599
  0
ARC
  5
167
330
1F
100
AcDbEntity
  8
1
  6
DASHED
 62
     2
100
AcDbCircle
 10
120.6933955237725
 20
148.5493555943671
 30
0.0
 40
0.9999999999999865
100
AcDbArc
 50
106.0133722661427
 51
-163.9866277330397
  0
DIMENSION
  5
175
330
1F
100
AcDbEntity
  8
1
100
AcDbDimension
  2
*D1
 10
179.736195943135
 20
129.5996543779
 30
0.0
 11
175.986195943135
 21
124.319751955626
 31
0.0
 70
    32
  1
<>
 71
     5
 42
-1.0
 53
90.0
  3
ME10_DIM_10
100
AcDbAlignedDimension
 13
108.7834101381999
 23
128.5996543779
 33
0.0
 14
169.7834101381999
 24
129.5996543779
 34
0.0
 50
90.0
100
AcDbRotatedDimension
  0
DIMENSION
  5
180
330
1F
100
AcDbEntity
  8
1
100
AcDbDimension
  2
*D2
 10
111.2834101381999
 20
99.618907128273
 30
0.0
 11
90.6358238066839
 21
103.368907128273
 31
0.0
 70
    32
  1
<>
 71
     5
 42
-1.0
 53
0.00013888888889
  3
ME10_DIM_11
100
AcDbAlignedDimension
 13
73.2834101382
 23
131.0996543778999
 33
0.0
 14
111.2834101381999
 24
131.0996543779
 34
0.0
100
AcDbRotatedDimension
  0
DIMENSION
  5
18D
330
1F
100
AcDbEntity
  8
1
100
AcDbDimension
  2
*D3
 10
111.2834101381999
 20
119.559191074472
 30
0.0
 11
105.02279351886
 21
123.309191074472
 31
0.0
 70
    32
  1
<>
 71
     5
 42
-1.0
 53
0.00013888888889
  3
ME10_DIM_12
100
AcDbAlignedDimension
 13
114.7834101382
 23
129.5996543779
 33
0.0
 14
111.2834101381999
 24
131.0996543779
 34
0.0
100
AcDbRotatedDimension
  0
DIMENSION
  5
198
330
1F
100
AcDbEntity
  8
1
100
AcDbDimension
  2
*D4
 10
80.2834101382
 20
109.668012950943
 30
0.0
 11
97.4902809478649
 21
113.418012950943
 31
0.0
 70
    32
  1
<>
 71
     5
 42
-1.0
 53
0.00013888888889
  3
ME10_DIM_13
100
AcDbAlignedDimension
 13
111.2834101381999
 23
131.0996543779
 33
0.0
 14
80.2834101382
 24
133.5996543779
 34
0.0
100
AcDbRotatedDimension
  0
DIMENSION
  5
1A5
330
1F
100
AcDbEntity
  8
1
100
AcDbDimension
  2
*D5
 10
63.2262206653976
 20
133.5996543779
 30
0.0
 11
59.4762206653976
 21
131.298906507483
 31
0.0
 70
    32
  1
<>
 71
     5
 42
-1.0
 53
90.0
  3
ME10_DIM_14
100
AcDbAlignedDimension
 13
75.7834101382
 23
128.5996543778999
 33
0.0
 14
80.2834101382
 24
133.5996543779
 34
0.0
 50
90.0
100
AcDbRotatedDimension
  0
DIMENSION
  5
1B0
330
1F
100
AcDbEntity
  8
1
100
AcDbDimension
  2
*D6
 10
63.2262206653976
 20
161.5996543779
 30
0.0
 11
59.4762206653976
 21
147.875102568892
 31
0.0
 70
    32
  1
<>
 71
     5
 42
-1.0
 53
90.0
  3
ME10_DIM_15
100
AcDbAlignedDimension
 13
80.2834101382
 23
133.5996543779
 33
0.0
 14
80.2834101382
 24
161.5996543779
 34
0.0
 50
90.0
100
AcDbRotatedDimension
  0
DIMENSION
  5
1BE
330
1F
100
AcDbEntity
  8
1
100
AcDbDimension
  2
*D7
 10
189.545245666253
 20
129.5996543779
 30
0.0
 11
185.795245666253
 21
124.985581066349
 31
0.0
 70
    32
  1
<>
 71
     5
 42
-1.0
 53
90.0
  3
ME10_DIM_16
100
AcDbAlignedDimension
 13
148.2834101382
 23
133.5996543779
 33
0.0
 14
169.7834101381999
 24
129.5996543779
 34
0.0
 50
90.0
100
AcDbRotatedDimension
  0
DIMENSION
  5
1CA
330
1F
100
AcDbEntity
  8
1
100
AcDbDimension
  2
*D8
 10
189.545245666253
 20
133.5996543779
 30
0.0
 11
185.795245666253
 21
149.341522068059
 31
0.0
 70
    32
  1
<>
 71
     5
 42
-1.0
 53
90.0
  3
ME10_DIM_17
100
AcDbAlignedDimension
 13
148.2834101382
 23
161.5996543779
 33
0.0
 14
148.2834101382
 24
133.5996543779
 34
0.0
 50
90.0
100
AcDbRotatedDimension
  0
DIMENSION
  5
1D5
330
1F
100
AcDbEntity
  8
1
100
AcDbDimension
  2
*D9
 10
114.7834101382
 20
109.75173284228
 30
0.0
 11
130.816222682731
 21
113.50173284228
 31
0.0
 70
    32
  1
<>
 71
     5
 42
-1.0
 53
0.00013888888889
  3
ME10_DIM_18
100
AcDbAlignedDimension
 13
148.2834101382
 23
137.4625545311
 33
0.0
 14
114.7834101382
 24
129.5996543779
 34
0.0
100
AcDbRotatedDimension
  0
ENDSEC
  0
SECTION
  2
OBJECTS
  0
DICTIONARY
  5
C
330
0
100
AcDbDictionary
281
     1
  3
ACAD_GROUP
350
D
  3
ACAD_LAYOUT
350
1A
  3
ACAD_MLINESTYLE
350
17
  3
ACAD_PLOTSETTINGS
350
19
  3
ACAD_PLOTSTYLENAME
350
E
  0
DICTIONARY
  5
D
102
{ACAD_REACTORS
330
C
102
}
330
C
100
AcDbDictionary
281
     1
  0
DICTIONARY
  5
1A
102
{ACAD_REACTORS
330
C
102
}
330
C
100
AcDbDictionary
281
     1
  3
Layout1
350
1E
  3
Layout2
350
26
  3
Model
350
22
  0
DICTIONARY
  5
17
102
{ACAD_REACTORS
330
C
102
}
330
C
100
AcDbDictionary
281
     1
  3
Standard
350
18
  0
DICTIONARY
  5
19
102
{ACAD_REACTORS
330
C
102
}
330
C
100
AcDbDictionary
281
     1
  0
ACDBDICTIONARYWDFLT
  5
E
102
{ACAD_REACTORS
330
C
102
}
330
C
100
AcDbDictionary
281
     1
  3
Normal
350
F
100
AcDbDictionaryWithDefault
340
F
  0
LAYOUT
  5
1E
102
{ACAD_REACTORS
330
1A
102
}
330
1A
100
AcDbPlotSettings
  1

  2

  4

  6

 40
0.0
 41
0.0
 42
0.0
 43
0.0
 44
0.0
 45
0.0
 46
0.0
 47
0.0
 48
0.0
 49
0.0
140
0.0
141
0.0
142
1.0
143
1.0
 70
   688
 72
     0
 73
     0
 74
     5
  7

 75
    16
 76
     0
 77
     2
 78
   300
147
1.0
148
0.0
149
0.0
100
AcDbLayout
  1
Layout1
 70
     1
 71
     1
 10
0.0
 20
0.0
 11
0.0
 21
0.0
 12
0.0
 22
0.0
 32
0.0
 14
0.0
 24
0.0
 34
0.0
 15
0.0
 25
0.0
 35
0.0
146
0.0
 13
0.0
 23
0.0
 33
0.0
 16
1.0
 26
0.0
 36
0.0
 17
0.0
 27
1.0
 37
0.0
 76
     0
330
1B
  0
LAYOUT
  5
26
102
{ACAD_REACTORS
330
1A
102
}
330
1A
100
AcDbPlotSettings
  1

  2

  4

  6

 40
0.0
 41
0.0
 42
0.0
 43
0.0
 44
0.0
 45
0.0
 46
0.0
 47
0.0
 48
0.0
 49
0.0
140
0.0
141
0.0
142
1.0
143
1.0
 70
   688
 72
     0
 73
     0
 74
     5
  7

 75
    16
 76
     0
 77
     2
 78
   300
147
1.0
148
0.0
149
0.0
100
AcDbLayout
  1
Layout2
 70
     1
 71
     2
 10
0.0
 20
0.0
 11
0.0
 21
0.0
 12
0.0
 22
0.0
 32
0.0
 14
0.0
 24
0.0
 34
0.0
 15
0.0
 25
0.0
 35
0.0
146
0.0
 13
0.0
 23
0.0
 33
0.0
 16
1.0
 26
0.0
 36
0.0
 17
0.0
 27
1.0
 37
0.0
 76
     0
330
23
  0
LAYOUT
  5
22
102
{ACAD_REACTORS
330
1A
102
}
330
1A
100
AcDbPlotSettings
  1

  2

  4

  6

 40
0.0
 41
0.0
 42
0.0
 43
0.0
 44
0.0
 45
0.0
 46
0.0
 47
0.0
 48
0.0
 49
0.0
140
0.0
141
0.0
142
1.0
143
1.0
 70
  1712
 72
     0
 73
     0
 74
     0
  7

 75
     0
 76
     0
 77
     2
 78
   300
147
1.0
148
0.0
149
0.0
100
AcDbLayout
  1
Model
 70
     1
 71
     0
 10
0.0
 20
0.0
 11
0.0
 21
0.0
 12
0.0
 22
0.0
 32
0.0
 14
57.7262206653976
 24
97.618907128273
 34
0.0
 15
191.545245666253
 25
205.3884974905457
 35
0.0
146
0.0
 13
0.0
 23
0.0
 33
0.0
 16
1.0
 26
0.0
 36
0.0
 17
0.0
 27
1.0
 37
0.0
 76
     0
330
1F
  0
MLINESTYLE
  5
18
102
{ACAD_REACTORS
330
17
102
}
330
17
100
AcDbMlineStyle
  2
Standard
 70
     0
  3

 62
   256
 51
90.0
 52
90.0
 71
     2
 49
0.5
 62
   256
  6
BYLAYER
 49
-0.5
 62
   256
  6
BYLAYER
  0
ACDBPLACEHOLDER
  5
F
102
{ACAD_REACTORS
330
E
102
}
330
E
  0
ENDSEC
  0
EOF
