  0
SECTION
  2
HEADER
  9
$ACADVER
  1
AC1018
  9
$ACADMAINTVER
 70
     0
  9
$DWGCODEPAGE
  3
ANSI_1252
  9
$INSBASE
 10
0.0
 20
0.0
 30
0.0
  9
$EXTMIN
 10
-207.91485230427
 20
-151.6182392210103
 30
0.0
  9
$EXTMAX
 10
181.9068397520139
 20
81.77063309968568
 30
0.0
  9
$LIMMIN
 10
0.0
 20
0.0
  9
$LIMMAX
 10
12.0
 20
9.0
  9
$ORTHOMODE
 70
     0
  9
$REGENMODE
 70
     1
  9
$FILLMODE
 70
     1
  9
$QTEXTMODE
 70
     0
  9
$MIRRTEXT
 70
     1
  9
$LTSCALE
 40
1.0
  9
$ATTMODE
 70
     1
  9
$TEXTSIZE
 40
0.2
  9
$TRACEWID
 40
0.05
  9
$TEXTSTYLE
  7
Standard
  9
$CLAYER
  8
0
  9
$CELTYPE
  6
ByLayer
  9
$CECOLOR
 62
   256
  9
$CELTSCALE
 40
1.0
  9
$DISPSILH
 70
     0
  9
$DIMSCALE
 40
1.0
  9
$DIMASZ
 40
0.18
  9
$DIMEXO
 40
0.0625
  9
$DIMDLI
 40
0.38
  9
$DIMRND
 40
0.0
  9
$DIMDLE
 40
0.0
  9
$DIMEXE
 40
0.18
  9
$DIMTP
 40
0.0
  9
$DIMTM
 40
0.0
  9
$DIMTXT
 40
0.18
  9
$DIMCEN
 40
0.09
  9
$DIMTSZ
 40
0.0
  9
$DIMTOL
 70
     0
  9
$DIMLIM
 70
     0
  9
$DIMTIH
 70
     1
  9
$DIMTOH
 70
     1
  9
$DIMSE1
 70
     0
  9
$DIMSE2
 70
     0
  9
$DIMTAD
 70
     0
  9
$DIMZIN
 70
     0
  9
$DIMBLK
  1

  9
$DIMASO
 70
     1
  9
$DIMSHO
 70
     1
  9
$DIMPOST
  1

  9
$DIMAPOST
  1

  9
$DIMALT
 70
     0
  9
$DIMALTD
 70
     2
  9
$DIMALTF
 40
25.4
  9
$DIMLFAC
 40
1.0
  9
$DIMTOFL
 70
     0
  9
$DIMTVP
 40
0.0
  9
$DIMTIX
 70
     0
  9
$DIMSOXD
 70
     0
  9
$DIMSAH
 70
     0
  9
$DIMBLK1
  1

  9
$DIMBLK2
  1

  9
$DIMSTYLE
  2
Standard
  9
$DIMCLRD
 70
     0
  9
$DIMCLRE
 70
     0
  9
$DIMCLRT
 70
     0
  9
$DIMTFAC
 40
1.0
  9
$DIMGAP
 40
0.09
  9
$DIMJUST
 70
     0
  9
$DIMSD1
 70
     0
  9
$DIMSD2
 70
     0
  9
$DIMTOLJ
 70
     1
  9
$DIMTZIN
 70
     0
  9
$DIMALTZ
 70
     0
  9
$DIMALTTZ
 70
     0
  9
$DIMUPT
 70
     0
  9
$DIMDEC
 70
     4
  9
$DIMTDEC
 70
     4
  9
$DIMALTU
 70
     2
  9
$DIMALTTD
 70
     2
  9
$DIMTXSTY
  7
Standard
  9
$DIMAUNIT
 70
     0
  9
$DIMADEC
 70
     0
  9
$DIMALTRND
 40
0.0
  9
$DIMAZIN
 70
     0
  9
$DIMDSEP
 70
    46
  9
$DIMATFIT
 70
     3
  9
$DIMFRAC
 70
     0
  9
$DIMLDRBLK
  1

  9
$DIMLUNIT
 70
     2
  9
$DIMLWD
 70
    -2
  9
$DIMLWE
 70
    -2
  9
$DIMTMOVE
 70
     0
  9
$LUNITS
 70
     2
  9
$LUPREC
 70
     4
  9
$SKETCHINC
 40
0.1
  9
$FILLETRAD
 40
0.5
  9
$AUNITS
 70
     0
  9
$AUPREC
 70
     0
  9
$MENU
  1
.
  9
$ELEVATION
 40
0.0
  9
$PELEVATION
 40
0.0
  9
$THICKNESS
 40
0.0
  9
$LIMCHECK
 70
     0
  9
$CHAMFERA
 40
0.5
  9
$CHAMFERB
 40
0.5
  9
$CHAMFERC
 40
1.0
  9
$CHAMFERD
 40
0.0
  9
$SKPOLY
 70
     0
  9
$TDCREATE
 40
2454872.449488276
  9
$TDUCREATE
 40
2454872.407821609
  9
$TDUPDATE
 40
2454872.449488287
  9
$TDUUPDATE
 40
2454872.40782162
  9
$TDINDWG
 40
0.0000000116
  9
$TDUSRTIMER
 40
0.0000000116
  9
$USRTIMER
 70
     1
  9
$ANGBASE
 50
0.0
  9
$ANGDIR
 70
     0
  9
$PDMODE
 70
     0
  9
$PDSIZE
 40
0.0
  9
$PLINEWID
 40
0.0
  9
$SPLFRAME
 70
     0
  9
$SPLINETYPE
 70
     6
  9
$SPLINESEGS
 70
     8
  9
$HANDSEED
  5
257
  9
$SURFTAB1
 70
     6
  9
$SURFTAB2
 70
     6
  9
$SURFTYPE
 70
     6
  9
$SURFU
 70
     6
  9
$SURFV
 70
     6
  9
$UCSBASE
  2

  9
$UCSNAME
  2

  9
$UCSORG
 10
0.0
 20
0.0
 30
0.0
  9
$UCSXDIR
 10
1.0
 20
0.0
 30
0.0
  9
$UCSYDIR
 10
0.0
 20
1.0
 30
0.0
  9
$UCSORTHOREF
  2

  9
$UCSORTHOVIEW
 70
     0
  9
$UCSORGTOP
 10
0.0
 20
0.0
 30
0.0
  9
$UCSORGBOTTOM
 10
0.0
 20
0.0
 30
0.0
  9
$UCSORGLEFT
 10
0.0
 20
0.0
 30
0.0
  9
$UCSORGRIGHT
 10
0.0
 20
0.0
 30
0.0
  9
$UCSORGFRONT
 10
0.0
 20
0.0
 30
0.0
  9
$UCSORGBACK
 10
0.0
 20
0.0
 30
0.0
  9
$PUCSBASE
  2

  9
$PUCSNAME
  2

  9
$PUCSORG
 10
0.0
 20
0.0
 30
0.0
  9
$PUCSXDIR
 10
1.0
 20
0.0
 30
0.0
  9
$PUCSYDIR
 10
0.0
 20
1.0
 30
0.0
  9
$PUCSORTHOREF
  2

  9
$PUCSORTHOVIEW
 70
     0
  9
$PUCSORGTOP
 10
0.0
 20
0.0
 30
0.0
  9
$PUCSORGBOTTOM
 10
0.0
 20
0.0
 30
0.0
  9
$PUCSORGLEFT
 10
0.0
 20
0.0
 30
0.0
  9
$PUCSORGRIGHT
 10
0.0
 20
0.0
 30
0.0
  9
$PUCSORGFRONT
 10
0.0
 20
0.0
 30
0.0
  9
$PUCSORGBACK
 10
0.0
 20
0.0
 30
0.0
  9
$USERI1
 70
     0
  9
$USERI2
 70
     0
  9
$USERI3
 70
     0
  9
$USERI4
 70
     0
  9
$USERI5
 70
     0
  9
$USERR1
 40
14.5
  9
$USERR2
 40
0.0
  9
$USERR3
 40
0.0
  9
$USERR4
 40
0.0
  9
$USERR5
 40
0.0
  9
$WORLDVIEW
 70
     1
  9
$SHADEDGE
 70
     3
  9
$SHADEDIF
 70
    70
  9
$TILEMODE
 70
     1
  9
$MAXACTVP
 70
    64
  9
$PINSBASE
 10
0.0
 20
0.0
 30
0.0
  9
$PLIMCHECK
 70
     0
  9
$PEXTMIN
 10
1.00000000000000E+20
 20
1.00000000000000E+20
 30
1.00000000000000E+20
  9
$PEXTMAX
 10
-1.00000000000000E+20
 20
-1.00000000000000E+20
 30
-1.00000000000000E+20
  9
$PLIMMIN
 10
0.0
 20
0.0
  9
$PLIMMAX
 10
12.0
 20
9.0
  9
$UNITMODE
 70
     0
  9
$VISRETAIN
 70
     1
  9
$PLINEGEN
 70
     0
  9
$PSLTSCALE
 70
     1
  9
$TREEDEPTH
 70
  3020
  9
$CMLSTYLE
  2
Standard
  9
$CMLJUST
 70
     0
  9
$CMLSCALE
 40
1.0
  9
$PROXYGRAPHICS
 70
     1
  9
$MEASUREMENT
 70
     1
  9
$CELWEIGHT
370
    -1
  9
$ENDCAPS
280
     0
  9
$JOINSTYLE
280
     0
  9
$LWDISPLAY
290
     0
  9
$INSUNITS
 70
     1
  9
$HYPERLINKBASE
  1

  9
$STYLESHEET
  1

  9
$XEDIT
290
     1
  9
$CEPSNTYPE
380
     0
  9
$PSTYLEMODE
290
     1
  9
$FINGERPRINTGUID
  2
{CAD5E437-F8EB-4993-82B6-E84CAD3F4786}
  9
$VERSIONGUID
  2
{FAEB1C32-E019-11D5-929B-00C0DF256EC4}
  9
$EXTNAMES
290
     1
  9
$PSVPSCALE
 40
0.0
  9
$OLESTARTUP
290
     0
  9
$SORTENTS
280
   127
  9
$INDEXCTL
280
     0
  9
$HIDETEXT
280
     1
  9
$XCLIPFRAME
290
     0
  9
$HALOGAP
280
     0
  9
$OBSCOLOR
 70
   257
  9
$OBSLTYPE
280
     0
  9
$INTERSECTIONDISPLAY
280
     0
  9
$INTERSECTIONCOLOR
 70
   257
  9
$DIMASSOC
280
     2
  9
$PROJECTNAME
  1

  0
ENDSEC
  0
SECTION
  2
CLASSES
  0
CLASS
  1
ACDBDICTIONARYWDFLT
  2
AcDbDictionaryWithDefault
  3
ObjectDBX Classes
 90
        0
 91
        3
280
     0
281
     0
  0
CLASS
  1

  2
exOdDbCircle
  3

 90
        0
 91
        3
280
     0
281
     1
  0
ENDSEC
  0
SECTION
  2
TABLES
  0
TABLE
  2
VPORT
  5
8
330
0
100
AcDbSymbolTable
 70
     1
  0
VPORT
  5
29
330
8
100
AcDbSymbolTableRecord
100
AcDbViewportTableRecord
  2
*Active
 70
     0
 10
0.0
 20
0.0
 11
1.0
 21
1.0
 12
-13.00400627612805
 22
-34.92380306066231
 13
0.0
 23
0.0
 14
0.5
 24
0.5
 15
0.5
 25
0.5
 16
0.0
 26
0.0
 36
1.0
 17
0.0
 27
0.0
 37
0.0
 40
267.554498391834
 41
1.60267857142857
 42
50.0
 43
0.0
 44
0.0
 50
0.0
 51
0.0
 71
     0
 72
   100
 73
     1
 74
     3
 75
     0
 76
     0
 77
     0
 78
     0
281
     0
 65
     1
110
0.0
120
0.0
130
0.0
111
1.0
121
0.0
131
0.0
112
0.0
122
1.0
132
0.0
 79
     0
146
0.0
  0
ENDTAB
  0
TABLE
  2
LTYPE
  5
5
330
0
100
AcDbSymbolTable
 70
     8
  0
LTYPE
  5
14
330
5
100
AcDbSymbolTableRecord
100
AcDbLinetypeTableRecord
  2
ByBlock
 70
     0
  3

 72
    65
 73
     0
 40
0.0
  0
LTYPE
  5
15
330
5
100
AcDbSymbolTableRecord
100
AcDbLinetypeTableRecord
  2
ByLayer
 70
     0
  3

 72
    65
 73
     0
 40
0.0
  0
LTYPE
  5
16
330
5
100
AcDbSymbolTableRecord
100
AcDbLinetypeTableRecord
  2
Continuous
 70
     0
  3
Solid line
 72
    65
 73
     0
 40
0.0
  0
LTYPE
  5
2A
330
5
100
AcDbSymbolTableRecord
100
AcDbLinetypeTableRecord
  2
DASHED
 70
     0
  3
Dashed
 72
    65
 73
     2
 40
15.0
 49
7.0
 74
     0
 49
-8.0
 74
     0
  0
LTYPE
  5
2B
330
5
100
AcDbSymbolTableRecord
100
AcDbLinetypeTableRecord
  2
DOTTED
 70
     0
  3
Dotted
 72
    65
 73
     2
 40
1.0
 49
0.0
 74
     0
 49
-1.0
 74
     0
  0
LTYPE
  5
2C
330
5
100
AcDbSymbolTableRecord
100
AcDbLinetypeTableRecord
  2
DOT_CENTER
 70
     0
  3
Dot_Center
 72
    65
 73
     4
 40
14.0
 49
12.0
 74
     0
 49
-1.0
 74
     0
 49
0.0
 74
     0
 49
-1.0
 74
     0
  0
LTYPE
  5
2D
330
5
100
AcDbSymbolTableRecord
100
AcDbLinetypeTableRecord
  2
LONG_DASHED
 70
     0
  3
Long_Dashed
 72
    65
 73
     2
 40
15.0
 49
10.0
 74
     0
 49
-5.0
 74
     0
  0
LTYPE
  5
2E
330
5
100
AcDbSymbolTableRecord
100
AcDbLinetypeTableRecord
  2
DASH_CENTER
 70
     0
  3
Dash_Center
 72
    65
 73
     4
 40
14.0
 49
11.0
 74
     0
 49
-1.0
 74
     0
 49
1.0
 74
     0
 49
-1.0
 74
     0
  0
LTYPE
  5
2F
330
5
100
AcDbSymbolTableRecord
100
AcDbLinetypeTableRecord
  2
PHANTOM
 70
     0
  3
Phantom
 72
    65
 73
     6
 40
13.0
 49
10.0
 74
     0
 49
-1.0
 74
     0
 49
0.0
 74
     0
 49
-1.0
 74
     0
 49
0.0
 74
     0
 49
-1.0
 74
     0
  0
LTYPE
  5
30
330
5
100
AcDbSymbolTableRecord
100
AcDbLinetypeTableRecord
  2
CENTER_DASH_DASH
 70
     0
  3
Center_Dash_Dash
 72
    65
 73
     6
 40
14.0
 49
9.0
 74
     0
 49
-1.0
 74
     0
 49
1.0
 74
     0
 49
-1.0
 74
     0
 49
1.0
 74
     0
 49
-1.0
 74
     0
  0
ENDTAB
  0
TABLE
  2
LAYER
  5
2
330
0
100
AcDbSymbolTable
 70
     2
  0
LAYER
  5
10
330
2
100
AcDbSymbolTableRecord
100
AcDbLayerTableRecord
  2
0
 70
     0
 62
     7
  6
Continuous
370
    -3
390
F
  0
LAYER
  5
31
330
2
100
AcDbSymbolTableRecord
100
AcDbLayerTableRecord
  2
1
 70
     0
 62
     7
  6
Continuous
370
    -3
390
F
  0
ENDTAB
  0
TABLE
  2
STYLE
  5
3
330
0
100
AcDbSymbolTable
 70
     2
  0
STYLE
  5
11
330
3
100
AcDbSymbolTableRecord
100
AcDbTextStyleTableRecord
  2
Standard
 70
     0
 40
0.0
 41
1.0
 50
0.0
 71
     0
 42
0.2
  3
txt
  4

  0
STYLE
  5
14A
330
3
100
AcDbSymbolTableRecord
100
AcDbTextStyleTableRecord
  2
CONVERTER_11
 70
     0
 40
0.0
 41
0.9
 50
0.0
 71
     0
 42
0.2
  3
txt.shx
  4

  0
ENDTAB
  0
TABLE
  2
VIEW
  5
6
330
0
100
AcDbSymbolTable
 70
     0
  0
ENDTAB
  0
TABLE
  2
UCS
  5
7
330
0
100
AcDbSymbolTable
 70
     0
  0
ENDTAB
  0
TABLE
  2
APPID
  5
9
330
0
100
AcDbSymbolTable
 70
     1
  0
APPID
  5
12
330
9
100
AcDbSymbolTableRecord
100
AcDbRegAppTableRecord
  2
ACAD
 70
     0
  0
ENDTAB
  0
TABLE
  2
DIMSTYLE
  5
A
330
0
100
AcDbSymbolTable
 70
    20
100
AcDbDimStyleTable
  0
DIMSTYLE
105
27
330
A
100
AcDbSymbolTableRecord
100
AcDbDimStyleTableRecord
  2
Standard
 70
     0
340
11
  0
DIMSTYLE
105
158
102
{ACAD_REACTORS
330
159
102
}
330
A
100
AcDbSymbolTableRecord
100
AcDbDimStyleTableRecord
  2
ME10_DIM_10
 70
     0
 41
3.5
 42
0.0
 44
2.0
 73
     0
 74
     0
 77
     1
 78
     8
140
3.5
147
2.0
172
     1
173
     1
176
     2
177
     2
178
     2
271
     3
340
14A
  0
DIMSTYLE
105
163
102
{ACAD_REACTORS
330
164
102
}
330
A
100
AcDbSymbolTableRecord
100
AcDbDimStyleTableRecord
  2
ME10_DIM_11
 70
     0
 41
3.5
 42
0.0
 44
2.0
 73
     0
 74
     0
 77
     1
 78
     8
140
3.5
147
2.0
172
     1
173
     1
176
     2
177
     2
178
     2
271
     2
340
14A
  0
DIMSTYLE
105
170
102
{ACAD_REACTORS
330
171
102
}
330
A
100
AcDbSymbolTableRecord
100
AcDbDimStyleTableRecord
  2
ME10_DIM_12
 70
     0
 41
3.5
 42
0.0
 44
2.0
 73
     0
 74
     0
 77
     1
 78
     8
140
3.5
147
2.0
172
     1
173
     1
176
     2
177
     2
178
     2
271
     2
340
14A
  0
DIMSTYLE
105
17B
102
{ACAD_REACTORS
330
17C
102
}
330
A
100
AcDbSymbolTableRecord
100
AcDbDimStyleTableRecord
  2
ME10_DIM_13
 70
     0
 41
3.5
 42
0.0
 44
2.0
 73
     0
 74
     0
 77
     1
 78
     8
140
3.5
147
2.0
172
     1
173
     1
176
     2
177
     2
178
     2
271
     2
340
14A
  0
DIMSTYLE
105
186
102
{ACAD_REACTORS
330
187
102
}
330
A
100
AcDbSymbolTableRecord
100
AcDbDimStyleTableRecord
  2
ME10_DIM_14
 70
     0
 41
3.5
 42
0.0
 44
2.0
 73
     0
 74
     0
 77
     1
 78
     8
140
3.5
147
2.0
172
     1
173
     1
176
     2
177
     2
178
     2
271
     2
340
14A
  0
DIMSTYLE
105
191
102
{ACAD_REACTORS
330
192
102
}
330
A
100
AcDbSymbolTableRecord
100
AcDbDimStyleTableRecord
  2
ME10_DIM_15
 70
     0
 41
3.5
 42
0.0
 44
2.0
 73
     0
 74
     0
 77
     1
 78
     8
140
3.5
147
2.0
172
     1
173
     1
176
     2
177
     2
178
     2
271
     2
340
14A
  0
DIMSTYLE
105
19C
102
{ACAD_REACTORS
330
19D
102
}
330
A
100
AcDbSymbolTableRecord
100
AcDbDimStyleTableRecord
  2
ME10_DIM_16
 70
     0
 41
3.5
 42
0.0
 44
2.0
 73
     0
 74
     0
 77
     1
 78
     8
140
3.5
147
2.0
172
     1
173
     1
176
     2
177
     2
178
     2
271
     2
340
14A
  0
DIMSTYLE
105
1A7
102
{ACAD_REACTORS
330
1A8
102
}
330
A
100
AcDbSymbolTableRecord
100
AcDbDimStyleTableRecord
  2
ME10_DIM_17
 70
     0
 41
3.5
 42
0.0
 44
2.0
 73
     0
 74
     0
 77
     1
 78
     8
140
3.5
147
2.0
172
     1
173
     1
176
     2
177
     2
178
     2
271
     2
340
14A
  0
DIMSTYLE
105
1B2
102
{ACAD_REACTORS
330
1B3
102
}
330
A
100
AcDbSymbolTableRecord
100
AcDbDimStyleTableRecord
  2
ME10_DIM_18
 70
     0
 41
3.5
 42
0.0
 44
2.0
 73
     0
 74
     0
 77
     1
 78
     8
140
3.5
147
2.0
172
     1
173
     1
176
     2
177
     2
178
     2
271
     2
340
14A
  0
DIMSTYLE
105
1BD
102
{ACAD_REACTORS
330
1BE
102
}
330
A
100
AcDbSymbolTableRecord
100
AcDbDimStyleTableRecord
  2
ME10_DIM_19
 70
     0
 41
3.5
 42
0.0
 44
2.0
 73
     0
 74
     0
 77
     1
 78
     8
140
3.5
147
2.0
172
     1
173
     1
176
     2
177
     2
178
     2
271
     2
340
14A
  0
DIMSTYLE
105
1C8
102
{ACAD_REACTORS
330
1C9
102
}
330
A
100
AcDbSymbolTableRecord
100
AcDbDimStyleTableRecord
  2
ME10_DIM_20
 70
     0
 41
3.5
 42
0.0
 44
2.0
 73
     0
 74
     0
 77
     1
 78
     8
140
3.5
147
2.0
172
     1
173
     1
176
     2
177
     2
178
     2
271
     2
340
14A
  0
DIMSTYLE
105
1D3
102
{ACAD_REACTORS
330
1D4
102
}
330
A
100
AcDbSymbolTableRecord
100
AcDbDimStyleTableRecord
  2
ME10_DIM_21
 70
     0
 41
3.5
 42
0.0
 44
2.0
 73
     0
 74
     0
 77
     1
 78
     8
140
3.5
147
2.0
172
     1
173
     1
176
     2
177
     2
178
     2
271
     2
340
14A
  0
DIMSTYLE
105
1E0
102
{ACAD_REACTORS
330
1E1
102
}
330
A
100
AcDbSymbolTableRecord
100
AcDbDimStyleTableRecord
  2
ME10_DIM_22
 70
     0
 41
3.5
 42
0.0
 44
2.0
 73
     0
 74
     0
 77
     1
 78
     8
140
3.5
147
2.0
172
     1
173
     1
176
     2
177
     2
178
     2
271
     2
340
14A
  0
DIMSTYLE
105
1EB
102
{ACAD_REACTORS
330
1EC
102
}
330
A
100
AcDbSymbolTableRecord
100
AcDbDimStyleTableRecord
  2
ME10_DIM_23
 70
     0
 41
3.5
 42
0.0
 44
2.0
 73
     0
 74
     0
 77
     1
 78
     8
140
3.5
147
2.0
172
     1
173
     1
176
     2
177
     2
178
     2
271
     3
340
14A
  0
DIMSTYLE
105
1F6
102
{ACAD_REACTORS
330
1F7
102
}
330
A
100
AcDbSymbolTableRecord
100
AcDbDimStyleTableRecord
  2
ME10_DIM_24
 70
     0
 41
3.5
 42
0.0
 44
2.0
 73
     0
 74
     0
 77
     1
 78
     8
140
3.5
147
2.0
172
     1
173
     1
176
     2
177
     2
178
     2
271
     3
340
14A
  0
DIMSTYLE
105
203
102
{ACAD_REACTORS
330
204
102
}
330
A
100
AcDbSymbolTableRecord
100
AcDbDimStyleTableRecord
  2
ME10_DIM_25
 70
     0
 41
3.5
 42
0.0
 44
2.0
 73
     0
 74
     0
 77
     1
 78
     8
140
3.5
147
2.0
172
     1
173
     1
176
     2
177
     2
178
     2
271
     3
340
14A
  0
DIMSTYLE
105
20E
102
{ACAD_REACTORS
330
20F
102
}
330
A
100
AcDbSymbolTableRecord
100
AcDbDimStyleTableRecord
  2
ME10_DIM_26
 70
     0
 41
3.5
 42
0.0
 44
2.0
 73
     0
 74
     0
 77
     1
 78
     8
140
3.5
147
2.0
172
     1
173
     1
176
     2
177
     2
178
     2
271
     3
340
14A
  0
DIMSTYLE
105
21B
102
{ACAD_REACTORS
330
21C
102
}
330
A
100
AcDbSymbolTableRecord
100
AcDbDimStyleTableRecord
  2
ME10_DIM_27
 70
     0
 41
3.5
 42
0.0
 44
2.0
 73
     0
 74
     0
 77
     1
 78
     8
140
3.5
147
2.0
172
     1
173
     1
176
     2
177
     2
178
     2
271
     2
340
14A
  0
DIMSTYLE
105
226
102
{ACAD_REACTORS
330
227
102
}
330
A
100
AcDbSymbolTableRecord
100
AcDbDimStyleTableRecord
  2
ME10_DIM_28
 70
     0
 41
3.5
 42
0.0
 44
2.0
 73
     0
 74
     0
 77
     1
 78
     8
140
3.5
147
2.0
172
     1
173
     1
176
     2
177
     2
178
     2
271
     2
340
14A
  0
ENDTAB
  0
TABLE
  2
BLOCK_RECORD
  5
1
330
0
100
AcDbSymbolTable
 70
    26
  0
BLOCK_RECORD
  5
1F
330
1
100
AcDbSymbolTableRecord
100
AcDbBlockTableRecord
  2
*Model_Space
340
22
  0
BLOCK_RECORD
  5
1B
330
1
100
AcDbSymbolTableRecord
100
AcDbBlockTableRecord
  2
*Paper_Space
340
1E
  0
BLOCK_RECORD
  5
23
330
1
100
AcDbSymbolTableRecord
100
AcDbBlockTableRecord
  2
*Paper_Space0
340
26
  0
BLOCK_RECORD
  5
14F
330
1
100
AcDbSymbolTableRecord
100
AcDbBlockTableRecord
  2
*D1
340
0
  0
BLOCK_RECORD
  5
15A
330
1
100
AcDbSymbolTableRecord
100
AcDbBlockTableRecord
  2
*D2
340
0
  0
BLOCK_RECORD
  5
165
330
1
100
AcDbSymbolTableRecord
100
AcDbBlockTableRecord
  2
*D3
340
0
  0
BLOCK_RECORD
  5
172
330
1
100
AcDbSymbolTableRecord
100
AcDbBlockTableRecord
  2
*D4
340
0
  0
BLOCK_RECORD
  5
17D
330
1
100
AcDbSymbolTableRecord
100
AcDbBlockTableRecord
  2
*D5
340
0
  0
BLOCK_RECORD
  5
188
330
1
100
AcDbSymbolTableRecord
100
AcDbBlockTableRecord
  2
*D6
340
0
  0
BLOCK_RECORD
  5
193
330
1
100
AcDbSymbolTableRecord
100
AcDbBlockTableRecord
  2
*D7
340
0
  0
BLOCK_RECORD
  5
19E
330
1
100
AcDbSymbolTableRecord
100
AcDbBlockTableRecord
  2
*D8
340
0
  0
BLOCK_RECORD
  5
1A9
330
1
100
AcDbSymbolTableRecord
100
AcDbBlockTableRecord
  2
*D9
340
0
  0
BLOCK_RECORD
  5
1B4
330
1
100
AcDbSymbolTableRecord
100
AcDbBlockTableRecord
  2
*D10
340
0
  0
BLOCK_RECORD
  5
1BF
330
1
100
AcDbSymbolTableRecord
100
AcDbBlockTableRecord
  2
*D11
340
0
  0
BLOCK_RECORD
  5
1CA
330
1
100
AcDbSymbolTableRecord
100
AcDbBlockTableRecord
  2
*D12
340
0
  0
BLOCK_RECORD
  5
1D5
330
1
100
AcDbSymbolTableRecord
100
AcDbBlockTableRecord
  2
*D13
340
0
  0
BLOCK_RECORD
  5
1E2
330
1
100
AcDbSymbolTableRecord
100
AcDbBlockTableRecord
  2
*D14
340
0
  0
BLOCK_RECORD
  5
1ED
330
1
100
AcDbSymbolTableRecord
100
AcDbBlockTableRecord
  2
*D15
340
0
  0
BLOCK_RECORD
  5
1F8
330
1
100
AcDbSymbolTableRecord
100
AcDbBlockTableRecord
  2
*D16
340
0
  0
BLOCK_RECORD
  5
205
330
1
100
AcDbSymbolTableRecord
100
AcDbBlockTableRecord
  2
*D17
340
0
  0
BLOCK_RECORD
  5
210
330
1
100
AcDbSymbolTableRecord
100
AcDbBlockTableRecord
  2
*D18
340
0
  0
BLOCK_RECORD
  5
21D
330
1
100
AcDbSymbolTableRecord
100
AcDbBlockTableRecord
  2
*D19
340
0
  0
BLOCK_RECORD
  5
228
330
1
100
AcDbSymbolTableRecord
100
AcDbBlockTableRecord
  2
*D20
340
0
102
{BLKREFS
331
22E
102
}
  0
BLOCK_RECORD
  5
22F
330
1
100
AcDbSymbolTableRecord
100
AcDbBlockTableRecord
  2
*D21
340
0
102
{BLKREFS
331
233
102
}
  0
BLOCK_RECORD
  5
234
330
1
100
AcDbSymbolTableRecord
100
AcDbBlockTableRecord
  2
*D22
340
0
102
{BLKREFS
331
23C
102
}
  0
BLOCK_RECORD
  5
23D
330
1
100
AcDbSymbolTableRecord
100
AcDbBlockTableRecord
  2
*D23
340
0
102
{BLKREFS
331
244
102
}
  0
BLOCK_RECORD
  5
245
330
1
100
AcDbSymbolTableRecord
100
AcDbBlockTableRecord
  2
*D24
340
0
102
{BLKREFS
331
24C
102
}
  0
BLOCK_RECORD
  5
24D
330
1
100
AcDbSymbolTableRecord
100
AcDbBlockTableRecord
  2
*D25
340
0
102
{BLKREFS
331
256
102
}
  0
ENDTAB
  0
ENDSEC
  0
SECTION
  2
BLOCKS
  0
BLOCK
  5
20
330
1F
100
AcDbEntity
  8
0
100
AcDbBlockBegin
  2
*Model_Space
 70
     0
 71
     0
 10
0.0
 20
0.0
 30
0.0
  3
*Model_Space
  1

  0
ENDBLK
  5
21
330
1F
100
AcDbEntity
  8
0
100
AcDbBlockEnd
  0
BLOCK
  5
1C
330
1B
100
AcDbEntity
 67
     1
  8
0
100
AcDbBlockBegin
  2
*Paper_Space
 70
     0
 71
     0
 10
0.0
 20
0.0
 30
0.0
  3
*Paper_Space
  1

  0
ENDBLK
  5
1D
330
1B
100
AcDbEntity
 67
     1
  8
0
100
AcDbBlockEnd
  0
BLOCK
  5
24
330
23
100
AcDbEntity
  8
0
100
AcDbBlockBegin
  2
*Paper_Space0
 70
     0
 71
     0
 10
0.0
 20
0.0
 30
0.0
  3
*Paper_Space0
  1

  0
ENDBLK
  5
25
330
23
100
AcDbEntity
  8
0
100
AcDbBlockEnd
  0
BLOCK
  5
156
330
14F
100
AcDbEntity
  8
0
100
AcDbBlockBegin
  2
*D1
 70
     1
 71
     0
 10
0.0
 20
0.0
 30
0.0
  3
*D1
  1

  0
LINE
  5
150
330
14F
100
AcDbEntity
  8
1
  6
Continuous
 62
     2
100
AcDbLine
 10
-127.446561371004
 20
-95.61464852898867
 30
0.0
 11
-127.446561371004
 21
54.38535147101111
 31
0.0
  0
LINE
  5
151
330
14F
100
AcDbEntity
  8
1
  6
Continuous
 62
     2
100
AcDbLine
 10
-169.6648523042701
 20
54.38535147101111
 30
0.0
 11
-125.446561371004
 21
54.38535147101111
 31
0.0
  0
LINE
  5
152
330
14F
100
AcDbEntity
  8
1
  6
Continuous
 62
     2
100
AcDbLine
 10
-169.6648523042701
 20
-95.6146485289887
 30
0.0
 11
-125.446561371004
 21
-95.6146485289887
 31
0.0
  0
SOLID
  5
153
330
14F
100
AcDbEntity
  8
1
 62
     2
100
AcDbTrace
 10
-127.9073451125599
 20
-92.11464852898867
 30
0.0
 11
-126.9857776294481
 21
-92.11464852898867
 31
0.0
 12
-127.446561371004
 22
-95.61464852898867
 32
0.0
 13
-127.446561371004
 23
-95.61464852898867
 33
0.0
  0
SOLID
  5
154
330
14F
100
AcDbEntity
  8
1
 62
     2
100
AcDbTrace
 10
-126.9857776294481
 20
50.88535147101111
 30
0.0
 11
-127.9073451125599
 21
50.88535147101111
 31
0.0
 12
-127.446561371004
 22
54.38535147101111
 32
0.0
 13
-127.446561371004
 23
54.38535147101111
 33
0.0
  0
MTEXT
  5
155
330
14F
100
AcDbEntity
  8
1
 62
     2
100
AcDbMText
 10
-129.446561371004
 20
-23.82249160524353
 30
0.0
 40
3.5
 41
0.0
 71
     7
 72
     1
  1
210
  7
CONVERTER_11
 11
0.0
 21
1.0
 31
0.0
 73
     1
 44
0.60024009603842
  0
ENDBLK
  5
157
330
14F
100
AcDbEntity
  8
0
100
AcDbBlockEnd
  0
BLOCK
  5
161
330
15A
100
AcDbEntity
  8
0
100
AcDbBlockBegin
  2
*D2
 70
     1
 71
     0
 10
0.0
 20
0.0
 30
0.0
  3
*D2
  1

  0
LINE
  5
15B
330
15A
100
AcDbEntity
  8
1
  6
Continuous
 62
     2
100
AcDbLine
 10
-68.35733264471742
 20
-139.2746447316279
 30
0.0
 11
-103.8573326447174
 21
-139.2746447316279
 31
0.0
  0
LINE
  5
15C
330
15A
100
AcDbEntity
  8
1
  6
Continuous
 62
     2
100
AcDbLine
 10
-68.35733264471742
 20
-110.6146485289887
 30
0.0
 11
-68.35733264471742
 21
-141.2746447316279
 31
0.0
  0
LINE
  5
15D
330
15A
100
AcDbEntity
  8
1
  6
Continuous
 62
     2
100
AcDbLine
 10
-103.8573326447174
 20
-89.11464852898897
 30
0.0
 11
-103.8573326447174
 21
-141.2746447316279
 31
0.0
  0
SOLID
  5
15E
330
15A
100
AcDbEntity
  8
1
 62
     2
100
AcDbTrace
 10
-71.85733264471742
 20
-139.7354284731838
 30
0.0
 11
-71.85733264471742
 21
-138.813860990072
 31
0.0
 12
-68.35733264471742
 22
-139.2746447316279
 32
0.0
 13
-68.35733264471742
 23
-139.2746447316279
 33
0.0
  0
SOLID
  5
15F
330
15A
100
AcDbEntity
  8
1
 62
     2
100
AcDbTrace
 10
-100.3573326447174
 20
-138.813860990072
 30
0.0
 11
-100.3573326447174
 21
-139.7354284731838
 31
0.0
 12
-103.8573326447174
 22
-139.2746447316279
 32
0.0
 13
-103.8573326447174
 23
-139.2746447316279
 33
0.0
  0
MTEXT
  5
160
330
15A
100
AcDbEntity
  8
1
 62
     2
100
AcDbMText
 10
-91.1314468361103
 20
-137.2746447316279
 30
0.0
 40
3.5
 41
0.0
 71
     7
 72
     1
  1
35.5
  7
CONVERTER_11
 11
0.9999999999970621
 21
2.424068405545307E-6
 31
0.0
 73
     1
 44
0.60024009603842
  0
ENDBLK
  5
162
330
15A
100
AcDbEntity
  8
0
100
AcDbBlockEnd
  0
BLOCK
  5
16E
330
165
100
AcDbEntity
  8
0
100
AcDbBlockBegin
  2
*D3
 70
     1
 71
     0
 10
0.0
 20
0.0
 30
0.0
  3
*D3
  1

  0
LINE
  5
166
330
165
100
AcDbEntity
  8
1
  6
Continuous
 62
     2
100
AcDbLine
 10
-23.17515141969547
 20
-88.68918859156351
 30
0.0
 11
-23.17515141969547
 21
-81.68918859156351
 31
0.0
  0
LINE
  5
167
330
165
100
AcDbEntity
  8
1
  6
Continuous
 62
     2
100
AcDbLine
 10
-23.17515141969547
 20
-92.68918859156351
 30
0.0
 11
-23.17515141969547
 21
-88.68918859156351
 31
0.0
  0
LINE
  5
168
330
165
100
AcDbEntity
  8
1
  6
Continuous
 62
     2
100
AcDbLine
 10
-23.17515141969547
 20
-101.1518849186211
 30
0.0
 11
-23.17515141969547
 21
-92.68918859156351
 31
0.0
  0
LINE
  5
169
330
165
100
AcDbEntity
  8
1
  6
Continuous
 62
     2
100
AcDbLine
 10
-41.66876032016923
 20
-92.68918859156351
 30
0.0
 11
-21.17515141969547
 21
-92.68918859156351
 31
0.0
  0
LINE
  5
16A
330
165
100
AcDbEntity
  8
1
  6
Continuous
 62
     2
100
AcDbLine
 10
-34.16876032016927
 20
-88.68918859156351
 30
0.0
 11
-21.17515141969547
 21
-88.68918859156351
 31
0.0
  0
SOLID
  5
16B
330
165
100
AcDbEntity
  8
1
 62
     2
100
AcDbTrace
 10
-22.71436767813959
 20
-96.18918859156351
 30
0.0
 11
-23.63593516125136
 21
-96.18918859156351
 31
0.0
 12
-23.17515141969547
 22
-92.68918859156351
 32
0.0
 13
-23.17515141969547
 23
-92.68918859156351
 33
0.0
  0
SOLID
  5
16C
330
165
100
AcDbEntity
  8
1
 62
     2
100
AcDbTrace
 10
-23.63593516125136
 20
-85.18918859156351
 30
0.0
 11
-22.71436767813958
 21
-85.18918859156351
 31
0.0
 12
-23.17515141969547
 22
-88.68918859156351
 32
0.0
 13
-23.17515141969547
 23
-88.68918859156351
 33
0.0
  0
MTEXT
  5
16D
330
165
100
AcDbEntity
  8
1
 62
     2
100
AcDbMText
 10
-25.17515141969547
 20
-101.1518849186211
 30
0.0
 40
3.5
 41
0.0
 71
     7
 72
     1
  1
X
  7
CONVERTER_11
 11
0.0
 21
1.0
 31
0.0
 73
     1
 44
0.60024009603842
  0
ENDBLK
  5
16F
330
165
100
AcDbEntity
  8
0
100
AcDbBlockEnd
  0
BLOCK
  5
179
330
172
100
AcDbEntity
  8
0
100
AcDbBlockBegin
  2
*D4
 70
     1
 71
     0
 10
0.0
 20
0.0
 30
0.0
  3
*D4
  1

  0
LINE
  5
173
330
172
100
AcDbEntity
  8
1
  6
Continuous
 62
     2
100
AcDbLine
 10
-78.35733264471742
 20
-130.2566310837739
 30
0.0
 11
-68.35733264471742
 21
-130.2566310837739
 31
0.0
  0
LINE
  5
174
330
172
100
AcDbEntity
  8
1
  6
Continuous
 62
     2
100
AcDbLine
 10
-68.35733264471742
 20
-120.614648528989
 30
0.0
 11
-68.35733264471742
 21
-132.2566310837739
 31
0.0
  0
LINE
  5
175
330
172
100
AcDbEntity
  8
1
  6
Continuous
 62
     2
100
AcDbLine
 10
-78.35733264471742
 20
-110.6146485289887
 30
0.0
 11
-78.35733264471742
 21
-132.2566310837739
 31
0.0
  0
SOLID
  5
176
330
172
100
AcDbEntity
  8
1
 62
     2
100
AcDbTrace
 10
-74.85733264471742
 20
-129.795847342218
 30
0.0
 11
-74.85733264471742
 21
-130.7174148253298
 31
0.0
 12
-78.35733264471742
 22
-130.2566310837739
 32
0.0
 13
-78.35733264471742
 23
-130.2566310837739
 33
0.0
  0
SOLID
  5
177
330
172
100
AcDbEntity
  8
1
 62
     2
100
AcDbTrace
 10
-71.85733264471742
 20
-130.7174148253298
 30
0.0
 11
-71.85733264471742
 21
-129.795847342218
 31
0.0
 12
-68.35733264471742
 22
-130.2566310837739
 32
0.0
 13
-68.35733264471742
 23
-130.2566310837739
 33
0.0
  0
MTEXT
  5
178
330
172
100
AcDbEntity
  8
1
 62
     2
100
AcDbMText
 10
-76.38969881964928
 20
-128.2566310837739
 30
0.0
 40
3.5
 41
0.0
 71
     7
 72
     1
  1
10
  7
CONVERTER_11
 11
0.9999999999970621
 21
2.424068405545307E-6
 31
0.0
 73
     1
 44
0.60024009603842
  0
ENDBLK
  5
17A
330
172
100
AcDbEntity
  8
0
100
AcDbBlockEnd
  0
BLOCK
  5
184
330
17D
100
AcDbEntity
  8
0
100
AcDbBlockBegin
  2
*D5
 70
     1
 71
     0
 10
0.0
 20
0.0
 30
0.0
  3
*D5
  1

  0
LINE
  5
17E
330
17D
100
AcDbEntity
  8
1
  6
Continuous
 62
     2
100
AcDbLine
 10
-46.78686100436367
 20
-92.68918859156351
 30
0.0
 11
-46.78686100436367
 21
-52.68918859156351
 31
0.0
  0
LINE
  5
17F
330
17D
100
AcDbEntity
  8
1
  6
Continuous
 62
     2
100
AcDbLine
 10
1.06329048739953
 20
-52.68918859156351
 30
0.0
 11
-48.78686100436367
 21
-52.68918859156351
 31
0.0
  0
LINE
  5
180
330
17D
100
AcDbEntity
  8
1
  6
Continuous
 62
     2
100
AcDbLine
 10
-41.66876032016923
 20
-92.68918859156351
 30
0.0
 11
-48.78686100436367
 21
-92.68918859156351
 31
0.0
  0
SOLID
  5
181
330
17D
100
AcDbEntity
  8
1
 62
     2
100
AcDbTrace
 10
-47.24764474591956
 20
-89.18918859156351
 30
0.0
 11
-46.32607726280779
 21
-89.18918859156351
 31
0.0
 12
-46.78686100436367
 22
-92.68918859156351
 32
0.0
 13
-46.78686100436367
 23
-92.68918859156351
 33
0.0
  0
SOLID
  5
182
330
17D
100
AcDbEntity
  8
1
 62
     2
100
AcDbTrace
 10
-46.32607726280779
 20
-56.18918859156351
 30
0.0
 11
-47.24764474591956
 21
-56.18918859156351
 31
0.0
 12
-46.78686100436367
 22
-52.68918859156351
 32
0.0
 13
-46.78686100436367
 23
-52.68918859156351
 33
0.0
  0
MTEXT
  5
183
330
17D
100
AcDbEntity
  8
1
 62
     2
100
AcDbMText
 10
-48.78686100436367
 20
-73.77015165379738
 30
0.0
 40
3.5
 41
0.0
 71
     7
 72
     1
  1
A
  7
CONVERTER_11
 11
0.0
 21
1.0
 31
0.0
 73
     1
 44
0.60024009603842
  0
ENDBLK
  5
185
330
17D
100
AcDbEntity
  8
0
100
AcDbBlockEnd
  0
BLOCK
  5
18F
330
188
100
AcDbEntity
  8
0
100
AcDbBlockBegin
  2
*D6
 70
     1
 71
     0
 10
0.0
 20
0.0
 30
0.0
  3
*D6
  1

  0
LINE
  5
189
330
188
100
AcDbEntity
  8
1
  6
Continuous
 62
     2
100
AcDbLine
 10
-119.444265640198
 20
69.3853514710111
 30
0.0
 11
-119.444265640198
 21
-110.6146485289887
 31
0.0
  0
LINE
  5
18A
330
188
100
AcDbEntity
  8
1
  6
Continuous
 62
     2
100
AcDbLine
 10
-180.91485230427
 20
69.38535147101109
 30
0.0
 11
-117.444265640198
 21
69.38535147101109
 31
0.0
  0
LINE
  5
18B
330
188
100
AcDbEntity
  8
1
  6
Continuous
 62
     2
100
AcDbLine
 10
-180.9148523042697
 20
-110.6146485289887
 30
0.0
 11
-117.444265640198
 21
-110.6146485289887
 31
0.0
  0
SOLID
  5
18C
330
188
100
AcDbEntity
  8
1
 62
     2
100
AcDbTrace
 10
-118.9834818986421
 20
65.8853514710111
 30
0.0
 11
-119.9050493817539
 21
65.8853514710111
 31
0.0
 12
-119.444265640198
 22
69.3853514710111
 32
0.0
 13
-119.444265640198
 23
69.3853514710111
 33
0.0
  0
SOLID
  5
18D
330
188
100
AcDbEntity
  8
1
 62
     2
100
AcDbTrace
 10
-119.9050493817539
 20
-107.1146485289887
 30
0.0
 11
-118.9834818986421
 21
-107.1146485289887
 31
0.0
 12
-119.444265640198
 22
-110.6146485289887
 32
0.0
 13
-119.444265640198
 23
-110.6146485289887
 33
0.0
  0
MTEXT
  5
18E
330
188
100
AcDbEntity
  8
1
 62
     2
100
AcDbMText
 10
-121.444265640198
 20
-24.45914290622809
 30
0.0
 40
3.5
 41
0.0
 71
     7
 72
     1
  1
240
  7
CONVERTER_11
 11
0.0
 21
1.0
 31
0.0
 73
     1
 44
0.60024009603842
  0
ENDBLK
  5
190
330
188
100
AcDbEntity
  8
0
100
AcDbBlockEnd
  0
BLOCK
  5
19A
330
193
100
AcDbEntity
  8
0
100
AcDbBlockBegin
  2
*D7
 70
     1
 71
     0
 10
0.0
 20
0.0
 30
0.0
  3
*D7
  1

  0
LINE
  5
194
330
193
100
AcDbEntity
  8
1
  6
Continuous
 62
     2
100
AcDbLine
 10
-146.307968487826
 20
-89.11464852898872
 30
0.0
 11
-146.307968487826
 21
47.88535147101111
 31
0.0
  0
LINE
  5
195
330
193
100
AcDbEntity
  8
1
  6
Continuous
 62
     2
100
AcDbLine
 10
-176.9148523042697
 20
-89.11464852898871
 30
0.0
 11
-144.307968487826
 21
-89.11464852898871
 31
0.0
  0
LINE
  5
196
330
193
100
AcDbEntity
  8
1
  6
Continuous
 62
     2
100
AcDbLine
 10
-176.91485230427
 20
47.88535147101111
 30
0.0
 11
-144.307968487826
 21
47.88535147101111
 31
0.0
  0
SOLID
  5
197
330
193
100
AcDbEntity
  8
1
 62
     2
100
AcDbTrace
 10
-146.7687522293819
 20
-85.61464852898872
 30
0.0
 11
-145.8471847462701
 21
-85.61464852898872
 31
0.0
 12
-146.307968487826
 22
-89.11464852898872
 32
0.0
 13
-146.307968487826
 23
-89.11464852898872
 33
0.0
  0
SOLID
  5
198
330
193
100
AcDbEntity
  8
1
 62
     2
100
AcDbTrace
 10
-145.8471847462701
 20
44.38535147101111
 30
0.0
 11
-146.7687522293819
 21
44.38535147101111
 31
0.0
 12
-146.307968487826
 22
47.88535147101111
 32
0.0
 13
-146.307968487826
 23
47.88535147101111
 33
0.0
  0
MTEXT
  5
199
330
193
100
AcDbEntity
  8
1
 62
     2
100
AcDbMText
 10
-148.307968487826
 20
-22.35376919362649
 30
0.0
 40
3.5
 41
0.0
 71
     7
 72
     1
  1
197
  7
CONVERTER_11
 11
0.0
 21
1.0
 31
0.0
 73
     1
 44
0.60024009603842
  0
ENDBLK
  5
19B
330
193
100
AcDbEntity
  8
0
100
AcDbBlockEnd
  0
BLOCK
  5
1A5
330
19E
100
AcDbEntity
  8
0
100
AcDbBlockBegin
  2
*D8
 70
     1
 71
     0
 10
0.0
 20
0.0
 30
0.0
  3
*D8
  1

  0
LINE
  5
19F
330
19E
100
AcDbEntity
  8
1
  6
Continuous
 62
     2
100
AcDbLine
 10
71.19350625828599
 20
-128.729476198668
 30
0.0
 11
61.19350625828599
 21
-128.729476198668
 31
0.0
  0
LINE
  5
1A0
330
19E
100
AcDbEntity
  8
1
  6
Continuous
 62
     2
100
AcDbLine
 10
61.19350625828599
 20
-120.614648528989
 30
0.0
 11
61.19350625828599
 21
-130.729476198668
 31
0.0
  0
LINE
  5
1A1
330
19E
100
AcDbEntity
  8
1
  6
Continuous
 62
     2
100
AcDbLine
 10
71.19350625828599
 20
-110.614648528989
 30
0.0
 11
71.19350625828599
 21
-130.729476198668
 31
0.0
  0
SOLID
  5
1A2
330
19E
100
AcDbEntity
  8
1
 62
     2
100
AcDbTrace
 10
67.69350625828599
 20
-129.1902599402239
 30
0.0
 11
67.69350625828599
 21
-128.2686924571121
 31
0.0
 12
71.19350625828599
 22
-128.729476198668
 32
0.0
 13
71.19350625828599
 23
-128.729476198668
 33
0.0
  0
SOLID
  5
1A3
330
19E
100
AcDbEntity
  8
1
 62
     2
100
AcDbTrace
 10
64.69350625828599
 20
-128.2686924571121
 30
0.0
 11
64.69350625828599
 21
-129.1902599402239
 31
0.0
 12
61.19350625828599
 22
-128.729476198668
 32
0.0
 13
61.19350625828599
 23
-128.729476198668
 33
0.0
  0
MTEXT
  5
1A4
330
19E
100
AcDbEntity
  8
1
 62
     2
100
AcDbMText
 10
64.5750179222762
 20
-126.729476198668
 30
0.0
 40
3.5
 41
0.0
 71
     7
 72
     1
  1
10
  7
CONVERTER_11
 11
0.9999999999970621
 21
2.424068405545307E-6
 31
0.0
 73
     1
 44
0.60024009603842
  0
ENDBLK
  5
1A6
330
19E
100
AcDbEntity
  8
0
100
AcDbBlockEnd
  0
BLOCK
  5
1B0
330
1A9
100
AcDbEntity
  8
0
100
AcDbBlockBegin
  2
*D9
 70
     1
 71
     0
 10
0.0
 20
0.0
 30
0.0
  3
*D9
  1

  0
LINE
  5
1AA
330
1A9
100
AcDbEntity
  8
1
  6
Continuous
 62
     2
100
AcDbLine
 10
61.19350625828591
 20
-138.6142090488623
 30
0.0
 11
97.69350625828591
 21
-138.6142090488623
 31
0.0
  0
LINE
  5
1AB
330
1A9
100
AcDbEntity
  8
1
  6
Continuous
 62
     2
100
AcDbLine
 10
97.69350625828591
 20
-89.11464852898894
 30
0.0
 11
97.69350625828591
 21
-140.6142090488623
 31
0.0
  0
LINE
  5
1AC
330
1A9
100
AcDbEntity
  8
1
  6
Continuous
 62
     2
100
AcDbLine
 10
61.19350625828591
 20
-110.614648528989
 30
0.0
 11
61.19350625828591
 21
-140.6142090488623
 31
0.0
  0
SOLID
  5
1AD
330
1A9
100
AcDbEntity
  8
1
 62
     2
100
AcDbTrace
 10
64.69350625828591
 20
-138.1534253073064
 30
0.0
 11
64.69350625828591
 21
-139.0749927904182
 31
0.0
 12
61.19350625828591
 22
-138.6142090488623
 32
0.0
 13
61.19350625828591
 23
-138.6142090488623
 33
0.0
  0
SOLID
  5
1AE
330
1A9
100
AcDbEntity
  8
1
 62
     2
100
AcDbTrace
 10
94.19350625828591
 20
-139.0749927904182
 30
0.0
 11
94.19350625828591
 21
-138.1534253073064
 31
0.0
 12
97.69350625828591
 22
-138.6142090488623
 32
0.0
 13
97.69350625828591
 23
-138.6142090488623
 33
0.0
  0
MTEXT
  5
1AF
330
1A9
100
AcDbEntity
  8
1
 62
     2
100
AcDbMText
 10
74.73222618495761
 20
-136.6142090488623
 30
0.0
 40
3.5
 41
0.0
 71
     7
 72
     1
  1
36.5
  7
CONVERTER_11
 11
0.9999999999970621
 21
2.424068405545307E-6
 31
0.0
 73
     1
 44
0.60024009603842
  0
ENDBLK
  5
1B1
330
1A9
100
AcDbEntity
  8
0
100
AcDbBlockEnd
  0
BLOCK
  5
1BB
330
1B4
100
AcDbEntity
  8
0
100
AcDbBlockBegin
  2
*D10
 70
     1
 71
     0
 10
0.0
 20
0.0
 30
0.0
  3
*D10
  1

  0
LINE
  5
1B5
330
1B4
100
AcDbEntity
  8
1
  6
Continuous
 62
     2
100
AcDbLine
 10
129.993207257249
 20
47.88535147101105
 30
0.0
 11
129.993207257249
 21
-89.11464852898895
 31
0.0
  0
LINE
  5
1B6
330
1B4
100
AcDbEntity
  8
1
  6
Continuous
 62
     2
100
AcDbLine
 10
150.9068397520139
 20
47.88535147101105
 30
0.0
 11
127.993207257249
 21
47.88535147101105
 31
0.0
  0
LINE
  5
1B7
330
1B4
100
AcDbEntity
  8
1
  6
Continuous
 62
     2
100
AcDbLine
 10
150.9068397520139
 20
-89.11464852898895
 30
0.0
 11
127.993207257249
 21
-89.11464852898895
 31
0.0
  0
SOLID
  5
1B8
330
1B4
100
AcDbEntity
  8
1
 62
     2
100
AcDbTrace
 10
130.4539909988049
 20
44.38535147101105
 30
0.0
 11
129.5324235156931
 21
44.38535147101105
 31
0.0
 12
129.993207257249
 22
47.88535147101105
 32
0.0
 13
129.993207257249
 23
47.88535147101105
 33
0.0
  0
SOLID
  5
1B9
330
1B4
100
AcDbEntity
  8
1
 62
     2
100
AcDbTrace
 10
129.5324235156931
 20
-85.61464852898895
 30
0.0
 11
130.4539909988049
 21
-85.61464852898895
 31
0.0
 12
129.993207257249
 22
-89.11464852898895
 32
0.0
 13
129.993207257249
 23
-89.11464852898895
 33
0.0
  0
MTEXT
  5
1BA
330
1B4
100
AcDbEntity
  8
1
 62
     2
100
AcDbMText
 10
127.993207257249
 20
-20.21032038282324
 30
0.0
 40
3.5
 41
0.0
 71
     7
 72
     1
  1
197
  7
CONVERTER_11
 11
0.0
 21
1.0
 31
0.0
 73
     1
 44
0.60024009603842
  0
ENDBLK
  5
1BC
330
1B4
100
AcDbEntity
  8
0
100
AcDbBlockEnd
  0
BLOCK
  5
1C6
330
1BF
100
AcDbEntity
  8
0
100
AcDbBlockBegin
  2
*D11
 70
     1
 71
     0
 10
0.0
 20
0.0
 30
0.0
  3
*D11
  1

  0
LINE
  5
1C0
330
1BF
100
AcDbEntity
  8
1
  6
Continuous
 62
     2
100
AcDbLine
 10
170.9068397520139
 20
-128.729476198668
 30
0.0
 11
138.9068397520139
 21
-128.729476198668
 31
0.0
  0
LINE
  5
1C1
330
1BF
100
AcDbEntity
  8
1
  6
Continuous
 62
     2
100
AcDbLine
 10
138.9068397520139
 20
-94.61464852898892
 30
0.0
 11
138.9068397520139
 21
-130.729476198668
 31
0.0
  0
LINE
  5
1C2
330
1BF
100
AcDbEntity
  8
1
  6
Continuous
 62
     2
100
AcDbLine
 10
170.9068397520139
 20
-94.61464852898892
 30
0.0
 11
170.9068397520139
 21
-130.729476198668
 31
0.0
  0
SOLID
  5
1C3
330
1BF
100
AcDbEntity
  8
1
 62
     2
100
AcDbTrace
 10
167.4068397520139
 20
-129.1902599402239
 30
0.0
 11
167.4068397520139
 21
-128.2686924571121
 31
0.0
 12
170.9068397520139
 22
-128.729476198668
 32
0.0
 13
170.9068397520139
 23
-128.729476198668
 33
0.0
  0
SOLID
  5
1C4
330
1BF
100
AcDbEntity
  8
1
 62
     2
100
AcDbTrace
 10
142.4068397520139
 20
-128.2686924571121
 30
0.0
 11
142.4068397520139
 21
-129.1902599402239
 31
0.0
 12
138.9068397520139
 22
-128.729476198668
 32
0.0
 13
138.9068397520139
 23
-128.729476198668
 33
0.0
  0
MTEXT
  5
1C5
330
1BF
100
AcDbEntity
  8
1
 62
     2
100
AcDbMText
 10
153.350158986821
 20
-126.729476198668
 30
0.0
 40
3.5
 41
0.0
 71
     7
 72
     1
  1
32
  7
CONVERTER_11
 11
0.9999999999970621
 21
2.424068405545307E-6
 31
0.0
 73
     1
 44
0.60024009603842
  0
ENDBLK
  5
1C7
330
1BF
100
AcDbEntity
  8
0
100
AcDbBlockEnd
  0
BLOCK
  5
1D1
330
1CA
100
AcDbEntity
  8
0
100
AcDbBlockBegin
  2
*D12
 70
     1
 71
     0
 10
0.0
 20
0.0
 30
0.0
  3
*D12
  1

  0
LINE
  5
1CB
330
1CA
100
AcDbEntity
  8
1
  6
Continuous
 62
     2
100
AcDbLine
 10
55.73157899085594
 20
-92.68918859156351
 30
0.0
 11
55.73157899085594
 21
-52.68918859156351
 31
0.0
  0
LINE
  5
1CC
330
1CA
100
AcDbEntity
  8
1
  6
Continuous
 62
     2
100
AcDbLine
 10
46.83123967983067
 20
-52.68918859156351
 30
0.0
 11
57.73157899085594
 21
-52.68918859156351
 31
0.0
  0
LINE
  5
1CD
330
1CA
100
AcDbEntity
  8
1
  6
Continuous
 62
     2
100
AcDbLine
 10
46.83123967983067
 20
-92.68918859156351
 30
0.0
 11
57.73157899085594
 21
-92.68918859156351
 31
0.0
  0
SOLID
  5
1CE
330
1CA
100
AcDbEntity
  8
1
 62
     2
100
AcDbTrace
 10
55.27079524930005
 20
-89.18918859156351
 30
0.0
 11
56.19236273241182
 21
-89.18918859156351
 31
0.0
 12
55.73157899085594
 22
-92.68918859156351
 32
0.0
 13
55.73157899085594
 23
-92.68918859156351
 33
0.0
  0
SOLID
  5
1CF
330
1CA
100
AcDbEntity
  8
1
 62
     2
100
AcDbTrace
 10
56.19236273241182
 20
-56.18918859156351
 30
0.0
 11
55.27079524930005
 21
-56.18918859156351
 31
0.0
 12
55.73157899085594
 22
-52.68918859156351
 32
0.0
 13
55.73157899085594
 23
-52.68918859156351
 33
0.0
  0
MTEXT
  5
1D0
330
1CA
100
AcDbEntity
  8
1
 62
     2
100
AcDbMText
 10
53.73157899085594
 20
-72.9105098904355
 30
0.0
 40
3.5
 41
0.0
 71
     7
 72
     1
  1
B
  7
CONVERTER_11
 11
0.0
 21
1.0
 31
0.0
 73
     1
 44
0.60024009603842
  0
ENDBLK
  5
1D2
330
1CA
100
AcDbEntity
  8
0
100
AcDbBlockEnd
  0
BLOCK
  5
1DE
330
1D5
100
AcDbEntity
  8
0
100
AcDbBlockBegin
  2
*D13
 70
     1
 71
     0
 10
0.0
 20
0.0
 30
0.0
  3
*D13
  1

  0
LINE
  5
1D6
330
1D5
100
AcDbEntity
  8
1
  6
Continuous
 62
     2
100
AcDbLine
 10
30.21081070804353
 20
-101.226156920623
 30
0.0
 11
30.21081070804353
 21
-92.68918859156351
 31
0.0
  0
LINE
  5
1D7
330
1D5
100
AcDbEntity
  8
1
  6
Continuous
 62
     2
100
AcDbLine
 10
30.21081070804353
 20
-92.68918859156351
 30
0.0
 11
30.21081070804353
 21
-88.68918859156351
 31
0.0
  0
LINE
  5
1D8
330
1D5
100
AcDbEntity
  8
1
  6
Continuous
 62
     2
100
AcDbLine
 10
30.21081070804353
 20
-88.68918859156351
 30
0.0
 11
30.21081070804353
 21
-81.68918859156351
 31
0.0
  0
LINE
  5
1D9
330
1D5
100
AcDbEntity
  8
1
  6
Continuous
 62
     2
100
AcDbLine
 10
39.33123967983047
 20
-88.68918859156351
 30
0.0
 11
28.21081070804353
 21
-88.68918859156351
 31
0.0
  0
LINE
  5
1DA
330
1D5
100
AcDbEntity
  8
1
  6
Continuous
 62
     2
100
AcDbLine
 10
46.83123967983067
 20
-92.68918859156351
 30
0.0
 11
28.21081070804353
 21
-92.68918859156351
 31
0.0
  0
SOLID
  5
1DB
330
1D5
100
AcDbEntity
  8
1
 62
     2
100
AcDbTrace
 10
30.67159444959941
 20
-96.18918859156351
 30
0.0
 11
29.75002696648765
 21
-96.18918859156351
 31
0.0
 12
30.21081070804353
 22
-92.68918859156351
 32
0.0
 13
30.21081070804353
 23
-92.68918859156351
 33
0.0
  0
SOLID
  5
1DC
330
1D5
100
AcDbEntity
  8
1
 62
     2
100
AcDbTrace
 10
29.75002696648765
 20
-85.18918859156351
 30
0.0
 11
30.67159444959942
 21
-85.18918859156351
 31
0.0
 12
30.21081070804353
 22
-88.68918859156351
 32
0.0
 13
30.21081070804353
 23
-88.68918859156351
 33
0.0
  0
MTEXT
  5
1DD
330
1D5
100
AcDbEntity
  8
1
 62
     2
100
AcDbMText
 10
28.4118579323537
 20
-101.226156920623
 30
0.0
 40
3.5
 41
0.0
 71
     7
 72
     1
  1
4
  7
CONVERTER_11
 11
0.0
 21
1.0
 31
0.0
 73
     1
 44
0.60024009603842
  0
ENDBLK
  5
1DF
330
1D5
100
AcDbEntity
  8
0
100
AcDbBlockEnd
  0
BLOCK
  5
1E9
330
1E2
100
AcDbEntity
  8
0
100
AcDbBlockBegin
  2
*D14
 70
     1
 71
     0
 10
0.0
 20
0.0
 30
0.0
  3
*D14
  1

  0
LINE
  5
1E3
330
1E2
100
AcDbEntity
  8
1
  6
Continuous
 62
     2
100
AcDbLine
 10
164.4068397520139
 20
34.5451568829076
 30
0.0
 11
145.4068397520139
 21
34.5451568829076
 31
0.0
  0
LINE
  5
1E4
330
1E2
100
AcDbEntity
  8
1
  6
Continuous
 62
     2
100
AcDbLine
 10
145.4068397520139
 20
52.13535147101105
 30
0.0
 11
145.4068397520139
 21
32.5451568829076
 31
0.0
  0
LINE
  5
1E5
330
1E2
100
AcDbEntity
  8
1
  6
Continuous
 62
     2
100
AcDbLine
 10
164.4068397520139
 20
52.13535147101105
 30
0.0
 11
164.4068397520139
 21
32.5451568829076
 31
0.0
  0
SOLID
  5
1E6
330
1E2
100
AcDbEntity
  8
1
 62
     2
100
AcDbTrace
 10
160.9068397520139
 20
34.08437314135171
 30
0.0
 11
160.9068397520139
 21
35.00594062446348
 31
0.0
 12
164.4068397520139
 22
34.5451568829076
 32
0.0
 13
164.4068397520139
 23
34.5451568829076
 33
0.0
  0
SOLID
  5
1E7
330
1E2
100
AcDbEntity
  8
1
 62
     2
100
AcDbTrace
 10
148.9068397520139
 20
35.00594062446348
 30
0.0
 11
148.9068397520139
 21
34.08437314135171
 31
0.0
 12
145.4068397520139
 22
34.5451568829076
 32
0.0
 13
145.4068397520139
 23
34.5451568829076
 33
0.0
  0
MTEXT
  5
1E8
330
1E2
100
AcDbEntity
  8
1
 62
     2
100
AcDbMText
 10
157.6219844055655
 20
36.5451568829076
 30
0.0
 40
3.5
 41
0.0
 71
     7
 72
     1
  1
19
  7
CONVERTER_11
 11
0.9999999999970621
 21
2.424068405545307E-6
 31
0.0
 73
     1
 44
0.60024009603842
  0
ENDBLK
  5
1EA
330
1E2
100
AcDbEntity
  8
0
100
AcDbBlockEnd
  0
BLOCK
  5
1F4
330
1ED
100
AcDbEntity
  8
0
100
AcDbBlockBegin
  2
*D15
 70
     1
 71
     0
 10
0.0
 20
0.0
 30
0.0
  3
*D15
  1

  0
LINE
  5
1EE
330
1ED
100
AcDbEntity
  8
1
  6
Continuous
 62
     2
100
AcDbLine
 10
-189.9148523042701
 20
35.9351702982229
 30
0.0
 11
-171.9148523042701
 21
35.9351702982229
 31
0.0
  0
LINE
  5
1EF
330
1ED
100
AcDbEntity
  8
1
  6
Continuous
 62
     2
100
AcDbLine
 10
-171.9148523042701
 20
52.13535147101111
 30
0.0
 11
-171.9148523042701
 21
33.9351702982229
 31
0.0
  0
LINE
  5
1F0
330
1ED
100
AcDbEntity
  8
1
  6
Continuous
 62
     2
100
AcDbLine
 10
-189.9148523042701
 20
52.13535147101111
 30
0.0
 11
-189.9148523042701
 21
33.9351702982229
 31
0.0
  0
SOLID
  5
1F1
330
1ED
100
AcDbEntity
  8
1
 62
     2
100
AcDbTrace
 10
-186.4148523042701
 20
36.39595403977879
 30
0.0
 11
-186.4148523042701
 21
35.47438655666701
 31
0.0
 12
-189.9148523042701
 22
35.9351702982229
 32
0.0
 13
-189.9148523042701
 23
35.9351702982229
 33
0.0
  0
SOLID
  5
1F2
330
1ED
100
AcDbEntity
  8
1
 62
     2
100
AcDbTrace
 10
-175.4148523042701
 20
35.47438655666701
 30
0.0
 11
-175.4148523042701
 21
36.39595403977879
 31
0.0
 12
-171.9148523042701
 22
35.9351702982229
 32
0.0
 13
-171.9148523042701
 23
35.9351702982229
 33
0.0
  0
MTEXT
  5
1F3
330
1ED
100
AcDbEntity
  8
1
 62
     2
100
AcDbMText
 10
-186.691433398381
 20
37.9351702982229
 30
0.0
 40
3.5
 41
0.0
 71
     7
 72
     1
  1
18
  7
CONVERTER_11
 11
0.9999999999970621
 21
2.424068405545307E-6
 31
0.0
 73
     1
 44
0.60024009603842
  0
ENDBLK
  5
1F5
330
1ED
100
AcDbEntity
  8
0
100
AcDbBlockEnd
  0
BLOCK
  5
201
330
1F8
100
AcDbEntity
  8
0
100
AcDbBlockBegin
  2
*D16
 70
     1
 71
     0
 10
0.0
 20
0.0
 30
0.0
  3
*D16
  1

  0
LINE
  5
1F9
330
1F8
100
AcDbEntity
  8
1
  6
Continuous
 62
     2
100
AcDbLine
 10
181.9068397520139
 20
-128.729476198668
 30
0.0
 11
174.9068397520139
 21
-128.729476198668
 31
0.0
  0
LINE
  5
1FA
330
1F8
100
AcDbEntity
  8
1
  6
Continuous
 62
     2
100
AcDbLine
 10
174.9068397520139
 20
-128.729476198668
 30
0.0
 11
170.9068397520139
 21
-128.729476198668
 31
0.0
  0
LINE
  5
1FB
330
1F8
100
AcDbEntity
  8
1
  6
Continuous
 62
     2
100
AcDbLine
 10
170.9068397520139
 20
-128.729476198668
 30
0.0
 11
163.9068397520139
 21
-128.729476198668
 31
0.0
  0
LINE
  5
1FC
330
1F8
100
AcDbEntity
  8
1
  6
Continuous
 62
     2
100
AcDbLine
 10
170.9068397520139
 20
-94.61464852898894
 30
0.0
 11
170.9068397520139
 21
-130.729476198668
 31
0.0
  0
LINE
  5
1FD
330
1F8
100
AcDbEntity
  8
1
  6
Continuous
 62
     2
100
AcDbLine
 10
174.9068397520139
 20
-120.614648528989
 30
0.0
 11
174.9068397520139
 21
-130.729476198668
 31
0.0
  0
SOLID
  5
1FE
330
1F8
100
AcDbEntity
  8
1
 62
     2
100
AcDbTrace
 10
178.4068397520139
 20
-128.2686924571121
 30
0.0
 11
178.4068397520139
 21
-129.1902599402239
 31
0.0
 12
174.9068397520139
 22
-128.729476198668
 32
0.0
 13
174.9068397520139
 23
-128.729476198668
 33
0.0
  0
SOLID
  5
1FF
330
1F8
100
AcDbEntity
  8
1
 62
     2
100
AcDbTrace
 10
167.4068397520139
 20
-129.1902599402239
 30
0.0
 11
167.4068397520139
 21
-128.2686924571121
 31
0.0
 12
170.9068397520139
 22
-128.729476198668
 32
0.0
 13
170.9068397520139
 23
-128.729476198668
 33
0.0
  0
MTEXT
  5
200
330
1F8
100
AcDbEntity
  8
1
 62
     2
100
AcDbMText
 10
171.584183242026
 20
-126.729476198668
 30
0.0
 40
3.5
 41
0.0
 71
     7
 72
     1
  1
4
  7
CONVERTER_11
 11
0.9999999999970621
 21
2.424068405545307E-6
 31
0.0
 73
     1
 44
0.60024009603842
  0
ENDBLK
  5
202
330
1F8
100
AcDbEntity
  8
0
100
AcDbBlockEnd
  0
BLOCK
  5
20C
330
205
100
AcDbEntity
  8
0
100
AcDbBlockBegin
  2
*D17
 70
     1
 71
     0
 10
0.0
 20
0.0
 30
0.0
  3
*D17
  1

  0
LINE
  5
206
330
205
100
AcDbEntity
  8
1
  6
Continuous
 62
     2
100
AcDbLine
 10
122.759403130789
 20
54.38535147101105
 30
0.0
 11
122.759403130789
 21
-95.61464852898895
 31
0.0
  0
LINE
  5
207
330
205
100
AcDbEntity
  8
1
  6
Continuous
 62
     2
100
AcDbLine
 10
143.1568397520139
 20
54.38535147101105
 30
0.0
 11
120.759403130789
 21
54.38535147101105
 31
0.0
  0
LINE
  5
208
330
205
100
AcDbEntity
  8
1
  6
Continuous
 62
     2
100
AcDbLine
 10
143.1568397520139
 20
-95.61464852898895
 30
0.0
 11
120.759403130789
 21
-95.61464852898895
 31
0.0
  0
SOLID
  5
209
330
205
100
AcDbEntity
  8
1
 62
     2
100
AcDbTrace
 10
123.2201868723449
 20
50.88535147101105
 30
0.0
 11
122.2986193892331
 21
50.88535147101105
 31
0.0
 12
122.759403130789
 22
54.38535147101105
 32
0.0
 13
122.759403130789
 23
54.38535147101105
 33
0.0
  0
SOLID
  5
20A
330
205
100
AcDbEntity
  8
1
 62
     2
100
AcDbTrace
 10
122.2986193892331
 20
-92.11464852898895
 30
0.0
 11
123.2201868723449
 21
-92.11464852898895
 31
0.0
 12
122.759403130789
 22
-95.61464852898895
 32
0.0
 13
122.759403130789
 23
-95.61464852898895
 33
0.0
  0
MTEXT
  5
20B
330
205
100
AcDbEntity
  8
1
 62
     2
100
AcDbMText
 10
120.759403130789
 20
-20.6827646540469
 30
0.0
 40
3.5
 41
0.0
 71
     7
 72
     1
  1
210
  7
CONVERTER_11
 11
0.0
 21
1.0
 31
0.0
 73
     1
 44
0.60024009603842
  0
ENDBLK
  5
20D
330
205
100
AcDbEntity
  8
0
100
AcDbBlockEnd
  0
BLOCK
  5
219
330
210
100
AcDbEntity
  8
0
100
AcDbBlockBegin
  2
*D18
 70
     1
 71
     0
 10
0.0
 20
0.0
 30
0.0
  3
*D18
  1

  0
LINE
  5
211
330
210
100
AcDbEntity
  8
1
  6
Continuous
 62
     2
100
AcDbLine
 10
-196.91485230427
 20
-130.2566310837739
 30
0.0
 11
-189.91485230427
 21
-130.2566310837739
 31
0.0
  0
LINE
  5
212
330
210
100
AcDbEntity
  8
1
  6
Continuous
 62
     2
100
AcDbLine
 10
-200.91485230427
 20
-130.2566310837739
 30
0.0
 11
-196.91485230427
 21
-130.2566310837739
 31
0.0
  0
LINE
  5
213
330
210
100
AcDbEntity
  8
1
  6
Continuous
 62
     2
100
AcDbLine
 10
-207.91485230427
 20
-130.2566310837739
 30
0.0
 11
-200.91485230427
 21
-130.2566310837739
 31
0.0
  0
LINE
  5
214
330
210
100
AcDbEntity
  8
1
  6
Continuous
 62
     2
100
AcDbLine
 10
-200.91485230427
 20
-120.614648528989
 30
0.0
 11
-200.91485230427
 21
-132.2566310837739
 31
0.0
  0
LINE
  5
215
330
210
100
AcDbEntity
  8
1
  6
Continuous
 62
     2
100
AcDbLine
 10
-196.91485230427
 20
-94.61464852898895
 30
0.0
 11
-196.91485230427
 21
-132.2566310837739
 31
0.0
  0
SOLID
  5
216
330
210
100
AcDbEntity
  8
1
 62
     2
100
AcDbTrace
 10
-204.41485230427
 20
-130.7174148253298
 30
0.0
 11
-204.41485230427
 21
-129.795847342218
 31
0.0
 12
-200.91485230427
 22
-130.2566310837739
 32
0.0
 13
-200.91485230427
 23
-130.2566310837739
 33
0.0
  0
SOLID
  5
217
330
210
100
AcDbEntity
  8
1
 62
     2
100
AcDbTrace
 10
-193.41485230427
 20
-129.795847342218
 30
0.0
 11
-193.41485230427
 21
-130.7174148253298
 31
0.0
 12
-196.91485230427
 22
-130.2566310837739
 32
0.0
 13
-196.91485230427
 23
-130.2566310837739
 33
0.0
  0
MTEXT
  5
218
330
210
100
AcDbEntity
  8
1
 62
     2
100
AcDbMText
 10
-205.001615557664
 20
-128.2566310837739
 30
0.0
 40
3.5
 41
0.0
 71
     7
 72
     1
  1
X
  7
CONVERTER_11
 11
0.9999999999970621
 21
2.424068405545307E-6
 31
0.0
 73
     1
 44
0.60024009603842
  0
ENDBLK
  5
21A
330
210
100
AcDbEntity
  8
0
100
AcDbBlockEnd
  0
BLOCK
  5
224
330
21D
100
AcDbEntity
  8
0
100
AcDbBlockBegin
  2
*D19
 70
     1
 71
     0
 10
0.0
 20
0.0
 30
0.0
  3
*D19
  1

  0
LINE
  5
21E
330
21D
100
AcDbEntity
  8
1
  6
Continuous
 62
     2
100
AcDbLine
 10
-196.91485230427
 20
-130.2566310837739
 30
0.0
 11
-164.91485230427
 21
-130.2566310837739
 31
0.0
  0
LINE
  5
21F
330
21D
100
AcDbEntity
  8
1
  6
Continuous
 62
     2
100
AcDbLine
 10
-196.91485230427
 20
-94.61464852898897
 30
0.0
 11
-196.91485230427
 21
-132.2566310837739
 31
0.0
  0
LINE
  5
220
330
21D
100
AcDbEntity
  8
1
  6
Continuous
 62
     2
100
AcDbLine
 10
-164.91485230427
 20
-94.61464852898897
 30
0.0
 11
-164.91485230427
 21
-132.2566310837739
 31
0.0
  0
SOLID
  5
221
330
21D
100
AcDbEntity
  8
1
 62
     2
100
AcDbTrace
 10
-193.41485230427
 20
-129.795847342218
 30
0.0
 11
-193.41485230427
 21
-130.7174148253298
 31
0.0
 12
-196.91485230427
 22
-130.2566310837739
 32
0.0
 13
-196.91485230427
 23
-130.2566310837739
 33
0.0
  0
SOLID
  5
222
330
21D
100
AcDbEntity
  8
1
 62
     2
100
AcDbTrace
 10
-168.41485230427
 20
-130.7174148253298
 30
0.0
 11
-168.41485230427
 21
-129.795847342218
 31
0.0
 12
-164.91485230427
 22
-130.2566310837739
 32
0.0
 13
-164.91485230427
 23
-130.2566310837739
 33
0.0
  0
MTEXT
  5
223
330
21D
100
AcDbEntity
  8
1
 62
     2
100
AcDbMText
 10
-184.077925376808
 20
-128.2566310837739
 30
0.0
 40
3.5
 41
0.0
 71
     7
 72
     1
  1
32
  7
CONVERTER_11
 11
0.9999999999970621
 21
2.424068405545307E-6
 31
0.0
 73
     1
 44
0.60024009603842
  0
ENDBLK
  5
225
330
21D
100
AcDbEntity
  8
0
100
AcDbBlockEnd
  0
BLOCK
  5
22C
330
228
100
AcDbEntity
  8
0
100
AcDbBlockBegin
  2
*D20
 70
     1
 71
     0
 10
0.0
 20
0.0
 30
0.0
  3
*D20
  1

  0
LINE
  5
229
330
228
100
AcDbEntity
  8
1
  6
Continuous
 62
     2
100
AcDbLine
 10
-183.9551441909072
 20
-76.16872377440583
 30
0.0
 11
-193.4612837926053
 21
-85.5383358935097
 31
0.0
  0
SOLID
  5
22A
330
228
100
AcDbEntity
  8
1
 62
     2
100
AcDbTrace
 10
-191.2920327903009
 20
-82.75325568901225
 30
0.0
 11
-190.6451164267141
 21
-83.40959846870328
 31
0.0
 12
-193.4612837926053
 22
-85.5383358935097
 32
0.0
 13
-193.4612837926053
 23
-85.5383358935097
 33
0.0
  0
MTEXT
  5
22B
330
228
100
AcDbEntity
  8
1
 62
     2
100
AcDbMText
 10
-190.3087324161282
 20
-79.7941543259575
 30
0.0
 40
3.5
 41
0.0
 71
     7
 72
     1
  1
\C2;R\C2;12
  7
CONVERTER_11
 11
0.7122026240279425
 21
0.7019739470434164
 31
0.0
 73
     1
 44
0.60024009603842
  0
ENDBLK
  5
22D
330
228
100
AcDbEntity
  8
0
100
AcDbBlockEnd
  0
BLOCK
  5
231
330
22F
100
AcDbEntity
  8
0
100
AcDbBlockBegin
  2
*D21
 70
     1
 71
     0
 10
0.0
 20
0.0
 30
0.0
  3
*D21
  1

  0
MTEXT
  5
230
330
22F
100
AcDbEntity
  8
1
 62
     2
100
AcDbMText
 10
142.8892612696771
 20
-76.07318396269612
 30
0.0
 40
3.5
 41
0.0
 71
     7
 72
     1
  1
\C2;R\C2;12
  7
CONVERTER_11
 11
0.7868902929623506
 21
-0.6170929158900031
 31
0.0
 73
     1
 44
0.60024009603842
  0
ENDBLK
  5
232
330
22F
100
AcDbEntity
  8
0
100
AcDbBlockEnd
  0
BLOCK
  5
23A
330
234
100
AcDbEntity
  8
0
100
AcDbBlockBegin
  2
*D22
 70
     1
 71
     0
 10
0.0
 20
0.0
 30
0.0
  3
*D22
  1

  0
LINE
  5
235
330
234
100
AcDbEntity
  8
1
  6
Continuous
 62
     2
100
AcDbLine
 10
-191.0949073162776
 20
53.45935461970119
 30
0.0
 11
-195.225099858304
 21
50.21836564011648
 31
0.0
  0
LINE
  5
236
330
234
100
AcDbEntity
  8
1
  6
Continuous
 62
     2
100
AcDbLine
 10
-181.4946682599004
 20
60.99272471479898
 30
0.0
 11
-188.7347972922626
 21
55.31134832232103
 31
0.0
  0
SOLID
  5
237
330
234
100
AcDbEntity
  8
1
 62
     2
100
AcDbTrace
 10
-186.2657917934554
 20
57.8345077511606
 30
0.0
 11
-185.6968794017013
 21
57.10950753292779
 31
0.0
 12
-188.7347972922626
 22
55.31134832232103
 32
0.0
 13
-188.7347972922626
 23
55.31134832232103
 33
0.0
  0
SOLID
  5
238
330
234
100
AcDbEntity
  8
1
 62
     2
100
AcDbTrace
 10
-193.5639128150848
 20
50.93619519086162
 30
0.0
 11
-194.1328252068389
 21
51.66119540909443
 31
0.0
 12
-191.0949073162776
 22
53.45935461970119
 32
0.0
 13
-191.0949073162776
 23
53.45935461970119
 33
0.0
  0
MTEXT
  5
239
330
234
100
AcDbEntity
  8
1
 62
     2
100
AcDbMText
 10
-186.6392463347652
 20
59.49799516346884
 30
0.0
 40
3.5
 41
0.0
 71
     7
 72
     1
  1
\C2;ø\C2;3
  7
CONVERTER_11
 11
0.7867033413383618
 21
0.6173312342066107
 31
0.0
 73
     1
 44
0.60024009603842
  0
ENDBLK
  5
23B
330
234
100
AcDbEntity
  8
0
100
AcDbBlockEnd
  0
BLOCK
  5
242
330
23D
100
AcDbEntity
  8
0
100
AcDbBlockBegin
  2
*D23
 70
     1
 71
     0
 10
0.0
 20
0.0
 30
0.0
  3
*D23
  1

  0
LINE
  5
23E
330
23D
100
AcDbEntity
  8
1
  6
Continuous
 62
     2
100
AcDbLine
 10
-184.2076160542985
 20
-85.08492676567022
 30
0.0
 11
-135.288685012501
 21
-149.0090874496755
 31
0.0
  0
SOLID
  5
23F
330
23D
100
AcDbEntity
  8
1
 62
     2
100
AcDbTrace
 10
-172.115073052174
 20
-101.6449003585916
 30
0.0
 11
-171.3832162438259
 21
-101.084835864088
 31
0.0
 12
-169.6220885542416
 22
-104.1443702923077
 32
0.0
 13
-169.6220885542416
 23
-104.1443702923077
 33
0.0
  0
SOLID
  5
240
330
23D
100
AcDbEntity
  8
1
 62
     2
100
AcDbTrace
 10
-181.7146315563661
 20
-87.58439669938639
 30
0.0
 11
-182.4464883647142
 21
-88.14446119388994
 31
0.0
 12
-184.2076160542985
 22
-85.08492676567022
 32
0.0
 13
-184.2076160542985
 23
-85.08492676567022
 33
0.0
  0
MTEXT
  5
241
330
23D
100
AcDbEntity
  8
1
 62
     2
100
AcDbMText
 10
-150.8444701676397
 20
-125.3908392460689
 30
0.0
 40
3.5
 41
0.0
 71
     7
 72
     1
  1
\C2;Fräser ø\C2;24
  7
CONVERTER_11
 11
0.6077303125023704
 21
-0.7941434802765627
 31
0.0
 73
     1
 44
0.60024009603842
  0
ENDBLK
  5
243
330
23D
100
AcDbEntity
  8
0
100
AcDbBlockEnd
  0
BLOCK
  5
24A
330
245
100
AcDbEntity
  8
0
100
AcDbBlockBegin
  2
*D24
 70
     1
 71
     0
 10
0.0
 20
0.0
 30
0.0
  3
*D24
  1

  0
LINE
  5
246
330
245
100
AcDbEntity
  8
1
  6
Continuous
 62
     2
100
AcDbLine
 10
159.6077959995633
 20
-86.35066883526801
 30
0.0
 11
105.8825286556255
 21
-137.3777635290357
 31
0.0
  0
SOLID
  5
247
330
245
100
AcDbEntity
  8
1
 62
     2
100
AcDbTrace
 10
144.4263367863819
 20
-100.134195880803
 30
0.0
 11
145.0609880336177
 21
-100.8024057432796
 31
0.0
 12
142.2058835044646
 22
-102.8786282227099
 32
0.0
 13
142.2058835044646
 23
-102.8786282227099
 33
0.0
  0
SOLID
  5
248
330
245
100
AcDbEntity
  8
1
 62
     2
100
AcDbTrace
 10
157.3873427176459
 20
-89.09510117717494
 30
0.0
 11
156.7526914704102
 21
-88.4268913146983
 31
0.0
 12
159.6077959995633
 22
-86.35066883526801
 32
0.0
 13
159.6077959995633
 23
-86.35066883526801
 33
0.0
  0
MTEXT
  5
249
330
245
100
AcDbEntity
  8
1
 62
     2
100
AcDbMText
 10
105.6218214251075
 20
-134.86706009375
 30
0.0
 40
3.5
 41
0.0
 71
     7
 72
     1
  1
\C2;Fräser ø\C2;24
  7
CONVERTER_11
 11
0.7250796872957789
 21
0.6886649744767448
 31
0.0
 73
     1
 44
0.60024009603842
  0
ENDBLK
  5
24B
330
245
100
AcDbEntity
  8
0
100
AcDbBlockEnd
  0
BLOCK
  5
254
330
24D
100
AcDbEntity
  8
0
100
AcDbBlockBegin
  2
*D25
 70
     1
 71
     0
 10
0.0
 20
0.0
 30
0.0
  3
*D25
  1

  0
LINE
  5
24E
330
24D
100
AcDbEntity
  8
1
  6
Continuous
 62
     2
100
AcDbLine
 10
115.154188583823
 20
-110.614648528989
 30
0.0
 11
115.154188583823
 21
69.38535147101105
 31
0.0
  0
LINE
  5
24F
330
24D
100
AcDbEntity
  8
1
  6
Continuous
 62
     2
100
AcDbLine
 10
154.9068397520139
 20
-110.614648528989
 30
0.0
 11
113.154188583823
 21
-110.614648528989
 31
0.0
  0
LINE
  5
250
330
24D
100
AcDbEntity
  8
1
  6
Continuous
 62
     2
100
AcDbLine
 10
154.9068397520139
 20
69.38535147101105
 30
0.0
 11
113.154188583823
 21
69.38535147101105
 31
0.0
  0
SOLID
  5
251
330
24D
100
AcDbEntity
  8
1
 62
     2
100
AcDbTrace
 10
114.6934048422671
 20
-107.114648528989
 30
0.0
 11
115.6149723253789
 21
-107.114648528989
 31
0.0
 12
115.154188583823
 22
-110.614648528989
 32
0.0
 13
115.154188583823
 23
-110.614648528989
 33
0.0
  0
SOLID
  5
252
330
24D
100
AcDbEntity
  8
1
 62
     2
100
AcDbTrace
 10
115.6149723253789
 20
65.88535147101105
 30
0.0
 11
114.6934048422671
 21
65.88535147101105
 31
0.0
 12
115.154188583823
 22
69.38535147101105
 32
0.0
 13
115.154188583823
 23
69.38535147101105
 33
0.0
  0
MTEXT
  5
253
330
24D
100
AcDbEntity
  8
1
 62
     2
100
AcDbMText
 10
113.154188583823
 20
-27.4903331928445
 30
0.0
 40
3.5
 41
0.0
 71
     7
 72
     1
  1
240
  7
CONVERTER_11
 11
0.0
 21
1.0
 31
0.0
 73
     1
 44
0.60024009603842
  0
ENDBLK
  5
255
330
24D
100
AcDbEntity
  8
0
100
AcDbBlockEnd
  0
ENDSEC
  0
SECTION
  2
ENTITIES
  0
POINT
  5
32
330
1F
100
AcDbEntity
  8
1
 62
     3
 60
     1
100
AcDbPoint
 10
-154.279696207698
 20
-20.61464852898895
 30
0.0
  0
LINE
  5
33
330
1F
100
AcDbEntity
  8
1
  6
DOT_CENTER
 62
     2
100
AcDbLine
 10
143.1568397520139
 20
-95.61464852898895
 30
0.0
 11
147.6568397520139
 21
-95.61464852898895
 31
0.0
  0
LINE
  5
34
330
1F
100
AcDbEntity
  8
1
  6
DOT_CENTER
 62
     2
100
AcDbLine
 10
162.1568397520139
 20
-95.61464852898895
 30
0.0
 11
166.6568397520139
 21
-95.61464852898895
 31
0.0
  0
LINE
  5
35
330
1F
100
AcDbEntity
  8
1
  6
DOT_CENTER
 62
     2
100
AcDbLine
 10
164.4068397520139
 20
-97.86464852898901
 30
0.0
 11
164.4068397520139
 21
-93.36464852898895
 31
0.0
  0
LINE
  5
36
330
1F
100
AcDbEntity
  8
1
  6
DOT_CENTER
 62
     2
100
AcDbLine
 10
147.6568397520139
 20
54.38535147101105
 30
0.0
 11
143.1568397520139
 21
54.38535147101105
 31
0.0
  0
LINE
  5
37
330
1F
100
AcDbEntity
  8
1
  6
DOT_CENTER
 62
     2
100
AcDbLine
 10
145.4068397520139
 20
56.63535147101105
 30
0.0
 11
145.4068397520139
 21
52.13535147101105
 31
0.0
  0
LINE
  5
38
330
1F
100
AcDbEntity
  8
1
  6
DOT_CENTER
 62
     2
100
AcDbLine
 10
164.4068397520139
 20
52.13535147101105
 30
0.0
 11
164.4068397520139
 21
56.63535147101105
 31
0.0
  0
LINE
  5
39
330
1F
100
AcDbEntity
  8
1
  6
DOT_CENTER
 62
     2
100
AcDbLine
 10
166.6568397520139
 20
54.38535147101105
 30
0.0
 11
162.1568397520139
 21
54.38535147101105
 31
0.0
  0
LINE
  5
3A
330
1F
100
AcDbEntity
  8
1
  6
DOT_CENTER
 62
     2
100
AcDbLine
 10
58.60069006045299
 20
-57.61464852898895
 30
0.0
 11
61.19350625828599
 21
-57.61464852898895
 31
0.0
  0
LINE
  5
3B
330
1F
100
AcDbEntity
  8
1
  6
DOT_CENTER
 62
     2
100
AcDbLine
 10
58.60069006045299
 20
-55.61464852898895
 30
0.0
 11
61.19350625828599
 21
-55.61464852898895
 31
0.0
  0
LINE
  5
3C
330
1F
100
AcDbEntity
  8
1
  6
DOT_CENTER
 62
     2
100
AcDbLine
 10
108.152768177045
 20
14.38535147101105
 30
0.0
 11
106.193506258286
 21
14.38535147101105
 31
0.0
  0
LINE
  5
3D
330
1F
100
AcDbEntity
  8
1
  6
DOT_CENTER
 62
     2
100
AcDbLine
 10
108.152768177045
 20
16.38535147101105
 30
0.0
 11
106.193506258286
 21
16.38535147101105
 31
0.0
  0
LINE
  5
3E
330
1F
100
AcDbEntity
  8
1
  6
DOT_CENTER
 62
     2
100
AcDbLine
 10
177.409582256969
 20
14.38535147101105
 30
0.0
 11
174.9068397520139
 21
14.38535147101106
 31
0.0
  0
LINE
  5
3F
330
1F
100
AcDbEntity
  8
1
  6
DOT_CENTER
 62
     2
100
AcDbLine
 10
177.409582256969
 20
16.38535147101105
 30
0.0
 11
174.9068397520139
 21
16.38535147101106
 31
0.0
  0
LINE
  5
40
330
1F
100
AcDbEntity
  8
1
  6
DOT_CENTER
 62
     2
100
AcDbLine
 10
97.69350625828599
 20
-57.61464852898895
 30
0.0
 11
106.193506258286
 21
-57.61464852898895
 31
0.0
  0
LINE
  5
41
330
1F
100
AcDbEntity
  8
1
  6
DOT_CENTER
 62
     2
100
AcDbLine
 10
61.19350625828599
 20
-57.61464852898895
 30
0.0
 11
97.69350625828599
 21
-57.61464852898895
 31
0.0
  0
LINE
  5
42
330
1F
100
AcDbEntity
  8
1
  6
DOT_CENTER
 62
     2
100
AcDbLine
 10
97.69350625828599
 20
-55.61464852898895
 30
0.0
 11
106.193506258286
 21
-55.61464852898895
 31
0.0
  0
LINE
  5
43
330
1F
100
AcDbEntity
  8
1
  6
DOT_CENTER
 62
     2
100
AcDbLine
 10
61.19350625828599
 20
-55.61464852898895
 30
0.0
 11
97.69350625828599
 21
-55.61464852898895
 31
0.0
  0
LINE
  5
44
330
1F
100
AcDbEntity
  8
1
  6
DOT_CENTER
 62
     2
100
AcDbLine
 10
97.69350625828599
 20
14.38535147101105
 30
0.0
 11
61.19350625828599
 21
14.38535147101105
 31
0.0
  0
LINE
  5
45
330
1F
100
AcDbEntity
  8
1
  6
DOT_CENTER
 62
     2
100
AcDbLine
 10
106.193506258286
 20
14.38535147101105
 30
0.0
 11
97.69350625828599
 21
14.38535147101105
 31
0.0
  0
LINE
  5
46
330
1F
100
AcDbEntity
  8
1
  6
DOT_CENTER
 62
     2
100
AcDbLine
 10
97.69350625828599
 20
16.38535147101105
 30
0.0
 11
61.19350625828599
 21
16.38535147101105
 31
0.0
  0
LINE
  5
47
330
1F
100
AcDbEntity
  8
1
  6
DOT_CENTER
 62
     2
100
AcDbLine
 10
106.193506258286
 20
16.38535147101105
 30
0.0
 11
97.69350625828599
 21
16.38535147101105
 31
0.0
  0
LINE
  5
48
330
1F
100
AcDbEntity
  8
1
  6
DOT_CENTER
 62
     2
100
AcDbLine
 10
138.9068397520139
 20
14.38535147101105
 30
0.0
 11
134.9068397520139
 21
14.38535147101106
 31
0.0
  0
LINE
  5
49
330
1F
100
AcDbEntity
  8
1
  6
DOT_CENTER
 62
     2
100
AcDbLine
 10
170.9068397520139
 20
14.38535147101105
 30
0.0
 11
138.9068397520139
 21
14.38535147101105
 31
0.0
  0
LINE
  5
4A
330
1F
100
AcDbEntity
  8
1
  6
DOT_CENTER
 62
     2
100
AcDbLine
 10
174.9068397520139
 20
14.38535147101106
 30
0.0
 11
170.9068397520139
 21
14.38535147101105
 31
0.0
  0
LINE
  5
4B
330
1F
100
AcDbEntity
  8
1
  6
DOT_CENTER
 62
     2
100
AcDbLine
 10
138.9068397520139
 20
16.38535147101105
 30
0.0
 11
134.9068397520139
 21
16.38535147101106
 31
0.0
  0
LINE
  5
4C
330
1F
100
AcDbEntity
  8
1
  6
DOT_CENTER
 62
     2
100
AcDbLine
 10
170.9068397520139
 20
16.38535147101105
 30
0.0
 11
138.9068397520139
 21
16.38535147101105
 31
0.0
  0
LINE
  5
4D
330
1F
100
AcDbEntity
  8
1
  6
DOT_CENTER
 62
     2
100
AcDbLine
 10
174.9068397520139
 20
16.38535147101106
 30
0.0
 11
170.9068397520139
 21
16.38535147101105
 31
0.0
  0
LINE
  5
4E
330
1F
100
AcDbEntity
  8
1
  6
Continuous
 62
     7
100
AcDbLine
 10
61.19350625828599
 20
-110.614648528989
 30
0.0
 11
61.19350625828599
 21
-57.61464852898895
 31
0.0
  0
LINE
  5
4F
330
1F
100
AcDbEntity
  8
1
  6
DOT_CENTER
 62
     2
100
AcDbLine
 10
106.193506258286
 20
-120.614648528989
 30
0.0
 11
106.193506258286
 21
-57.61464852898895
 31
0.0
  0
LINE
  5
50
330
1F
100
AcDbEntity
  8
1
  6
Continuous
 62
     7
100
AcDbLine
 10
97.69350625828599
 20
-89.11464852898894
 30
0.0
 11
97.69350625828599
 21
-57.61464852898895
 31
0.0
  0
LINE
  5
51
330
1F
100
AcDbEntity
  8
1
  6
Continuous
 62
     7
100
AcDbLine
 10
61.19350625828599
 20
-55.61464852898895
 30
0.0
 11
61.19350625828599
 21
14.38535147101105
 31
0.0
  0
LINE
  5
52
330
1F
100
AcDbEntity
  8
1
  6
DOT_CENTER
 62
     2
100
AcDbLine
 10
106.193506258286
 20
-55.61464852898895
 30
0.0
 11
106.193506258286
 21
14.38535147101105
 31
0.0
  0
LINE
  5
53
330
1F
100
AcDbEntity
  8
1
  6
Continuous
 62
     7
100
AcDbLine
 10
97.69350625828599
 20
-55.61464852898895
 30
0.0
 11
97.69350625828599
 21
14.38535147101105
 31
0.0
  0
LINE
  5
54
330
1F
100
AcDbEntity
  8
1
  6
Continuous
 62
     7
100
AcDbLine
 10
134.9068397520139
 20
79.3853514710111
 30
0.0
 11
134.9068397520139
 21
16.38535147101106
 31
0.0
  0
LINE
  5
55
330
1F
100
AcDbEntity
  8
1
  6
Continuous
 62
     7
100
AcDbLine
 10
138.9068397520139
 20
-55.61464852898895
 30
0.0
 11
138.9068397520139
 21
14.38535147101105
 31
0.0
  0
LINE
  5
56
330
1F
100
AcDbEntity
  8
1
  6
Continuous
 62
     7
100
AcDbLine
 10
174.9068397520139
 20
79.3853514710111
 30
0.0
 11
174.9068397520139
 21
16.38535147101106
 31
0.0
  0
LINE
  5
57
330
1F
100
AcDbEntity
  8
1
  6
Continuous
 62
     7
100
AcDbLine
 10
170.9068397520139
 20
-55.61464852898895
 30
0.0
 11
170.9068397520139
 21
14.38535147101105
 31
0.0
  0
LINE
  5
58
330
1F
100
AcDbEntity
  8
1
  6
DOT_CENTER
 62
     2
100
AcDbLine
 10
134.9068397520139
 20
14.38535147101106
 30
0.0
 11
132.729166577476
 21
14.38535147101105
 31
0.0
  0
LINE
  5
59
330
1F
100
AcDbEntity
  8
1
  6
DOT_CENTER
 62
     2
100
AcDbLine
 10
134.9068397520139
 20
16.38535147101106
 30
0.0
 11
132.729166577476
 21
16.38535147101105
 31
0.0
  0
LINE
  5
5A
330
1F
100
AcDbEntity
  8
1
  6
DOT_CENTER
 62
     2
100
AcDbLine
 10
61.19350625828599
 20
14.38535147101105
 30
0.0
 11
58.60069006045299
 21
14.38535147101105
 31
0.0
  0
LINE
  5
5B
330
1F
100
AcDbEntity
  8
1
  6
DOT_CENTER
 62
     2
100
AcDbLine
 10
61.19350625828599
 20
16.38535147101105
 30
0.0
 11
58.60069006045299
 21
16.38535147101105
 31
0.0
  0
LINE
  5
5C
330
1F
100
AcDbEntity
  8
1
  6
DOT_CENTER
 62
     2
100
AcDbLine
 10
106.193506258286
 20
-57.61464852898895
 30
0.0
 11
108.152768177045
 21
-57.61464852898895
 31
0.0
  0
LINE
  5
5D
330
1F
100
AcDbEntity
  8
1
  6
DOT_CENTER
 62
     2
100
AcDbLine
 10
106.193506258286
 20
-55.61464852898895
 30
0.0
 11
108.152768177045
 21
-55.61464852898895
 31
0.0
  0
LINE
  5
5E
330
1F
100
AcDbEntity
  8
1
  6
DOT_CENTER
 62
     2
100
AcDbLine
 10
174.9068397520139
 20
-57.61464852898894
 30
0.0
 11
177.409582256969
 21
-57.61464852898894
 31
0.0
  0
LINE
  5
5F
330
1F
100
AcDbEntity
  8
1
  6
DOT_CENTER
 62
     2
100
AcDbLine
 10
174.9068397520139
 20
-55.61464852898895
 30
0.0
 11
177.409582256969
 21
-55.61464852898895
 31
0.0
  0
LINE
  5
60
330
1F
100
AcDbEntity
  8
1
  6
Continuous
 62
     7
100
AcDbLine
 10
2.83123967983047
 20
-88.68918859156331
 30
0.0
 11
2.83123967983065
 21
-56.68918859156351
 31
0.0
  0
LINE
  5
61
330
1F
100
AcDbEntity
  8
1
  6
PHANTOM
 62
     2
100
AcDbLine
 10
46.83123967983067
 20
-94.46491919866698
 30
0.0
 11
46.83123967983067
 21
-92.68918859156351
 31
0.0
  0
LINE
  5
62
330
1F
100
AcDbEntity
  8
1
  6
PHANTOM
 62
     2
100
AcDbLine
 10
46.83123967983067
 20
-52.68918859156351
 30
0.0
 11
46.83123967983067
 21
-50.68471859187277
 31
0.0
  0
LINE
  5
63
330
1F
100
AcDbEntity
  8
1
  6
Continuous
 62
     7
100
AcDbLine
 10
2.8312396798307
 20
-52.68918859156351
 30
0.0
 11
46.83123967983067
 21
-52.68918859156351
 31
0.0
  0
LINE
  5
64
330
1F
100
AcDbEntity
  8
1
  6
Continuous
 62
     7
100
AcDbLine
 10
2.83123967983065
 20
-56.68918859156351
 30
0.0
 11
2.8312396798307
 21
-52.68918859156351
 31
0.0
  0
LINE
  5
65
330
1F
100
AcDbEntity
  8
1
  6
Continuous
 62
     7
100
AcDbLine
 10
39.33123967983066
 20
-56.68918859156361
 30
0.0
 11
12.83123967983068
 21
-56.68918859156351
 31
0.0
  0
LINE
  5
66
330
1F
100
AcDbEntity
  8
1
  6
Continuous
 62
     7
100
AcDbLine
 10
39.33123967983048
 20
-88.68918859156351
 30
0.0
 11
39.33123967983066
 21
-56.68918859156361
 31
0.0
  0
LINE
  5
67
330
1F
100
AcDbEntity
  8
1
  6
Continuous
 62
     7
100
AcDbLine
 10
2.83123967983047
 20
-88.68918859156331
 30
0.0
 11
12.83123967983047
 21
-88.68918859156332
 31
0.0
  0
LINE
  5
68
330
1F
100
AcDbEntity
  8
1
  6
Continuous
 62
     7
100
AcDbLine
 10
2.83123967983047
 20
-92.68918859156351
 30
0.0
 11
2.83123967983047
 21
-88.68918859156331
 31
0.0
  0
LINE
  5
69
330
1F
100
AcDbEntity
  8
1
  6
PHANTOM
 62
     2
100
AcDbLine
 10
46.83123967983067
 20
-92.68918859156351
 30
0.0
 11
46.83123967983067
 21
-52.68918859156351
 31
0.0
  0
LINE
  5
6A
330
1F
100
AcDbEntity
  8
1
  6
Continuous
 62
     7
100
AcDbLine
 10
46.83123967983067
 20
-92.68918859156351
 30
0.0
 11
2.83123967983047
 21
-92.68918859156351
 31
0.0
  0
LINE
  5
6B
330
1F
100
AcDbEntity
  8
1
  6
DOT_CENTER
 62
     2
100
AcDbLine
 10
174.9068397520139
 20
79.3853514710111
 30
0.0
 11
177.409582256969
 21
79.3853514710111
 31
0.0
  0
LINE
  5
6C
330
1F
100
AcDbEntity
  8
1
  6
DOT_CENTER
 62
     2
100
AcDbLine
 10
174.9068397520139
 20
-120.614648528989
 30
0.0
 11
177.409582256969
 21
-120.614648528989
 31
0.0
  0
LINE
  5
6D
330
1F
100
AcDbEntity
  8
1
  6
Continuous
 62
     7
100
AcDbLine
 10
174.9068397520139
 20
-57.61464852898894
 30
0.0
 11
174.9068397520139
 21
-120.614648528989
 31
0.0
  0
LINE
  5
6E
330
1F
100
AcDbEntity
  8
1
  6
DOT_CENTER
 62
     2
100
AcDbLine
 10
134.9068397520139
 20
79.3853514710111
 30
0.0
 11
174.9068397520139
 21
79.3853514710111
 31
0.0
  0
LINE
  5
6F
330
1F
100
AcDbEntity
  8
1
  6
DOT_CENTER
 62
     2
100
AcDbLine
 10
134.9068397520139
 20
-120.614648528989
 30
0.0
 11
174.9068397520139
 21
-120.614648528989
 31
0.0
  0
LINE
  5
70
330
1F
100
AcDbEntity
  8
1
  6
Continuous
 62
     7
100
AcDbLine
 10
134.9068397520139
 20
-57.61464852898895
 30
0.0
 11
134.9068397520139
 21
-120.614648528989
 31
0.0
  0
LINE
  5
71
330
1F
100
AcDbEntity
  8
1
  6
DOT_CENTER
 62
     2
100
AcDbLine
 10
132.729166577476
 20
79.3853514710111
 30
0.0
 11
134.9068397520139
 21
79.3853514710111
 31
0.0
  0
LINE
  5
72
330
1F
100
AcDbEntity
  8
1
  6
DOT_CENTER
 62
     2
100
AcDbLine
 10
132.729166577476
 20
-120.614648528989
 30
0.0
 11
134.9068397520139
 21
-120.614648528989
 31
0.0
  0
LINE
  5
73
330
1F
100
AcDbEntity
  8
1
  6
DOT_CENTER
 62
     2
100
AcDbLine
 10
132.729166577476
 20
-20.61464852898895
 30
0.0
 11
177.409582256969
 21
-20.61464852898895
 31
0.0
  0
LINE
  5
74
330
1F
100
AcDbEntity
  8
1
  6
Continuous
 62
     7
100
AcDbLine
 10
12.83123967983068
 20
-56.68918859156351
 30
0.0
 11
12.83123967983047
 21
-88.68918859156332
 31
0.0
  0
LINE
  5
75
330
1F
100
AcDbEntity
  8
1
  6
Continuous
 62
     7
100
AcDbLine
 10
12.83123967983068
 20
-56.68918859156351
 30
0.0
 11
2.83123967983065
 21
-56.68918859156351
 31
0.0
  0
LINE
  5
76
330
1F
100
AcDbEntity
  8
1
  6
Continuous
 62
     7
100
AcDbLine
 10
12.83123967983047
 20
-88.68918859156332
 30
0.0
 11
39.33123967983048
 21
-88.68918859156351
 31
0.0
  0
LINE
  5
77
330
1F
100
AcDbEntity
  8
1
  6
DOT_CENTER
 62
     2
100
AcDbLine
 10
101.193506258286
 20
79.3853514710111
 30
0.0
 11
109.3326686703517
 21
79.3853514710111
 31
0.0
  0
LINE
  5
78
330
1F
100
AcDbEntity
  8
1
  6
DOT_CENTER
 62
     2
100
AcDbLine
 10
61.19350625828599
 20
79.3853514710111
 30
0.0
 11
106.193506258286
 21
79.3853514710111
 31
0.0
  0
LINE
  5
79
330
1F
100
AcDbEntity
  8
1
  6
DOT_CENTER
 62
     2
100
AcDbLine
 10
58.51079731573259
 20
79.3853514710111
 30
0.0
 11
61.19350625828599
 21
79.3853514710111
 31
0.0
  0
LINE
  5
7A
330
1F
100
AcDbEntity
  8
1
  6
DOT_CENTER
 62
     2
100
AcDbLine
 10
101.193506258286
 20
-120.614648528989
 30
0.0
 11
109.3326686703517
 21
-120.614648528989
 31
0.0
  0
LINE
  5
7B
330
1F
100
AcDbEntity
  8
1
  6
DOT_CENTER
 62
     2
100
AcDbLine
 10
61.19350625828599
 20
-120.614648528989
 30
0.0
 11
106.193506258286
 21
-120.614648528989
 31
0.0
  0
LINE
  5
7C
330
1F
100
AcDbEntity
  8
1
  6
DOT_CENTER
 62
     2
100
AcDbLine
 10
58.51079731573259
 20
-120.614648528989
 30
0.0
 11
61.19350625828599
 21
-120.614648528989
 31
0.0
  0
LINE
  5
7D
330
1F
100
AcDbEntity
  8
1
  6
Continuous
 62
     7
100
AcDbLine
 10
61.19350625828599
 20
69.38535147101105
 30
0.0
 11
61.19350625828599
 21
79.3853514710111
 31
0.0
  0
LINE
  5
7E
330
1F
100
AcDbEntity
  8
1
  6
Continuous
 62
     7
100
AcDbLine
 10
71.19350625828599
 20
69.38535147101105
 30
0.0
 11
61.19350625828599
 21
69.38535147101105
 31
0.0
  0
LINE
  5
7F
330
1F
100
AcDbEntity
  8
1
  6
Continuous
 62
     7
100
AcDbLine
 10
61.19350625828599
 20
16.38535147101105
 30
0.0
 11
61.19350625828599
 21
69.38535147101105
 31
0.0
  0
LINE
  5
80
330
1F
100
AcDbEntity
  8
1
  6
Continuous
 62
     7
100
AcDbLine
 10
71.19350625828599
 20
47.88535147101105
 30
0.0
 11
71.19350625828599
 21
69.38535147101105
 31
0.0
  0
LINE
  5
81
330
1F
100
AcDbEntity
  8
1
  6
Continuous
 62
     7
100
AcDbLine
 10
97.69350625828599
 20
47.88535147101105
 30
0.0
 11
71.19350625828599
 21
47.88535147101105
 31
0.0
  0
LINE
  5
82
330
1F
100
AcDbEntity
  8
1
  6
Continuous
 62
     7
100
AcDbLine
 10
97.69350625828599
 20
16.38535147101105
 30
0.0
 11
97.69350625828599
 21
47.88535147101105
 31
0.0
  0
LINE
  5
83
330
1F
100
AcDbEntity
  8
1
  6
Continuous
 62
     7
100
AcDbLine
 10
71.19350625828599
 20
-89.11464852898901
 30
0.0
 11
97.69350625828599
 21
-89.11464852898894
 31
0.0
  0
LINE
  5
84
330
1F
100
AcDbEntity
  8
1
  6
Continuous
 62
     7
100
AcDbLine
 10
71.19350625828599
 20
-110.614648528989
 30
0.0
 11
71.19350625828599
 21
-89.11464852898901
 31
0.0
  0
LINE
  5
85
330
1F
100
AcDbEntity
  8
1
  6
Continuous
 62
     7
100
AcDbLine
 10
61.19350625828599
 20
-110.614648528989
 30
0.0
 11
71.19350625828599
 21
-110.614648528989
 31
0.0
  0
LINE
  5
86
330
1F
100
AcDbEntity
  8
1
  6
Continuous
 62
     7
100
AcDbLine
 10
61.19350625828599
 20
-120.614648528989
 30
0.0
 11
61.19350625828599
 21
-110.614648528989
 31
0.0
  0
LINE
  5
87
330
1F
100
AcDbEntity
  8
1
  6
DOT_CENTER
 62
     2
100
AcDbLine
 10
106.193506258286
 20
16.38535147101105
 30
0.0
 11
106.193506258286
 21
79.3853514710111
 31
0.0
  0
LINE
  5
88
330
1F
100
AcDbEntity
  8
1
  6
DOT_CENTER
 62
     2
100
AcDbLine
 10
106.193506258286
 20
-123.727582711116
 30
0.0
 11
106.193506258286
 21
-120.614648528989
 31
0.0
  0
LINE
  5
89
330
1F
100
AcDbEntity
  8
1
  6
DOT_CENTER
 62
     2
100
AcDbLine
 10
106.193506258286
 20
81.428151340832
 30
0.0
 11
106.193506258286
 21
79.3853514710111
 31
0.0
  0
LINE
  5
8A
330
1F
100
AcDbEntity
  8
1
  6
DOT_CENTER
 62
     2
100
AcDbLine
 10
58.60069006045299
 20
-20.61464852898895
 30
0.0
 11
108.152768177045
 21
-20.61464852898895
 31
0.0
  0
LINE
  5
8B
330
1F
100
AcDbEntity
  8
1
  6
Continuous
 62
     7
100
AcDbLine
 10
170.9068397520139
 20
35.88535147101105
 30
0.0
 11
170.9068397520139
 21
53.38535147101105
 31
0.0
  0
LINE
  5
8C
330
1F
100
AcDbEntity
  8
1
  6
Continuous
 62
     7
100
AcDbLine
 10
138.9068397520139
 20
35.88535147101105
 30
0.0
 11
138.9068397520139
 21
53.38535147101105
 31
0.0
  0
LINE
  5
8D
330
1F
100
AcDbEntity
  8
1
  6
DOT_CENTER
 62
     2
100
AcDbLine
 10
41.78744366190571
 20
-72.68918859156351
 30
0.0
 11
1.14973931352895
 21
-72.68918859156351
 31
0.0
  0
LINE
  5
8E
330
1F
100
AcDbEntity
  8
1
  6
Continuous
 62
     7
100
AcDbLine
 10
71.19350625828599
 20
35.88535147101106
 30
0.0
 11
71.19350625828599
 21
47.88535147101105
 31
0.0
  0
LINE
  5
8F
330
1F
100
AcDbEntity
  8
1
  6
Continuous
 62
     7
100
AcDbLine
 10
71.19350625828599
 20
-78.11464852898898
 30
0.0
 11
71.19350625828599
 21
-89.11464852898901
 31
0.0
  0
LINE
  5
90
330
1F
100
AcDbEntity
  8
1
  6
DOT_CENTER
 62
     2
100
AcDbLine
 10
154.9068397520139
 20
-113.3289416243351
 30
0.0
 11
154.9068397520139
 21
73.0770835440912
 31
0.0
  0
LINE
  5
91
330
1F
100
AcDbEntity
  8
1
  6
Continuous
 62
     7
100
AcDbLine
 10
138.9068397520139
 20
16.38535147101105
 30
0.0
 11
138.9068397520139
 21
35.88535147101105
 31
0.0
  0
LINE
  5
92
330
1F
100
AcDbEntity
  8
1
  6
Continuous
 62
     7
100
AcDbLine
 10
170.9068397520139
 20
16.38535147101105
 30
0.0
 11
170.9068397520139
 21
35.88535147101105
 31
0.0
  0
LINE
  5
93
330
1F
100
AcDbEntity
  8
1
  6
Continuous
 62
     7
100
AcDbLine
 10
150.9068397520139
 20
47.88535147101105
 30
0.0
 11
158.9068397520139
 21
47.88535147101105
 31
0.0
  0
LINE
  5
94
330
1F
100
AcDbEntity
  8
1
  6
Continuous
 62
     7
100
AcDbLine
 10
158.9068397520139
 20
-89.11464852898895
 30
0.0
 11
150.9068397520139
 21
-89.11464852898895
 31
0.0
  0
LINE
  5
95
330
1F
100
AcDbEntity
  8
1
  6
DOT_CENTER
 62
     2
100
AcDbLine
 10
145.4068397520139
 20
-97.86464852898901
 30
0.0
 11
145.4068397520139
 21
-93.36464852898895
 31
0.0
  0
LINE
  5
96
330
1F
100
AcDbEntity
  8
1
  6
DOT_CENTER
 62
     2
100
AcDbLine
 10
136.9715790336202
 20
53.38535147101105
 30
0.0
 11
173.4924687259798
 21
53.38535147101105
 31
0.0
  0
LINE
  5
97
330
1F
100
AcDbEntity
  8
1
  6
DOT_CENTER
 62
     2
100
AcDbLine
 10
173.4924687259798
 20
-94.61464852898895
 30
0.0
 11
136.9715790336202
 21
-94.61464852898895
 31
0.0
  0
LINE
  5
98
330
1F
100
AcDbEntity
  8
1
  6
Continuous
 62
     7
100
AcDbLine
 10
174.9068397520139
 20
14.38535147101106
 30
0.0
 11
174.9068397520139
 21
-55.61464852898895
 31
0.0
  0
LINE
  5
99
330
1F
100
AcDbEntity
  8
1
  6
Continuous
 62
     7
100
AcDbLine
 10
170.9068397520139
 20
-94.61464852898895
 30
0.0
 11
170.9068397520139
 21
-57.61464852898895
 31
0.0
  0
LINE
  5
9A
330
1F
100
AcDbEntity
  8
1
  6
Continuous
 62
     7
100
AcDbLine
 10
138.9068397520139
 20
-94.61464852898895
 30
0.0
 11
138.9068397520139
 21
-57.61464852898895
 31
0.0
  0
LINE
  5
9B
330
1F
100
AcDbEntity
  8
1
  6
Continuous
 62
     7
100
AcDbLine
 10
134.9068397520139
 20
14.38535147101106
 30
0.0
 11
134.9068397520139
 21
-55.61464852898895
 31
0.0
  0
LINE
  5
9C
330
1F
100
AcDbEntity
  8
1
  6
DOT_CENTER
 62
     2
100
AcDbLine
 10
170.9068397520139
 20
-55.61464852898895
 30
0.0
 11
174.9068397520139
 21
-55.61464852898895
 31
0.0
  0
LINE
  5
9D
330
1F
100
AcDbEntity
  8
1
  6
DOT_CENTER
 62
     2
100
AcDbLine
 10
170.9068397520139
 20
-57.61464852898895
 30
0.0
 11
174.9068397520139
 21
-57.61464852898894
 31
0.0
  0
LINE
  5
9E
330
1F
100
AcDbEntity
  8
1
  6
DOT_CENTER
 62
     2
100
AcDbLine
 10
138.9068397520139
 20
-55.61464852898895
 30
0.0
 11
170.9068397520139
 21
-55.61464852898895
 31
0.0
  0
LINE
  5
9F
330
1F
100
AcDbEntity
  8
1
  6
DOT_CENTER
 62
     2
100
AcDbLine
 10
138.9068397520139
 20
-57.61464852898895
 30
0.0
 11
170.9068397520139
 21
-57.61464852898895
 31
0.0
  0
LINE
  5
A0
330
1F
100
AcDbEntity
  8
1
  6
DOT_CENTER
 62
     2
100
AcDbLine
 10
134.9068397520139
 20
-55.61464852898895
 30
0.0
 11
138.9068397520139
 21
-55.61464852898895
 31
0.0
  0
LINE
  5
A1
330
1F
100
AcDbEntity
  8
1
  6
DOT_CENTER
 62
     2
100
AcDbLine
 10
134.9068397520139
 20
-57.61464852898895
 30
0.0
 11
138.9068397520139
 21
-57.61464852898895
 31
0.0
  0
LINE
  5
A2
330
1F
100
AcDbEntity
  8
1
  6
DOT_CENTER
 62
     2
100
AcDbLine
 10
132.729166577476
 20
-55.61464852898895
 30
0.0
 11
134.9068397520139
 21
-55.61464852898895
 31
0.0
  0
LINE
  5
A3
330
1F
100
AcDbEntity
  8
1
  6
DOT_CENTER
 62
     2
100
AcDbLine
 10
132.729166577476
 20
-57.61464852898895
 30
0.0
 11
134.9068397520139
 21
-57.61464852898895
 31
0.0
  0
LINE
  5
A4
330
1F
100
AcDbEntity
  8
1
  6
DOT_CENTER
 62
     2
100
AcDbLine
 10
-198.6339311914812
 20
53.38535147101105
 30
0.0
 11
-163.204563032309
 21
53.38535147101105
 31
0.0
  0
LINE
  5
A5
330
1F
100
AcDbEntity
  8
1
  6
DOT_CENTER
 62
     2
100
AcDbLine
 10
-163.204563032309
 20
-94.61464852898895
 30
0.0
 11
-198.6339311914812
 21
-94.61464852898895
 31
0.0
  0
LINE
  5
A6
330
1F
100
AcDbEntity
  8
1
  6
DOT_CENTER
 62
     2
100
AcDbLine
 10
-189.9148523042701
 20
-97.8646485289887
 30
0.0
 11
-189.9148523042701
 21
-93.3646485289887
 31
0.0
  0
LINE
  5
A7
330
1F
100
AcDbEntity
  8
1
  6
DOT_CENTER
 62
     2
100
AcDbLine
 10
-187.6648523042701
 20
-95.6146485289887
 30
0.0
 11
-192.1648523042701
 21
-95.6146485289887
 31
0.0
  0
LINE
  5
A8
330
1F
100
AcDbEntity
  8
1
  6
DOT_CENTER
 62
     2
100
AcDbLine
 10
-171.9148523042701
 20
-97.8646485289887
 30
0.0
 11
-171.9148523042701
 21
-93.3646485289887
 31
0.0
  0
LINE
  5
A9
330
1F
100
AcDbEntity
  8
1
  6
DOT_CENTER
 62
     2
100
AcDbLine
 10
-169.6648523042701
 20
-95.6146485289887
 30
0.0
 11
-174.1648523042701
 21
-95.6146485289887
 31
0.0
  0
LINE
  5
AA
330
1F
100
AcDbEntity
  8
1
  6
DOT_CENTER
 62
     2
100
AcDbLine
 10
-200.91485230427
 20
-57.61464852898895
 30
0.0
 11
-202.40426145648
 21
-57.61464852898895
 31
0.0
  0
LINE
  5
AB
330
1F
100
AcDbEntity
  8
1
  6
DOT_CENTER
 62
     2
100
AcDbLine
 10
-111.3573326447174
 20
-57.61464852898895
 30
0.0
 11
-113.327290116345
 21
-57.61464852898895
 31
0.0
  0
LINE
  5
AC
330
1F
100
AcDbEntity
  8
1
  6
DOT_CENTER
 62
     2
100
AcDbLine
 10
-55.35733264471736
 20
14.38535147101106
 30
0.0
 11
-52.9649251962632
 21
14.38535147101105
 31
0.0
  0
LINE
  5
AD
330
1F
100
AcDbEntity
  8
1
  6
DOT_CENTER
 62
     2
100
AcDbLine
 10
-55.35733264471735
 20
16.38535147101105
 30
0.0
 11
-52.9649251962632
 21
16.38535147101105
 31
0.0
  0
LINE
  5
AE
330
1F
100
AcDbEntity
  8
1
  6
DOT_CENTER
 62
     2
100
AcDbLine
 10
-158.91485230427
 20
14.38535147101105
 30
0.0
 11
-157.147069980412
 21
14.38535147101105
 31
0.0
  0
LINE
  5
AF
330
1F
100
AcDbEntity
  8
1
  6
DOT_CENTER
 62
     2
100
AcDbLine
 10
-158.91485230427
 20
16.38535147101104
 30
0.0
 11
-157.147069980412
 21
16.38535147101105
 31
0.0
  0
LINE
  5
B0
330
1F
100
AcDbEntity
  8
1
  6
DOT_CENTER
 62
     2
100
AcDbLine
 10
-196.91485230427
 20
-57.61464852898895
 30
0.0
 11
-200.91485230427
 21
-57.61464852898895
 31
0.0
  0
LINE
  5
B1
330
1F
100
AcDbEntity
  8
1
  6
DOT_CENTER
 62
     2
100
AcDbLine
 10
-196.91485230427
 20
-55.61464852898895
 30
0.0
 11
-200.91485230427
 21
-55.61464852898895
 31
0.0
  0
LINE
  5
B2
330
1F
100
AcDbEntity
  8
1
  6
DOT_CENTER
 62
     2
100
AcDbLine
 10
-103.8573326447174
 20
-57.61464852898895
 30
0.0
 11
-111.3573326447174
 21
-57.61464852898895
 31
0.0
  0
LINE
  5
B3
330
1F
100
AcDbEntity
  8
1
  6
DOT_CENTER
 62
     2
100
AcDbLine
 10
-68.35733264471742
 20
14.38535147101105
 30
0.0
 11
-55.35733264471736
 21
14.38535147101106
 31
0.0
  0
LINE
  5
B4
330
1F
100
AcDbEntity
  8
1
  6
DOT_CENTER
 62
     2
100
AcDbLine
 10
-68.35733264471742
 20
16.38535147101105
 30
0.0
 11
-55.35733264471735
 21
16.38535147101105
 31
0.0
  0
LINE
  5
B5
330
1F
100
AcDbEntity
  8
1
  6
DOT_CENTER
 62
     2
100
AcDbLine
 10
-164.9148523042699
 20
14.38535147101105
 30
0.0
 11
-158.91485230427
 21
14.38535147101105
 31
0.0
  0
LINE
  5
B6
330
1F
100
AcDbEntity
  8
1
  6
DOT_CENTER
 62
     2
100
AcDbLine
 10
-164.9148523042699
 20
16.38535147101105
 30
0.0
 11
-158.91485230427
 21
16.38535147101104
 31
0.0
  0
LINE
  5
B7
330
1F
100
AcDbEntity
  8
1
  6
DOT_CENTER
 62
     2
100
AcDbLine
 10
-164.91485230427
 20
-57.61464852898895
 30
0.0
 11
-196.91485230427
 21
-57.61464852898895
 31
0.0
  0
LINE
  5
B8
330
1F
100
AcDbEntity
  8
1
  6
DOT_CENTER
 62
     2
100
AcDbLine
 10
-164.91485230427
 20
-55.61464852898895
 30
0.0
 11
-196.91485230427
 21
-55.61464852898895
 31
0.0
  0
LINE
  5
B9
330
1F
100
AcDbEntity
  8
1
  6
DOT_CENTER
 62
     2
100
AcDbLine
 10
-68.35733264471742
 20
-57.61464852898895
 30
0.0
 11
-103.8573326447174
 21
-57.61464852898895
 31
0.0
  0
LINE
  5
BA
330
1F
100
AcDbEntity
  8
1
  6
DOT_CENTER
 62
     2
100
AcDbLine
 10
-103.8573326447174
 20
14.38535147101105
 30
0.0
 11
-68.35733264471742
 21
14.38535147101105
 31
0.0
  0
LINE
  5
BB
330
1F
100
AcDbEntity
  8
1
  6
DOT_CENTER
 62
     2
100
AcDbLine
 10
-103.8573326447174
 20
16.38535147101105
 30
0.0
 11
-68.35733264471742
 21
16.38535147101105
 31
0.0
  0
LINE
  5
BC
330
1F
100
AcDbEntity
  8
1
  6
DOT_CENTER
 62
     2
100
AcDbLine
 10
-196.91485230427
 20
14.38535147101105
 30
0.0
 11
-164.9148523042699
 21
14.38535147101105
 31
0.0
  0
LINE
  5
BD
330
1F
100
AcDbEntity
  8
1
  6
DOT_CENTER
 62
     2
100
AcDbLine
 10
-196.91485230427
 20
16.38535147101105
 30
0.0
 11
-164.9148523042699
 21
16.38535147101105
 31
0.0
  0
LINE
  5
BE
330
1F
100
AcDbEntity
  8
1
  6
DOT_CENTER
 62
     2
100
AcDbLine
 10
-158.91485230427
 20
-57.61464852898895
 30
0.0
 11
-164.91485230427
 21
-57.61464852898895
 31
0.0
  0
LINE
  5
BF
330
1F
100
AcDbEntity
  8
1
  6
DOT_CENTER
 62
     2
100
AcDbLine
 10
-158.91485230427
 20
-55.61464852898895
 30
0.0
 11
-164.91485230427
 21
-55.61464852898895
 31
0.0
  0
LINE
  5
C0
330
1F
100
AcDbEntity
  8
1
  6
DOT_CENTER
 62
     2
100
AcDbLine
 10
-200.91485230427
 20
-55.61464852898895
 30
0.0
 11
-202.40426145648
 21
-55.61464852898895
 31
0.0
  0
LINE
  5
C1
330
1F
100
AcDbEntity
  8
1
  6
DOT_CENTER
 62
     2
100
AcDbLine
 10
-55.35733264471736
 20
-55.61464852898895
 30
0.0
 11
-68.35733264471742
 21
-55.61464852898895
 31
0.0
  0
LINE
  5
C2
330
1F
100
AcDbEntity
  8
1
  6
DOT_CENTER
 62
     2
100
AcDbLine
 10
-68.35733264471742
 20
-55.61464852898895
 30
0.0
 11
-103.8573326447174
 21
-55.61464852898895
 31
0.0
  0
LINE
  5
C3
330
1F
100
AcDbEntity
  8
1
  6
DOT_CENTER
 62
     2
100
AcDbLine
 10
-103.8573326447174
 20
-55.61464852898895
 30
0.0
 11
-111.3573326447174
 21
-55.61464852898895
 31
0.0
  0
LINE
  5
C4
330
1F
100
AcDbEntity
  8
1
  6
DOT_CENTER
 62
     2
100
AcDbLine
 10
-111.3573326447174
 20
-55.61464852898895
 30
0.0
 11
-113.327290116345
 21
-55.61464852898895
 31
0.0
  0
LINE
  5
C5
330
1F
100
AcDbEntity
  8
1
  6
DOT_CENTER
 62
     2
100
AcDbLine
 10
-55.35733264471736
 20
-57.61464852898895
 30
0.0
 11
-68.35733264471742
 21
-57.61464852898895
 31
0.0
  0
LINE
  5
C6
330
1F
100
AcDbEntity
  8
1
  6
DOT_CENTER
 62
     2
100
AcDbLine
 10
-111.3573326447174
 20
14.38535147101105
 30
0.0
 11
-103.8573326447174
 21
14.38535147101105
 31
0.0
  0
LINE
  5
C7
330
1F
100
AcDbEntity
  8
1
  6
DOT_CENTER
 62
     2
100
AcDbLine
 10
-111.3573326447174
 20
16.38535147101105
 30
0.0
 11
-103.8573326447174
 21
16.38535147101105
 31
0.0
  0
LINE
  5
C8
330
1F
100
AcDbEntity
  8
1
  6
DOT_CENTER
 62
     2
100
AcDbLine
 10
-200.91485230427
 20
14.38535147101105
 30
0.0
 11
-196.91485230427
 21
14.38535147101105
 31
0.0
  0
LINE
  5
C9
330
1F
100
AcDbEntity
  8
1
  6
DOT_CENTER
 62
     2
100
AcDbLine
 10
-200.91485230427
 20
16.38535147101105
 30
0.0
 11
-196.91485230427
 21
16.38535147101105
 31
0.0
  0
LINE
  5
CA
330
1F
100
AcDbEntity
  8
1
  6
Continuous
 62
     7
100
AcDbLine
 10
-200.91485230427
 20
-57.61464852898895
 30
0.0
 11
-200.91485230427
 21
-120.614648528989
 31
0.0
  0
LINE
  5
CB
330
1F
100
AcDbEntity
  8
1
  6
Continuous
 62
     7
100
AcDbLine
 10
-196.91485230427
 20
-57.61464852898895
 30
0.0
 11
-196.91485230427
 21
-77.1146485289887
 31
0.0
  0
LINE
  5
CC
330
1F
100
AcDbEntity
  8
1
  6
Continuous
 62
     7
100
AcDbLine
 10
-164.91485230427
 20
-57.61464852898895
 30
0.0
 11
-164.91485230427
 21
-77.11464852898868
 31
0.0
  0
LINE
  5
CD
330
1F
100
AcDbEntity
  8
1
  6
Continuous
 62
     7
100
AcDbLine
 10
-158.91485230427
 20
-57.61464852898895
 30
0.0
 11
-158.91485230427
 21
-120.614648528989
 31
0.0
  0
LINE
  5
CE
330
1F
100
AcDbEntity
  8
1
  6
Continuous
 62
     7
100
AcDbLine
 10
-111.3573326447174
 20
-57.61464852898895
 30
0.0
 11
-111.3573326447174
 21
-120.614648528989
 31
0.0
  0
LINE
  5
CF
330
1F
100
AcDbEntity
  8
1
  6
Continuous
 62
     7
100
AcDbLine
 10
-103.8573326447174
 20
-57.61464852898895
 30
0.0
 11
-103.8573326447174
 21
-89.11464852898897
 31
0.0
  0
LINE
  5
D0
330
1F
100
AcDbEntity
  8
1
  6
Continuous
 62
     7
100
AcDbLine
 10
-68.35733264471742
 20
-57.61464852898895
 30
0.0
 11
-68.35733264471742
 21
-110.6146485289887
 31
0.0
  0
LINE
  5
D1
330
1F
100
AcDbEntity
  8
1
  6
Continuous
 62
     7
100
AcDbLine
 10
-55.35733264471736
 20
-55.61464852898895
 30
0.0
 11
-55.35733264471736
 21
14.38535147101106
 31
0.0
  0
LINE
  5
D2
330
1F
100
AcDbEntity
  8
1
  6
Continuous
 62
     7
100
AcDbLine
 10
-55.35733264471735
 20
16.38535147101105
 30
0.0
 11
-55.35733264471736
 21
79.385351471011
 31
0.0
  0
LINE
  5
D3
330
1F
100
AcDbEntity
  8
1
  6
Continuous
 62
     7
100
AcDbLine
 10
-68.35733264471742
 20
14.38535147101105
 30
0.0
 11
-68.35733264471742
 21
-55.61464852898895
 31
0.0
  0
LINE
  5
D4
330
1F
100
AcDbEntity
  8
1
  6
Continuous
 62
     7
100
AcDbLine
 10
-103.8573326447174
 20
14.38535147101105
 30
0.0
 11
-103.8573326447174
 21
-55.61464852898895
 31
0.0
  0
LINE
  5
D5
330
1F
100
AcDbEntity
  8
1
  6
Continuous
 62
     7
100
AcDbLine
 10
-111.3573326447174
 20
14.38535147101105
 30
0.0
 11
-111.3573326447174
 21
-55.61464852898895
 31
0.0
  0
LINE
  5
D6
330
1F
100
AcDbEntity
  8
1
  6
Continuous
 62
     7
100
AcDbLine
 10
-158.91485230427
 20
14.38535147101105
 30
0.0
 11
-158.91485230427
 21
-55.61464852898895
 31
0.0
  0
LINE
  5
D7
330
1F
100
AcDbEntity
  8
1
  6
Continuous
 62
     7
100
AcDbLine
 10
-164.9148523042699
 20
14.38535147101105
 30
0.0
 11
-164.9148523042699
 21
-20.61464852898895
 31
0.0
  0
LINE
  5
D8
330
1F
100
AcDbEntity
  8
1
  6
Continuous
 62
     7
100
AcDbLine
 10
-196.91485230427
 20
14.38535147101105
 30
0.0
 11
-196.91485230427
 21
-20.61464852898895
 31
0.0
  0
LINE
  5
D9
330
1F
100
AcDbEntity
  8
1
  6
Continuous
 62
     7
100
AcDbLine
 10
-200.91485230427
 20
14.38535147101105
 30
0.0
 11
-200.91485230427
 21
-55.61464852898895
 31
0.0
  0
LINE
  5
DA
330
1F
100
AcDbEntity
  8
1
  6
DOT_CENTER
 62
     2
100
AcDbLine
 10
-157.147069980412
 20
-57.61464852898895
 30
0.0
 11
-158.91485230427
 21
-57.61464852898895
 31
0.0
  0
LINE
  5
DB
330
1F
100
AcDbEntity
  8
1
  6
DOT_CENTER
 62
     2
100
AcDbLine
 10
-157.147069980412
 20
-55.61464852898895
 30
0.0
 11
-158.91485230427
 21
-55.61464852898895
 31
0.0
  0
LINE
  5
DC
330
1F
100
AcDbEntity
  8
1
  6
DOT_CENTER
 62
     2
100
AcDbLine
 10
-52.9649251962632
 20
-57.61464852898895
 30
0.0
 11
-55.35733264471736
 21
-57.61464852898895
 31
0.0
  0
LINE
  5
DD
330
1F
100
AcDbEntity
  8
1
  6
DOT_CENTER
 62
     2
100
AcDbLine
 10
-52.9649251962632
 20
-55.61464852898895
 30
0.0
 11
-55.35733264471736
 21
-55.61464852898895
 31
0.0
  0
LINE
  5
DE
330
1F
100
AcDbEntity
  8
1
  6
DOT_CENTER
 62
     2
100
AcDbLine
 10
-113.327290116345
 20
14.38535147101105
 30
0.0
 11
-111.3573326447174
 21
14.38535147101105
 31
0.0
  0
LINE
  5
DF
330
1F
100
AcDbEntity
  8
1
  6
DOT_CENTER
 62
     2
100
AcDbLine
 10
-113.327290116345
 20
16.38535147101105
 30
0.0
 11
-111.3573326447174
 21
16.38535147101105
 31
0.0
  0
LINE
  5
E0
330
1F
100
AcDbEntity
  8
1
  6
DOT_CENTER
 62
     2
100
AcDbLine
 10
-202.40426145648
 20
14.38535147101105
 30
0.0
 11
-200.91485230427
 21
14.38535147101105
 31
0.0
  0
LINE
  5
E1
330
1F
100
AcDbEntity
  8
1
  6
DOT_CENTER
 62
     2
100
AcDbLine
 10
-202.40426145648
 20
16.38535147101105
 30
0.0
 11
-200.91485230427
 21
16.38535147101105
 31
0.0
  0
LINE
  5
E2
330
1F
100
AcDbEntity
  8
1
  6
DOT_CENTER
 62
     2
100
AcDbLine
 10
0.80832898479886
 20
-72.68918859156351
 30
0.0
 11
-36.43358211204218
 21
-72.68918859156351
 31
0.0
  0
LINE
  5
E3
330
1F
100
AcDbEntity
  8
1
  6
Continuous
 62
     7
100
AcDbLine
 10
-78.35733264471742
 20
47.88535147101108
 30
0.0
 11
-78.35733264471742
 21
35.88535147101108
 31
0.0
  0
LINE
  5
E4
330
1F
100
AcDbEntity
  8
1
  6
Continuous
 62
     7
100
AcDbLine
 10
-78.35733264471742
 20
-89.11464852898895
 30
0.0
 11
-78.35733264471742
 21
-77.11464852898895
 31
0.0
  0
LINE
  5
E5
330
1F
100
AcDbEntity
  8
1
  6
Continuous
 62
     7
100
AcDbLine
 10
-164.9148523042699
 20
-20.61464852898895
 30
0.0
 11
-164.91485230427
 21
-55.61464852898895
 31
0.0
  0
LINE
  5
E6
330
1F
100
AcDbEntity
  8
1
  6
Continuous
 62
     7
100
AcDbLine
 10
-10.66876032016936
 20
-56.68918859156344
 30
0.0
 11
-0.66876032016924
 21
-56.68918859156351
 31
0.0
  0
LINE
  5
E7
330
1F
100
AcDbEntity
  8
1
  6
Continuous
 62
     7
100
AcDbLine
 10
-10.66876032016924
 20
-88.68918859156351
 30
0.0
 11
-34.16876032016927
 21
-88.68918859156351
 31
0.0
  0
LINE
  5
E8
330
1F
100
AcDbEntity
  8
1
  6
Continuous
 62
     7
100
AcDbLine
 10
-10.66876032016924
 20
-88.68918859156351
 30
0.0
 11
-10.66876032016936
 21
-56.68918859156344
 31
0.0
  0
LINE
  5
E9
330
1F
100
AcDbEntity
  8
1
  6
Continuous
 62
     7
100
AcDbLine
 10
-68.35733264471742
 20
-110.6146485289887
 30
0.0
 11
-68.35733264471742
 21
-120.614648528989
 31
0.0
  0
LINE
  5
EA
330
1F
100
AcDbEntity
  8
1
  6
Continuous
 62
     7
100
AcDbLine
 10
-78.35733264471742
 20
-110.6146485289887
 30
0.0
 11
-68.35733264471742
 21
-110.6146485289887
 31
0.0
  0
LINE
  5
EB
330
1F
100
AcDbEntity
  8
1
  6
Continuous
 62
     7
100
AcDbLine
 10
-78.35733264471742
 20
-89.11464852898895
 30
0.0
 11
-78.35733264471742
 21
-110.6146485289887
 31
0.0
  0
LINE
  5
EC
330
1F
100
AcDbEntity
  8
1
  6
Continuous
 62
     7
100
AcDbLine
 10
-103.8573326447174
 20
-89.11464852898897
 30
0.0
 11
-78.35733264471742
 21
-89.11464852898895
 31
0.0
  0
LINE
  5
ED
330
1F
100
AcDbEntity
  8
1
  6
Continuous
 62
     7
100
AcDbLine
 10
-103.8573326447174
 20
47.88535147101111
 30
0.0
 11
-103.8573326447174
 21
16.38535147101105
 31
0.0
  0
LINE
  5
EE
330
1F
100
AcDbEntity
  8
1
  6
Continuous
 62
     7
100
AcDbLine
 10
-78.35733264471742
 20
47.88535147101108
 30
0.0
 11
-103.8573326447174
 21
47.88535147101111
 31
0.0
  0
LINE
  5
EF
330
1F
100
AcDbEntity
  8
1
  6
Continuous
 62
     7
100
AcDbLine
 10
-78.35733264471742
 20
69.3853514710111
 30
0.0
 11
-78.35733264471742
 21
47.88535147101108
 31
0.0
  0
LINE
  5
F0
330
1F
100
AcDbEntity
  8
1
  6
Continuous
 62
     7
100
AcDbLine
 10
-68.35733264471742
 20
69.3853514710111
 30
0.0
 11
-68.35733264471742
 21
16.38535147101105
 31
0.0
  0
LINE
  5
F1
330
1F
100
AcDbEntity
  8
1
  6
Continuous
 62
     7
100
AcDbLine
 10
-68.35733264471742
 20
69.3853514710111
 30
0.0
 11
-78.35733264471742
 21
69.3853514710111
 31
0.0
  0
LINE
  5
F2
330
1F
100
AcDbEntity
  8
1
  6
DOT_CENTER
 62
     2
100
AcDbLine
 10
-68.35733264471742
 20
-120.614648528989
 30
0.0
 11
-55.35733264471736
 21
-120.614648528989
 31
0.0
  0
LINE
  5
F3
330
1F
100
AcDbEntity
  8
1
  6
DOT_CENTER
 62
     2
100
AcDbLine
 10
-68.35733264471742
 20
79.385351471011
 30
0.0
 11
-55.35733264471736
 21
79.385351471011
 31
0.0
  0
LINE
  5
F4
330
1F
100
AcDbEntity
  8
1
  6
Continuous
 62
     7
100
AcDbLine
 10
-68.35733264471742
 20
79.385351471011
 30
0.0
 11
-68.35733264471742
 21
69.3853514710111
 31
0.0
  0
LINE
  5
F5
330
1F
100
AcDbEntity
  8
1
  6
DOT_CENTER
 62
     2
100
AcDbLine
 10
-55.35733264471736
 20
-120.614648528989
 30
0.0
 11
-50.84744871881924
 21
-120.614648528989
 31
0.0
  0
LINE
  5
F6
330
1F
100
AcDbEntity
  8
1
  6
DOT_CENTER
 62
     2
100
AcDbLine
 10
-55.35733264471736
 20
79.385351471011
 30
0.0
 11
-50.84744871881924
 21
79.385351471011
 31
0.0
  0
LINE
  5
F7
330
1F
100
AcDbEntity
  8
1
  6
Continuous
 62
     7
100
AcDbLine
 10
-55.35733264471736
 20
-120.614648528989
 30
0.0
 11
-55.35733264471736
 21
-57.61464852898895
 31
0.0
  0
LINE
  5
F8
330
1F
100
AcDbEntity
  8
1
  6
DOT_CENTER
 62
     2
100
AcDbLine
 10
-111.3573326447174
 20
-120.614648528989
 30
0.0
 11
-68.35733264471742
 21
-120.614648528989
 31
0.0
  0
LINE
  5
F9
330
1F
100
AcDbEntity
  8
1
  6
DOT_CENTER
 62
     2
100
AcDbLine
 10
-111.3573326447174
 20
79.385351471011
 30
0.0
 11
-68.35733264471742
 21
79.385351471011
 31
0.0
  0
LINE
  5
FA
330
1F
100
AcDbEntity
  8
1
  6
Continuous
 62
     7
100
AcDbLine
 10
-111.3573326447174
 20
79.385351471011
 30
0.0
 11
-111.3573326447174
 21
16.38535147101105
 31
0.0
  0
LINE
  5
FB
330
1F
100
AcDbEntity
  8
1
  6
DOT_CENTER
 62
     2
100
AcDbLine
 10
-114.119084989988
 20
-120.614648528989
 30
0.0
 11
-111.3573326447174
 21
-120.614648528989
 31
0.0
  0
LINE
  5
FC
330
1F
100
AcDbEntity
  8
1
  6
DOT_CENTER
 62
     2
100
AcDbLine
 10
-114.119084989988
 20
-20.61464852898895
 30
0.0
 11
-50.84744871881924
 21
-20.61464852898895
 31
0.0
  0
LINE
  5
FD
330
1F
100
AcDbEntity
  8
1
  6
DOT_CENTER
 62
     2
100
AcDbLine
 10
-114.119084989988
 20
79.385351471011
 30
0.0
 11
-111.3573326447174
 21
79.385351471011
 31
0.0
  0
LINE
  5
FE
330
1F
100
AcDbEntity
  8
1
  6
DOT_CENTER
 62
     2
100
AcDbLine
 10
-158.91485230427
 20
-120.614648528989
 30
0.0
 11
-138.349335539947
 21
-120.614648528989
 31
0.0
  0
LINE
  5
FF
330
1F
100
AcDbEntity
  8
1
  6
DOT_CENTER
 62
     2
100
AcDbLine
 10
-158.91485230427
 20
79.385351471011
 30
0.0
 11
-138.349335539947
 21
79.385351471011
 31
0.0
  0
LINE
  5
100
330
1F
100
AcDbEntity
  8
1
  6
Continuous
 62
     7
100
AcDbLine
 10
-158.91485230427
 20
79.385351471011
 30
0.0
 11
-158.91485230427
 21
16.38535147101104
 31
0.0
  0
LINE
  5
101
330
1F
100
AcDbEntity
  8
1
  6
DOT_CENTER
 62
     2
100
AcDbLine
 10
-200.91485230427
 20
-120.614648528989
 30
0.0
 11
-158.91485230427
 21
-120.614648528989
 31
0.0
  0
LINE
  5
102
330
1F
100
AcDbEntity
  8
1
  6
DOT_CENTER
 62
     2
100
AcDbLine
 10
-200.91485230427
 20
79.385351471011
 30
0.0
 11
-158.91485230427
 21
79.385351471011
 31
0.0
  0
LINE
  5
103
330
1F
100
AcDbEntity
  8
1
  6
Continuous
 62
     7
100
AcDbLine
 10
-200.91485230427
 20
79.385351471011
 30
0.0
 11
-200.91485230427
 21
16.38535147101105
 31
0.0
  0
LINE
  5
104
330
1F
100
AcDbEntity
  8
1
  6
DOT_CENTER
 62
     2
100
AcDbLine
 10
-138.349335539947
 20
79.385351471011
 30
0.0
 11
-138.349335539947
 21
81.77063309968568
 31
0.0
  0
LINE
  5
105
330
1F
100
AcDbEntity
  8
1
  6
DOT_CENTER
 62
     2
100
AcDbLine
 10
-138.349335539947
 20
-120.614648528989
 30
0.0
 11
-138.349335539947
 21
-123.894846638247
 31
0.0
  0
LINE
  5
106
330
1F
100
AcDbEntity
  8
1
  6
DOT_CENTER
 62
     2
100
AcDbLine
 10
-138.349335539947
 20
-120.614648528989
 30
0.0
 11
-135.3938869162998
 21
-120.614648528989
 31
0.0
  0
LINE
  5
107
330
1F
100
AcDbEntity
  8
1
  6
DOT_CENTER
 62
     2
100
AcDbLine
 10
-138.349335539947
 20
79.385351471011
 30
0.0
 11
-135.3938869162998
 21
79.385351471011
 31
0.0
  0
LINE
  5
108
330
1F
100
AcDbEntity
  8
1
  6
DOT_CENTER
 62
     2
100
AcDbLine
 10
-138.349335539947
 20
79.385351471011
 30
0.0
 11
-138.349335539947
 21
-120.614648528989
 31
0.0
  0
LINE
  5
109
330
1F
100
AcDbEntity
  8
1
  6
DOT_CENTER
 62
     2
100
AcDbLine
 10
-203.6556346287789
 20
-120.614648528989
 30
0.0
 11
-200.91485230427
 21
-120.614648528989
 31
0.0
  0
LINE
  5
10A
330
1F
100
AcDbEntity
  8
1
  6
DOT_CENTER
 62
     2
100
AcDbLine
 10
-203.6556346287789
 20
79.385351471011
 30
0.0
 11
-200.91485230427
 21
79.385351471011
 31
0.0
  0
LINE
  5
10B
330
1F
100
AcDbEntity
  8
1
  6
Continuous
 62
     7
100
AcDbLine
 10
-0.66876032016924
 20
-92.68918859156351
 30
0.0
 11
-41.66876032016923
 21
-92.68918859156351
 31
0.0
  0
LINE
  5
10C
330
1F
100
AcDbEntity
  8
1
  6
Continuous
 62
     7
100
AcDbLine
 10
-0.66876032016924
 20
-88.68918859156351
 30
0.0
 11
-0.66876032016924
 21
-92.68918859156351
 31
0.0
  0
LINE
  5
10D
330
1F
100
AcDbEntity
  8
1
  6
DOT_CENTER
 62
     2
100
AcDbLine
 10
12.33123967983078
 20
-31.12367182724053
 30
0.0
 11
-41.66876032016923
 21
-31.12367182724053
 31
0.0
  0
LINE
  5
10E
330
1F
100
AcDbEntity
  8
1
  6
Continuous
 62
     7
100
AcDbLine
 10
12.33123967983078
 20
-47.68918859156351
 30
0.0
 11
12.33123967983078
 21
-31.12367182724053
 31
0.0
  0
LINE
  5
10F
330
1F
100
AcDbEntity
  8
1
  6
Continuous
 62
     7
100
AcDbLine
 10
-0.66876032016936
 20
-47.68918859156351
 30
0.0
 11
12.33123967983078
 21
-47.68918859156351
 31
0.0
  0
LINE
  5
110
330
1F
100
AcDbEntity
  8
1
  6
Continuous
 62
     7
100
AcDbLine
 10
-0.66876032016924
 20
-56.68918859156351
 30
0.0
 11
-0.66876032016936
 21
-47.68918859156351
 31
0.0
  0
LINE
  5
111
330
1F
100
AcDbEntity
  8
1
  6
Continuous
 62
     7
100
AcDbLine
 10
-34.16876032016927
 20
-88.68918859156351
 30
0.0
 11
-34.16876032016936
 21
-56.68918859156356
 31
0.0
  0
LINE
  5
112
330
1F
100
AcDbEntity
  8
1
  6
Continuous
 62
     7
100
AcDbLine
 10
-41.66876032016923
 20
-31.12367182724053
 30
0.0
 11
-41.66876032016923
 21
-92.68918859156351
 31
0.0
  0
LINE
  5
113
330
1F
100
AcDbEntity
  8
1
  6
Continuous
 62
     7
100
AcDbLine
 10
-34.16876032016936
 20
-56.68918859156356
 30
0.0
 11
-10.66876032016936
 21
-56.68918859156344
 31
0.0
  0
LINE
  5
114
330
1F
100
AcDbEntity
  8
1
  6
Continuous
 62
     7
100
AcDbLine
 10
-0.66876032016924
 20
-56.68918859156351
 30
0.0
 11
-0.66876032016924
 21
-88.68918859156351
 31
0.0
  0
LINE
  5
115
330
1F
100
AcDbEntity
  8
1
  6
Continuous
 62
     7
100
AcDbLine
 10
-0.66876032016924
 20
-88.68918859156351
 30
0.0
 11
-10.66876032016924
 21
-88.68918859156351
 31
0.0
  0
LINE
  5
116
330
1F
100
AcDbEntity
  8
1
  6
Continuous
 62
     7
100
AcDbLine
 10
0.33123967983076
 20
-49.42123939913243
 30
0.0
 11
0.33123967983076
 21
-48.68918859156351
 31
0.0
  0
LINE
  5
117
330
1F
100
AcDbEntity
  8
1
  6
Continuous
 62
     7
100
AcDbLine
 10
1.64064075658916
 20
-51.68918859156351
 30
0.0
 11
0.33123967983076
 21
-49.42123939913243
 31
0.0
  0
LINE
  5
118
330
1F
100
AcDbEntity
  8
1
  6
Continuous
 62
     7
100
AcDbLine
 10
10.02183860307224
 20
-51.68918859156351
 30
0.0
 11
1.64064075658916
 21
-51.68918859156351
 31
0.0
  0
LINE
  5
119
330
1F
100
AcDbEntity
  8
1
  6
Continuous
 62
     7
100
AcDbLine
 10
11.33123967983078
 20
-49.42123939913243
 30
0.0
 11
10.02183860307224
 21
-51.68918859156351
 31
0.0
  0
LINE
  5
11A
330
1F
100
AcDbEntity
  8
1
  6
Continuous
 62
     7
100
AcDbLine
 10
11.33123967983078
 20
-48.68918859156351
 30
0.0
 11
11.33123967983078
 21
-49.42123939913243
 31
0.0
  0
LINE
  5
11B
330
1F
100
AcDbEntity
  8
1
  6
Continuous
 62
     7
100
AcDbLine
 10
0.33123967983076
 20
-48.68918859156351
 30
0.0
 11
11.33123967983078
 21
-48.68918859156351
 31
0.0
  0
LINE
  5
11C
330
1F
100
AcDbEntity
  8
1
  6
Continuous
 62
     7
100
AcDbLine
 10
12.33123967983078
 20
-49.68918859156351
 30
0.0
 11
12.33123967983078
 21
-47.68918859156351
 31
0.0
  0
LINE
  5
11D
330
1F
100
AcDbEntity
  8
1
  6
Continuous
 62
     7
100
AcDbLine
 10
10.59918887226189
 20
-52.68918859156351
 30
0.0
 11
12.33123967983078
 21
-49.68918859156351
 31
0.0
  0
LINE
  5
11E
330
1F
100
AcDbEntity
  8
1
  6
Continuous
 62
     7
100
AcDbLine
 10
1.06329048739954
 20
-52.68918859156351
 30
0.0
 11
10.59918887226189
 21
-52.68918859156351
 31
0.0
  0
LINE
  5
11F
330
1F
100
AcDbEntity
  8
1
  6
Continuous
 62
     7
100
AcDbLine
 10
-0.66876032016924
 20
-49.68918859156351
 30
0.0
 11
1.06329048739954
 21
-52.68918859156351
 31
0.0
  0
LINE
  5
120
330
1F
100
AcDbEntity
  8
1
  6
DOT_CENTER
 62
     2
100
AcDbLine
 10
-41.66876032016923
 20
-31.12367182724053
 30
0.0
 11
-44.13702885639437
 21
-31.12367182724053
 31
0.0
  0
LINE
  5
121
330
1F
100
AcDbEntity
  8
1
  6
DOT_CENTER
 62
     2
100
AcDbLine
 10
12.33123967983078
 20
-31.12367182724053
 30
0.0
 11
14.4310199439095
 21
-31.12367182724053
 31
0.0
  0
LINE
  5
122
330
1F
100
AcDbEntity
  8
1
  6
Continuous
 62
     7
100
AcDbLine
 10
-196.91485230427
 20
-20.61464852898895
 30
0.0
 11
-196.91485230427
 21
-55.61464852898895
 31
0.0
  0
LINE
  5
123
330
1F
100
AcDbEntity
  8
1
  6
Continuous
 62
     7
100
AcDbLine
 10
-184.91485230427
 20
47.88535147101108
 30
0.0
 11
-176.91485230427
 21
47.88535147101111
 31
0.0
  0
LINE
  5
124
330
1F
100
AcDbEntity
  8
1
  6
Continuous
 62
     7
100
AcDbLine
 10
-184.91485230427
 20
-89.1146485289887
 30
0.0
 11
-176.9148523042697
 21
-89.1146485289887
 31
0.0
  0
LINE
  5
125
330
1F
100
AcDbEntity
  8
1
  6
Continuous
 62
     7
100
AcDbLine
 10
-164.91485230427
 20
53.38535147101105
 30
0.0
 11
-164.9148523042699
 21
35.88535147101108
 31
0.0
  0
LINE
  5
126
330
1F
100
AcDbEntity
  8
1
  6
Continuous
 62
     7
100
AcDbLine
 10
-196.91485230427
 20
53.38535147101105
 30
0.0
 11
-196.91485230427
 21
35.88535147101108
 31
0.0
  0
LINE
  5
127
330
1F
100
AcDbEntity
  8
1
  6
Continuous
 62
     7
100
AcDbLine
 10
-164.9148523042699
 20
35.88535147101108
 30
0.0
 11
-164.9148523042699
 21
16.38535147101105
 31
0.0
  0
LINE
  5
128
330
1F
100
AcDbEntity
  8
1
  6
Continuous
 62
     7
100
AcDbLine
 10
-196.91485230427
 20
35.88535147101108
 30
0.0
 11
-196.91485230427
 21
16.38535147101105
 31
0.0
  0
LINE
  5
129
330
1F
100
AcDbEntity
  8
1
  6
Continuous
 62
     7
100
AcDbLine
 10
-196.91485230427
 20
-77.1146485289887
 30
0.0
 11
-196.91485230427
 21
-94.61464852898895
 31
0.0
  0
LINE
  5
12A
330
1F
100
AcDbEntity
  8
1
  6
Continuous
 62
     7
100
AcDbLine
 10
-164.91485230427
 20
-77.11464852898868
 30
0.0
 11
-164.91485230427
 21
-94.61464852898895
 31
0.0
  0
LINE
  5
12B
330
1F
100
AcDbEntity
  8
1
  6
DOT_CENTER
 62
     2
100
AcDbLine
 10
-174.1648523042701
 20
54.38535147101111
 30
0.0
 11
-169.6648523042701
 21
54.38535147101111
 31
0.0
  0
LINE
  5
12C
330
1F
100
AcDbEntity
  8
1
  6
DOT_CENTER
 62
     2
100
AcDbLine
 10
-171.9148523042701
 20
52.13535147101111
 30
0.0
 11
-171.9148523042701
 21
56.63535147101111
 31
0.0
  0
LINE
  5
12D
330
1F
100
AcDbEntity
  8
1
  6
DOT_CENTER
 62
     2
100
AcDbLine
 10
-192.1648523042701
 20
54.38535147101111
 30
0.0
 11
-187.6648523042701
 21
54.38535147101111
 31
0.0
  0
LINE
  5
12E
330
1F
100
AcDbEntity
  8
1
  6
DOT_CENTER
 62
     2
100
AcDbLine
 10
-189.9148523042701
 20
52.13535147101111
 30
0.0
 11
-189.9148523042701
 21
56.63535147101111
 31
0.0
  0
LINE
  5
12F
330
1F
100
AcDbEntity
  8
1
  6
DOT_CENTER
 62
     2
100
AcDbLine
 10
-180.9148523042701
 20
71.8558189615838
 30
0.0
 11
-180.9148523042701
 21
-115.2569032480472
 31
0.0
  0
LINE
  5
130
330
1F
100
AcDbEntity
  8
1
  6
DOT_CENTER
 62
     2
100
AcDbLine
 10
-203.657794284912
 20
-20.61464852898895
 30
0.0
 11
-154.279696207698
 21
-20.61464852898895
 31
0.0
  0
LINE
  5
131
330
1F
100
AcDbEntity
  8
1
  6
DOT_CENTER
 62
     2
100
AcDbLine
 10
-144.324895871924
 20
-20.61464852898895
 30
0.0
 11
-135.3938869162998
 21
-20.61464852898895
 31
0.0
  0
ARC
  5
132
330
1F
100
AcDbEntity
  8
1
  6
Continuous
 62
     7
100
AcDbCircle
 10
150.9068397520139
 20
35.88535147101105
 30
0.0
 40
12.0
100
AcDbArc
 50
90.0
 51
180.0
  0
ARC
  5
133
330
1F
100
AcDbEntity
  8
1
  6
Continuous
 62
     7
100
AcDbCircle
 10
158.9068397520139
 20
35.88535147101105
 30
0.0
 40
12.0
100
AcDbArc
 50
0.0
 51
90.0
  0
ARC
  5
134
330
1F
100
AcDbEntity
  8
1
  6
Continuous
 62
     7
100
AcDbCircle
 10
158.9068397520139
 20
-77.11464852898895
 30
0.0
 40
12.0
100
AcDbArc
 50
-90.0
 51
0.0
  0
ARC
  5
135
330
1F
100
AcDbEntity
  8
1
  6
Continuous
 62
     7
100
AcDbCircle
 10
150.9068397520139
 20
-77.11464852898895
 30
0.0
 40
12.0
100
AcDbArc
 50
180.0
 51
-90.0
  0
ARC
  5
136
330
1F
100
AcDbEntity
  8
1
  6
Continuous
 62
     7
100
AcDbCircle
 10
154.9068397520139
 20
53.38535147101105
 30
0.0
 40
16.0
100
AcDbArc
 50
0.0
 51
180.0
  0
ARC
  5
137
330
1F
100
AcDbEntity
  8
1
  6
Continuous
 62
     7
100
AcDbCircle
 10
154.9068397520139
 20
-94.61464852898895
 30
0.0
 40
16.0
100
AcDbArc
 50
180.0
 51
0.0
  0
ARC
  5
138
330
1F
100
AcDbEntity
  8
1
  6
Continuous
 62
     7
100
AcDbCircle
 10
-180.91485230427
 20
53.38535147101105
 30
0.0
 40
16.00000000000006
100
AcDbArc
 50
90.0
 51
180.0
  0
ARC
  5
139
330
1F
100
AcDbEntity
  8
1
  6
Continuous
 62
     7
100
AcDbCircle
 10
-180.9148523042697
 20
-94.61464852898895
 30
0.0
 40
15.99999999999974
100
AcDbArc
 50
-90.0
 51
0.0
  0
ARC
  5
13A
330
1F
100
AcDbEntity
  8
1
  6
Continuous
 62
     7
100
AcDbCircle
 10
-176.91485230427
 20
35.88535147101108
 30
0.0
 40
12.00000000000009
100
AcDbArc
 50
0.0
 51
90.0
  0
ARC
  5
13B
330
1F
100
AcDbEntity
  8
1
  6
Continuous
 62
     7
100
AcDbCircle
 10
-184.91485230427
 20
35.88535147101108
 30
0.0
 40
12.0
100
AcDbArc
 50
90.0
 51
180.0
  0
ARC
  5
13C
330
1F
100
AcDbEntity
  8
1
  6
Continuous
 62
     7
100
AcDbCircle
 10
-184.91485230427
 20
-77.1146485289887
 30
0.0
 40
12.0
100
AcDbArc
 50
180.0
 51
-90.0
  0
ARC
  5
13D
330
1F
100
AcDbEntity
  8
1
  6
Continuous
 62
     7
100
AcDbCircle
 10
-176.9148523042697
 20
-77.1146485289887
 30
0.0
 40
12.0
100
AcDbArc
 50
-90.0
 51
0.00000000000007
  0
ARC
  5
13E
330
1F
100
AcDbEntity
  8
1
  6
Continuous
 62
     7
100
AcDbCircle
 10
-180.9148523042697
 20
-94.61464852898895
 30
0.0
 40
16.00000000000031
100
AcDbArc
 50
180.0
 51
-90.0
  0
ARC
  5
13F
330
1F
100
AcDbEntity
  8
1
  6
Continuous
 62
     7
100
AcDbCircle
 10
-180.91485230427
 20
53.38535147101105
 30
0.0
 40
16.0
100
AcDbArc
 50
0.0
 51
90.0
  0
CIRCLE
  5
140
330
1F
100
AcDbEntity
  8
1
  6
Continuous
 62
     7
100
AcDbCircle
 10
145.4068397520139
 20
-95.61464852898895
 30
0.0
 40
1.5
  0
CIRCLE
  5
141
330
1F
100
AcDbEntity
  8
1
  6
Continuous
 62
     7
100
AcDbCircle
 10
164.4068397520139
 20
-95.61464852898895
 30
0.0
 40
1.5
  0
CIRCLE
  5
142
330
1F
100
AcDbEntity
  8
1
  6
Continuous
 62
     7
100
AcDbCircle
 10
145.4068397520139
 20
54.38535147101105
 30
0.0
 40
1.5
  0
CIRCLE
  5
143
330
1F
100
AcDbEntity
  8
1
  6
Continuous
 62
     7
100
AcDbCircle
 10
164.4068397520139
 20
54.38535147101105
 30
0.0
 40
1.5
  0
CIRCLE
  5
144
330
1F
100
AcDbEntity
  8
1
  6
Continuous
 62
     7
100
AcDbCircle
 10
-189.9148523042701
 20
-95.6146485289887
 30
0.0
 40
1.5
  0
CIRCLE
  5
145
330
1F
100
AcDbEntity
  8
1
  6
Continuous
 62
     7
100
AcDbCircle
 10
-171.9148523042701
 20
-95.6146485289887
 30
0.0
 40
1.5
  0
CIRCLE
  5
146
330
1F
100
AcDbEntity
  8
1
  6
Continuous
 62
     7
100
AcDbCircle
 10
-171.9148523042701
 20
54.38535147101111
 30
0.0
 40
1.5
  0
CIRCLE
  5
147
330
1F
100
AcDbEntity
  8
1
  6
Continuous
 62
     7
100
AcDbCircle
 10
-189.9148523042701
 20
54.38535147101111
 30
0.0
 40
1.5
  0
CIRCLE
  5
148
330
1F
100
AcDbEntity
  8
1
  6
DOT_CENTER
 62
     2
100
AcDbCircle
 10
-176.91485230427
 20
-94.61464852898895
 30
0.0
 40
12.0
  0
CIRCLE
  5
149
330
1F
100
AcDbEntity
  8
1
  6
DOT_CENTER
 62
     2
100
AcDbCircle
 10
150.9068397520139
 20
-94.61464852898895
 30
0.0
 40
12.0
  0
MTEXT
  5
14B
330
1F
100
AcDbEntity
  8
1
 62
     3
100
AcDbMText
 10
28.65722620659244
 20
-137.1382832889033
 30
0.0
 40
5.0
 41
0.0
 71
     5
 72
     1
  1
Flügel
  7
CONVERTER_11
 73
     1
 44
1.20048019207683
  0
MTEXT
  5
14C
330
1F
100
AcDbEntity
  8
1
 62
     3
100
AcDbMText
 10
-35.66045484007687
 20
-149.1182392210103
 30
0.0
 40
5.0
 41
0.0
 71
     5
 72
     1
  1
Rahmen
  7
CONVERTER_11
 73
     1
 44
1.20048019207683
  0
MTEXT
  5
14D
330
1F
100
AcDbEntity
  8
1
 62
     3
100
AcDbMText
 10
32.84999588852313
 20
-125.2030034037318
 30
0.0
 40
5.0
 41
0.0
 71
     5
 72
     1
  1
Fräsbild
  7
CONVERTER_11
 73
     1
 44
1.32052821128451
  0
MTEXT
  5
14E
330
1F
100
AcDbEntity
  8
1
 62
     3
100
AcDbMText
 10
-51.31628452862638
 20
-131.7487481199814
 30
0.0
 40
5.0
 41
0.0
 71
     4
 72
     1
  1
Fräsbild\PBlockzarge
  7
CONVERTER_11
 73
     1
 44
1.32052821128451
  0
DIMENSION
  5
159
330
1F
100
AcDbEntity
  8
1
100
AcDbDimension
  2
*D1
 10
-127.446561371004
 20
-95.61464852898867
 30
0.0
 11
-131.196561371004
 21
-20.14749160524353
 31
0.0
 70
    32
  1
210
 71
     5
 42
-1.0
 53
90.0
  3
ME10_DIM_10
100
AcDbAlignedDimension
 13
-169.6648523042701
 23
54.38535147101111
 33
0.0
 14
-169.6648523042701
 24
-95.6146485289887
 34
0.0
 50
90.0
100
AcDbRotatedDimension
  0
DIMENSION
  5
164
330
1F
100
AcDbEntity
  8
1
100
AcDbDimension
  2
*D2
 10
-68.35733264471742
 20
-139.2746447316279
 30
0.0
 11
-86.3626968361103
 21
-135.5246447316279
 31
0.0
 70
    32
  1
<>
 71
     5
 42
-1.0
 53
0.00013888888889
  3
ME10_DIM_11
100
AcDbAlignedDimension
 13
-103.8573326447174
 23
-89.11464852898897
 33
0.0
 14
-68.35733264471742
 24
-110.6146485289887
 34
0.0
100
AcDbRotatedDimension
  0
DIMENSION
  5
171
330
1F
100
AcDbEntity
  8
1
100
AcDbDimension
  2
*D3
 10
-23.17515141969547
 20
-92.68918859156351
 30
0.0
 11
-26.92515141969547
 21
-99.9268849186211
 31
0.0
 70
    32
  1
X
 71
     5
 42
-1.0
 53
90.0
  3
ME10_DIM_12
100
AcDbAlignedDimension
 13
-34.16876032016927
 23
-88.68918859156351
 33
0.0
 14
-41.66876032016923
 24
-92.68918859156351
 34
0.0
 50
90.0
100
AcDbRotatedDimension
  0
DIMENSION
  5
17C
330
1F
100
AcDbEntity
  8
1
100
AcDbDimension
  2
*D4
 10
-78.35733264471742
 20
-130.2566310837739
 30
0.0
 11
-74.28969881964929
 21
-126.5066310837739
 31
0.0
 70
    32
  1
<>
 71
     5
 42
-1.0
 53
0.00013888888889
  3
ME10_DIM_13
100
AcDbAlignedDimension
 13
-68.35733264471742
 23
-120.614648528989
 33
0.0
 14
-78.35733264471742
 24
-110.6146485289887
 34
0.0
100
AcDbRotatedDimension
  0
DIMENSION
  5
187
330
1F
100
AcDbEntity
  8
1
100
AcDbDimension
  2
*D5
 10
-46.78686100436367
 20
-92.68918859156351
 30
0.0
 11
-50.53686100436367
 21
-72.37015165379738
 31
0.0
 70
    32
  1
A
 71
     5
 42
-1.0
 53
90.0
  3
ME10_DIM_14
100
AcDbAlignedDimension
 13
1.06329048739954
 23
-52.68918859156351
 33
0.0
 14
-41.66876032016923
 24
-92.68918859156351
 34
0.0
 50
90.0
100
AcDbRotatedDimension
  0
DIMENSION
  5
192
330
1F
100
AcDbEntity
  8
1
100
AcDbDimension
  2
*D6
 10
-119.444265640198
 20
69.3853514710111
 30
0.0
 11
-123.194265640198
 21
-20.25914290622809
 31
0.0
 70
    32
  1
240
 71
     5
 42
-1.0
 53
90.0
  3
ME10_DIM_15
100
AcDbAlignedDimension
 13
-180.9148523042697
 23
-110.6146485289887
 33
0.0
 14
-180.91485230427
 24
69.3853514710111
 34
0.0
 50
90.0
100
AcDbRotatedDimension
  0
DIMENSION
  5
19D
330
1F
100
AcDbEntity
  8
1
100
AcDbDimension
  2
*D7
 10
-146.307968487826
 20
-89.11464852898872
 30
0.0
 11
-150.057968487826
 21
-18.67876919362649
 31
0.0
 70
    32
  1
197
 71
     5
 42
-1.0
 53
90.0
  3
ME10_DIM_16
100
AcDbAlignedDimension
 13
-176.91485230427
 23
47.88535147101111
 33
0.0
 14
-176.9148523042697
 24
-89.1146485289887
 34
0.0
 50
90.0
100
AcDbRotatedDimension
  0
DIMENSION
  5
1A8
330
1F
100
AcDbEntity
  8
1
100
AcDbDimension
  2
*D8
 10
71.19350625828599
 20
-128.729476198668
 30
0.0
 11
66.6750179222762
 21
-124.979476198668
 31
0.0
 70
    32
  1
<>
 71
     5
 42
-1.0
 53
0.00013888888889
  3
ME10_DIM_17
100
AcDbAlignedDimension
 13
61.19350625828599
 23
-120.614648528989
 33
0.0
 14
71.19350625828599
 24
-110.614648528989
 34
0.0
100
AcDbRotatedDimension
  0
DIMENSION
  5
1B3
330
1F
100
AcDbEntity
  8
1
100
AcDbDimension
  2
*D9
 10
61.19350625828591
 20
-138.6142090488623
 30
0.0
 11
79.50097618495761
 21
-134.8642090488623
 31
0.0
 70
    32
  1
<>
 71
     5
 42
-1.0
 53
0.00013888888889
  3
ME10_DIM_18
100
AcDbAlignedDimension
 13
97.69350625828599
 23
-89.11464852898894
 33
0.0
 14
61.19350625828599
 24
-110.614648528989
 34
0.0
100
AcDbRotatedDimension
  0
DIMENSION
  5
1BE
330
1F
100
AcDbEntity
  8
1
100
AcDbDimension
  2
*D10
 10
129.993207257249
 20
47.88535147101105
 30
0.0
 11
126.243207257249
 21
-16.53532038282324
 31
0.0
 70
    32
  1
197
 71
     5
 42
-1.0
 53
90.0
  3
ME10_DIM_19
100
AcDbAlignedDimension
 13
150.9068397520139
 23
-89.11464852898895
 33
0.0
 14
150.9068397520139
 24
47.88535147101105
 34
0.0
 50
90.0
100
AcDbRotatedDimension
  0
DIMENSION
  5
1C9
330
1F
100
AcDbEntity
  8
1
100
AcDbDimension
  2
*D11
 10
170.9068397520139
 20
-128.729476198668
 30
0.0
 11
155.975158986821
 21
-124.979476198668
 31
0.0
 70
    32
  1
<>
 71
     5
 42
-1.0
 53
0.00013888888889
  3
ME10_DIM_20
100
AcDbAlignedDimension
 13
138.9068397520139
 23
-94.61464852898895
 33
0.0
 14
170.9068397520139
 24
-94.61464852898895
 34
0.0
100
AcDbRotatedDimension
  0
DIMENSION
  5
1D4
330
1F
100
AcDbEntity
  8
1
100
AcDbDimension
  2
*D12
 10
55.73157899085594
 20
-92.68918859156351
 30
0.0
 11
51.98157899085594
 21
-71.7730098904355
 31
0.0
 70
    32
  1
B
 71
     5
 42
-1.0
 53
90.0
  3
ME10_DIM_21
100
AcDbAlignedDimension
 13
46.83123967983067
 23
-52.68918859156351
 33
0.0
 14
46.83123967983067
 24
-92.68918859156351
 34
0.0
 50
90.0
100
AcDbRotatedDimension
  0
DIMENSION
  5
1E1
330
1F
100
AcDbEntity
  8
1
100
AcDbDimension
  2
*D13
 10
30.21081070804353
 20
-92.68918859156351
 30
0.0
 11
26.6618579323537
 21
-100.176156920623
 31
0.0
 70
    32
  1
<>
 71
     5
 42
-1.0
 53
90.0
  3
ME10_DIM_22
100
AcDbAlignedDimension
 13
39.33123967983048
 23
-88.68918859156351
 33
0.0
 14
46.83123967983067
 24
-92.68918859156351
 34
0.0
 50
90.0
100
AcDbRotatedDimension
  0
DIMENSION
  5
1EC
330
1F
100
AcDbEntity
  8
1
100
AcDbDimension
  2
*D14
 10
164.4068397520139
 20
34.5451568829076
 30
0.0
 11
159.7219844055655
 21
38.2951568829076
 31
0.0
 70
    32
  1
<>
 71
     5
 42
-1.0
 53
0.00013888888889
  3
ME10_DIM_23
100
AcDbAlignedDimension
 13
145.4068397520139
 23
52.13535147101105
 33
0.0
 14
164.4068397520139
 24
52.13535147101105
 34
0.0
100
AcDbRotatedDimension
  0
DIMENSION
  5
1F7
330
1F
100
AcDbEntity
  8
1
100
AcDbDimension
  2
*D15
 10
-189.9148523042701
 20
35.9351702982229
 30
0.0
 11
-184.591433398381
 21
39.6851702982229
 31
0.0
 70
    32
  1
<>
 71
     5
 42
-1.0
 53
0.00013888888889
  3
ME10_DIM_24
100
AcDbAlignedDimension
 13
-171.9148523042701
 23
52.13535147101111
 33
0.0
 14
-189.9148523042701
 24
52.13535147101111
 34
0.0
100
AcDbRotatedDimension
  0
DIMENSION
  5
204
330
1F
100
AcDbEntity
  8
1
100
AcDbDimension
  2
*D16
 10
174.9068397520139
 20
-128.729476198668
 30
0.0
 11
172.634183242026
 21
-124.979476198668
 31
0.0
 70
    32
  1
<>
 71
     5
 42
-1.0
 53
0.00013888888889
  3
ME10_DIM_25
100
AcDbAlignedDimension
 13
170.9068397520139
 23
-94.61464852898895
 33
0.0
 14
174.9068397520139
 24
-120.614648528989
 34
0.0
100
AcDbRotatedDimension
  0
DIMENSION
  5
20F
330
1F
100
AcDbEntity
  8
1
100
AcDbDimension
  2
*D17
 10
122.759403130789
 20
54.38535147101105
 30
0.0
 11
119.009403130789
 21
-17.0077646540469
 31
0.0
 70
    32
  1
210
 71
     5
 42
-1.0
 53
90.0
  3
ME10_DIM_26
100
AcDbAlignedDimension
 13
143.1568397520139
 23
-95.61464852898895
 33
0.0
 14
143.1568397520139
 24
54.38535147101105
 34
0.0
 50
90.0
100
AcDbRotatedDimension
  0
DIMENSION
  5
21C
330
1F
100
AcDbEntity
  8
1
100
AcDbDimension
  2
*D18
 10
-200.91485230427
 20
-130.2566310837739
 30
0.0
 11
-203.776615557664
 21
-126.5066310837739
 31
0.0
 70
    32
  1
X
 71
     5
 42
-1.0
 53
0.00013888888889
  3
ME10_DIM_27
100
AcDbAlignedDimension
 13
-196.91485230427
 23
-94.61464852898895
 33
0.0
 14
-200.91485230427
 24
-120.614648528989
 34
0.0
100
AcDbRotatedDimension
  0
DIMENSION
  5
227
330
1F
100
AcDbEntity
  8
1
100
AcDbDimension
  2
*D19
 10
-196.91485230427
 20
-130.2566310837739
 30
0.0
 11
-181.452925376808
 21
-126.5066310837739
 31
0.0
 70
    32
  1
<>
 71
     5
 42
-1.0
 53
0.00013888888889
  3
ME10_DIM_28
100
AcDbAlignedDimension
 13
-164.91485230427
 23
-94.61464852898895
 33
0.0
 14
-196.91485230427
 24
-94.61464852898895
 34
0.0
100
AcDbRotatedDimension
  0
INSERT
  5
22E
330
1F
100
AcDbEntity
  8
1
100
AcDbBlockReference
  2
*D20
 10
0.0
 20
0.0
 30
0.0
  0
INSERT
  5
233
330
1F
100
AcDbEntity
  8
1
100
AcDbBlockReference
  2
*D21
 10
0.0
 20
0.0
 30
0.0
  0
INSERT
  5
23C
330
1F
100
AcDbEntity
  8
1
100
AcDbBlockReference
  2
*D22
 10
0.0
 20
0.0
 30
0.0
  0
INSERT
  5
244
330
1F
100
AcDbEntity
  8
1
100
AcDbBlockReference
  2
*D23
 10
0.0
 20
0.0
 30
0.0
  0
INSERT
  5
24C
330
1F
100
AcDbEntity
  8
1
100
AcDbBlockReference
  2
*D24
 10
0.0
 20
0.0
 30
0.0
  0
INSERT
  5
256
330
1F
100
AcDbEntity
  8
1
100
AcDbBlockReference
  2
*D25
 10
0.0
 20
0.0
 30
0.0
  0
ENDSEC
  0
SECTION
  2
OBJECTS
  0
DICTIONARY
  5
C
330
0
100
AcDbDictionary
281
     1
  3
ACAD_GROUP
350
D
  3
ACAD_LAYOUT
350
1A
  3
ACAD_MLINESTYLE
350
17
  3
ACAD_PLOTSETTINGS
350
19
  3
ACAD_PLOTSTYLENAME
350
E
  0
DICTIONARY
  5
D
102
{ACAD_REACTORS
330
C
102
}
330
C
100
AcDbDictionary
281
     1
  0
DICTIONARY
  5
1A
102
{ACAD_REACTORS
330
C
102
}
330
C
100
AcDbDictionary
281
     1
  3
Layout1
350
1E
  3
Layout2
350
26
  3
Model
350
22
  0
DICTIONARY
  5
17
102
{ACAD_REACTORS
330
C
102
}
330
C
100
AcDbDictionary
281
     1
  3
Standard
350
18
  0
DICTIONARY
  5
19
102
{ACAD_REACTORS
330
C
102
}
330
C
100
AcDbDictionary
281
     1
  0
ACDBDICTIONARYWDFLT
  5
E
102
{ACAD_REACTORS
330
C
102
}
330
C
100
AcDbDictionary
281
     1
  3
Normal
350
F
100
AcDbDictionaryWithDefault
340
F
  0
LAYOUT
  5
1E
102
{ACAD_REACTORS
330
1A
102
}
330
1A
100
AcDbPlotSettings
  1

  2

  4

  6

 40
0.0
 41
0.0
 42
0.0
 43
0.0
 44
0.0
 45
0.0
 46
0.0
 47
0.0
 48
0.0
 49
0.0
140
0.0
141
0.0
142
1.0
143
1.0
 70
   688
 72
     0
 73
     0
 74
     5
  7

 75
    16
 76
     0
 77
     2
 78
   300
147
1.0
148
0.0
149
0.0
100
AcDbLayout
  1
Layout1
 70
     1
 71
     1
 10
0.0
 20
0.0
 11
0.0
 21
0.0
 12
0.0
 22
0.0
 32
0.0
 14
0.0
 24
0.0
 34
0.0
 15
0.0
 25
0.0
 35
0.0
146
0.0
 13
0.0
 23
0.0
 33
0.0
 16
1.0
 26
0.0
 36
0.0
 17
0.0
 27
1.0
 37
0.0
 76
     0
330
1B
  0
LAYOUT
  5
26
102
{ACAD_REACTORS
330
1A
102
}
330
1A
100
AcDbPlotSettings
  1

  2

  4

  6

 40
0.0
 41
0.0
 42
0.0
 43
0.0
 44
0.0
 45
0.0
 46
0.0
 47
0.0
 48
0.0
 49
0.0
140
0.0
141
0.0
142
1.0
143
1.0
 70
   688
 72
     0
 73
     0
 74
     5
  7

 75
    16
 76
     0
 77
     2
 78
   300
147
1.0
148
0.0
149
0.0
100
AcDbLayout
  1
Layout2
 70
     1
 71
     2
 10
0.0
 20
0.0
 11
0.0
 21
0.0
 12
0.0
 22
0.0
 32
0.0
 14
0.0
 24
0.0
 34
0.0
 15
0.0
 25
0.0
 35
0.0
146
0.0
 13
0.0
 23
0.0
 33
0.0
 16
1.0
 26
0.0
 36
0.0
 17
0.0
 27
1.0
 37
0.0
 76
     0
330
23
  0
LAYOUT
  5
22
102
{ACAD_REACTORS
330
1A
102
}
330
1A
100
AcDbPlotSettings
  1

  2

  4

  6

 40
0.0
 41
0.0
 42
0.0
 43
0.0
 44
0.0
 45
0.0
 46
0.0
 47
0.0
 48
0.0
 49
0.0
140
0.0
141
0.0
142
1.0
143
1.0
 70
  1712
 72
     0
 73
     0
 74
     0
  7

 75
     0
 76
     0
 77
     2
 78
   300
147
1.0
148
0.0
149
0.0
100
AcDbLayout
  1
Model
 70
     1
 71
     0
 10
0.0
 20
0.0
 11
0.0
 21
0.0
 12
0.0
 22
0.0
 32
0.0
 14
-207.91485230427
 24
-151.6182392210103
 34
0.0
 15
181.9068397520139
 25
81.77063309968568
 35
0.0
146
0.0
 13
0.0
 23
0.0
 33
0.0
 16
1.0
 26
0.0
 36
0.0
 17
0.0
 27
1.0
 37
0.0
 76
     0
330
1F
  0
MLINESTYLE
  5
18
102
{ACAD_REACTORS
330
17
102
}
330
17
100
AcDbMlineStyle
  2
Standard
 70
     0
  3

 62
   256
 51
90.0
 52
90.0
 71
     2
 49
0.5
 62
   256
  6
BYLAYER
 49
-0.5
 62
   256
  6
BYLAYER
  0
ACDBPLACEHOLDER
  5
F
102
{ACAD_REACTORS
330
E
102
}
330
E
  0
ENDSEC
  0
EOF
