  0
SECTION
  2
HEADER
  9
$ACADVER
  1
AC1018
  9
$ACADMAINTVER
 70
     0
  9
$DWGCODEPAGE
  3
ANSI_1252
  9
$INSBASE
 10
0.0
 20
0.0
 30
0.0
  9
$EXTMIN
 10
187.691917460032
 20
93.264522303263
 30
0.0
  9
$EXTMAX
 10
304.139061561898
 20
347.642736924066
 30
0.0
  9
$LIMMIN
 10
0.0
 20
0.0
  9
$LIMMAX
 10
12.0
 20
9.0
  9
$ORTHOMODE
 70
     0
  9
$REGENMODE
 70
     1
  9
$FILLMODE
 70
     1
  9
$QTEXTMODE
 70
     0
  9
$MIRRTEXT
 70
     1
  9
$LTSCALE
 40
1.0
  9
$ATTMODE
 70
     1
  9
$TEXTSIZE
 40
0.2
  9
$TRACEWID
 40
0.05
  9
$TEXTSTYLE
  7
Standard
  9
$CLAYER
  8
0
  9
$CELTYPE
  6
ByLayer
  9
$CECOLOR
 62
   256
  9
$CELTSCALE
 40
1.0
  9
$DISPSILH
 70
     0
  9
$DIMSCALE
 40
1.0
  9
$DIMASZ
 40
0.18
  9
$DIMEXO
 40
0.0625
  9
$DIMDLI
 40
0.38
  9
$DIMRND
 40
0.0
  9
$DIMDLE
 40
0.0
  9
$DIMEXE
 40
0.18
  9
$DIMTP
 40
0.0
  9
$DIMTM
 40
0.0
  9
$DIMTXT
 40
0.18
  9
$DIMCEN
 40
0.09
  9
$DIMTSZ
 40
0.0
  9
$DIMTOL
 70
     0
  9
$DIMLIM
 70
     0
  9
$DIMTIH
 70
     1
  9
$DIMTOH
 70
     1
  9
$DIMSE1
 70
     0
  9
$DIMSE2
 70
     0
  9
$DIMTAD
 70
     0
  9
$DIMZIN
 70
     0
  9
$DIMBLK
  1

  9
$DIMASO
 70
     1
  9
$DIMSHO
 70
     1
  9
$DIMPOST
  1

  9
$DIMAPOST
  1

  9
$DIMALT
 70
     0
  9
$DIMALTD
 70
     2
  9
$DIMALTF
 40
25.4
  9
$DIMLFAC
 40
1.0
  9
$DIMTOFL
 70
     0
  9
$DIMTVP
 40
0.0
  9
$DIMTIX
 70
     0
  9
$DIMSOXD
 70
     0
  9
$DIMSAH
 70
     0
  9
$DIMBLK1
  1

  9
$DIMBLK2
  1

  9
$DIMSTYLE
  2
Standard
  9
$DIMCLRD
 70
     0
  9
$DIMCLRE
 70
     0
  9
$DIMCLRT
 70
     0
  9
$DIMTFAC
 40
1.0
  9
$DIMGAP
 40
0.09
  9
$DIMJUST
 70
     0
  9
$DIMSD1
 70
     0
  9
$DIMSD2
 70
     0
  9
$DIMTOLJ
 70
     1
  9
$DIMTZIN
 70
     0
  9
$DIMALTZ
 70
     0
  9
$DIMALTTZ
 70
     0
  9
$DIMUPT
 70
     0
  9
$DIMDEC
 70
     4
  9
$DIMTDEC
 70
     4
  9
$DIMALTU
 70
     2
  9
$DIMALTTD
 70
     2
  9
$DIMTXSTY
  7
Standard
  9
$DIMAUNIT
 70
     0
  9
$DIMADEC
 70
     0
  9
$DIMALTRND
 40
0.0
  9
$DIMAZIN
 70
     0
  9
$DIMDSEP
 70
    46
  9
$DIMATFIT
 70
     3
  9
$DIMFRAC
 70
     0
  9
$DIMLDRBLK
  1

  9
$DIMLUNIT
 70
     2
  9
$DIMLWD
 70
    -2
  9
$DIMLWE
 70
    -2
  9
$DIMTMOVE
 70
     0
  9
$LUNITS
 70
     2
  9
$LUPREC
 70
     4
  9
$SKETCHINC
 40
0.1
  9
$FILLETRAD
 40
0.5
  9
$AUNITS
 70
     0
  9
$AUPREC
 70
     0
  9
$MENU
  1
.
  9
$ELEVATION
 40
0.0
  9
$PELEVATION
 40
0.0
  9
$THICKNESS
 40
0.0
  9
$LIMCHECK
 70
     0
  9
$CHAMFERA
 40
0.5
  9
$CHAMFERB
 40
0.5
  9
$CHAMFERC
 40
1.0
  9
$CHAMFERD
 40
0.0
  9
$SKPOLY
 70
     0
  9
$TDCREATE
 40
2454816.440948669
  9
$TDUCREATE
 40
2454816.399282002
  9
$TDUPDATE
 40
2454816.440948681
  9
$TDUUPDATE
 40
2454816.399282014
  9
$TDINDWG
 40
0.0000000116
  9
$TDUSRTIMER
 40
0.0000000116
  9
$USRTIMER
 70
     1
  9
$ANGBASE
 50
0.0
  9
$ANGDIR
 70
     0
  9
$PDMODE
 70
     0
  9
$PDSIZE
 40
0.0
  9
$PLINEWID
 40
0.0
  9
$SPLFRAME
 70
     0
  9
$SPLINETYPE
 70
     6
  9
$SPLINESEGS
 70
     8
  9
$HANDSEED
  5
1F4
  9
$SURFTAB1
 70
     6
  9
$SURFTAB2
 70
     6
  9
$SURFTYPE
 70
     6
  9
$SURFU
 70
     6
  9
$SURFV
 70
     6
  9
$UCSBASE
  2

  9
$UCSNAME
  2

  9
$UCSORG
 10
0.0
 20
0.0
 30
0.0
  9
$UCSXDIR
 10
1.0
 20
0.0
 30
0.0
  9
$UCSYDIR
 10
0.0
 20
1.0
 30
0.0
  9
$UCSORTHOREF
  2

  9
$UCSORTHOVIEW
 70
     0
  9
$UCSORGTOP
 10
0.0
 20
0.0
 30
0.0
  9
$UCSORGBOTTOM
 10
0.0
 20
0.0
 30
0.0
  9
$UCSORGLEFT
 10
0.0
 20
0.0
 30
0.0
  9
$UCSORGRIGHT
 10
0.0
 20
0.0
 30
0.0
  9
$UCSORGFRONT
 10
0.0
 20
0.0
 30
0.0
  9
$UCSORGBACK
 10
0.0
 20
0.0
 30
0.0
  9
$PUCSBASE
  2

  9
$PUCSNAME
  2

  9
$PUCSORG
 10
0.0
 20
0.0
 30
0.0
  9
$PUCSXDIR
 10
1.0
 20
0.0
 30
0.0
  9
$PUCSYDIR
 10
0.0
 20
1.0
 30
0.0
  9
$PUCSORTHOREF
  2

  9
$PUCSORTHOVIEW
 70
     0
  9
$PUCSORGTOP
 10
0.0
 20
0.0
 30
0.0
  9
$PUCSORGBOTTOM
 10
0.0
 20
0.0
 30
0.0
  9
$PUCSORGLEFT
 10
0.0
 20
0.0
 30
0.0
  9
$PUCSORGRIGHT
 10
0.0
 20
0.0
 30
0.0
  9
$PUCSORGFRONT
 10
0.0
 20
0.0
 30
0.0
  9
$PUCSORGBACK
 10
0.0
 20
0.0
 30
0.0
  9
$USERI1
 70
     0
  9
$USERI2
 70
     0
  9
$USERI3
 70
     0
  9
$USERI4
 70
     0
  9
$USERI5
 70
     0
  9
$USERR1
 40
14.5
  9
$USERR2
 40
0.0
  9
$USERR3
 40
0.0
  9
$USERR4
 40
0.0
  9
$USERR5
 40
0.0
  9
$WORLDVIEW
 70
     1
  9
$SHADEDGE
 70
     3
  9
$SHADEDIF
 70
    70
  9
$TILEMODE
 70
     1
  9
$MAXACTVP
 70
    64
  9
$PINSBASE
 10
0.0
 20
0.0
 30
0.0
  9
$PLIMCHECK
 70
     0
  9
$PEXTMIN
 10
1.00000000000000E+20
 20
1.00000000000000E+20
 30
1.00000000000000E+20
  9
$PEXTMAX
 10
-1.00000000000000E+20
 20
-1.00000000000000E+20
 30
-1.00000000000000E+20
  9
$PLIMMIN
 10
0.0
 20
0.0
  9
$PLIMMAX
 10
12.0
 20
9.0
  9
$UNITMODE
 70
     0
  9
$VISRETAIN
 70
     1
  9
$PLINEGEN
 70
     0
  9
$PSLTSCALE
 70
     1
  9
$TREEDEPTH
 70
  3020
  9
$CMLSTYLE
  2
Standard
  9
$CMLJUST
 70
     0
  9
$CMLSCALE
 40
1.0
  9
$PROXYGRAPHICS
 70
     1
  9
$MEASUREMENT
 70
     1
  9
$CELWEIGHT
370
    -1
  9
$ENDCAPS
280
     0
  9
$JOINSTYLE
280
     0
  9
$LWDISPLAY
290
     0
  9
$INSUNITS
 70
     1
  9
$HYPERLINKBASE
  1

  9
$STYLESHEET
  1

  9
$XEDIT
290
     1
  9
$CEPSNTYPE
380
     0
  9
$PSTYLEMODE
290
     1
  9
$FINGERPRINTGUID
  2
{EB74AD1D-E44A-491F-93CF-1D138BBF054D}
  9
$VERSIONGUID
  2
{FAEB1C32-E019-11D5-929B-00C0DF256EC4}
  9
$EXTNAMES
290
     1
  9
$PSVPSCALE
 40
0.0
  9
$OLESTARTUP
290
     0
  9
$SORTENTS
280
   127
  9
$INDEXCTL
280
     0
  9
$HIDETEXT
280
     1
  9
$XCLIPFRAME
290
     0
  9
$HALOGAP
280
     0
  9
$OBSCOLOR
 70
   257
  9
$OBSLTYPE
280
     0
  9
$INTERSECTIONDISPLAY
280
     0
  9
$INTERSECTIONCOLOR
 70
   257
  9
$DIMASSOC
280
     2
  9
$PROJECTNAME
  1

  0
ENDSEC
  0
SECTION
  2
CLASSES
  0
CLASS
  1
ACDBDICTIONARYWDFLT
  2
AcDbDictionaryWithDefault
  3
ObjectDBX Classes
 90
        0
 91
        3
280
     0
281
     0
  0
CLASS
  1

  2
exOdDbCircle
  3

 90
        0
 91
        3
280
     0
281
     1
  0
ENDSEC
  0
SECTION
  2
TABLES
  0
TABLE
  2
VPORT
  5
8
330
0
100
AcDbSymbolTable
 70
     1
  0
VPORT
  5
29
330
8
100
AcDbSymbolTableRecord
100
AcDbViewportTableRecord
  2
*Active
 70
     0
 10
0.0
 20
0.0
 11
1.0
 21
1.0
 12
245.915489510965
 22
220.4536296136645
 13
0.0
 23
0.0
 14
0.5
 24
0.5
 15
0.5
 25
0.5
 16
0.0
 26
0.0
 36
1.0
 17
0.0
 27
0.0
 37
0.0
 40
279.8160360828833
 41
1.60267857142857
 42
50.0
 43
0.0
 44
0.0
 50
0.0
 51
0.0
 71
     0
 72
   100
 73
     1
 74
     3
 75
     0
 76
     0
 77
     0
 78
     0
281
     0
 65
     1
110
0.0
120
0.0
130
0.0
111
1.0
121
0.0
131
0.0
112
0.0
122
1.0
132
0.0
 79
     0
146
0.0
  0
ENDTAB
  0
TABLE
  2
LTYPE
  5
5
330
0
100
AcDbSymbolTable
 70
     8
  0
LTYPE
  5
14
330
5
100
AcDbSymbolTableRecord
100
AcDbLinetypeTableRecord
  2
ByBlock
 70
     0
  3

 72
    65
 73
     0
 40
0.0
  0
LTYPE
  5
15
330
5
100
AcDbSymbolTableRecord
100
AcDbLinetypeTableRecord
  2
ByLayer
 70
     0
  3

 72
    65
 73
     0
 40
0.0
  0
LTYPE
  5
16
330
5
100
AcDbSymbolTableRecord
100
AcDbLinetypeTableRecord
  2
Continuous
 70
     0
  3
Solid line
 72
    65
 73
     0
 40
0.0
  0
LTYPE
  5
2A
330
5
100
AcDbSymbolTableRecord
100
AcDbLinetypeTableRecord
  2
DASHED
 70
     0
  3
Dashed
 72
    65
 73
     2
 40
15.0
 49
7.0
 74
     0
 49
-8.0
 74
     0
  0
LTYPE
  5
2B
330
5
100
AcDbSymbolTableRecord
100
AcDbLinetypeTableRecord
  2
DOTTED
 70
     0
  3
Dotted
 72
    65
 73
     2
 40
1.0
 49
0.0
 74
     0
 49
-1.0
 74
     0
  0
LTYPE
  5
2C
330
5
100
AcDbSymbolTableRecord
100
AcDbLinetypeTableRecord
  2
DOT_CENTER
 70
     0
  3
Dot_Center
 72
    65
 73
     4
 40
14.0
 49
12.0
 74
     0
 49
-1.0
 74
     0
 49
0.0
 74
     0
 49
-1.0
 74
     0
  0
LTYPE
  5
2D
330
5
100
AcDbSymbolTableRecord
100
AcDbLinetypeTableRecord
  2
LONG_DASHED
 70
     0
  3
Long_Dashed
 72
    65
 73
     2
 40
15.0
 49
10.0
 74
     0
 49
-5.0
 74
     0
  0
LTYPE
  5
2E
330
5
100
AcDbSymbolTableRecord
100
AcDbLinetypeTableRecord
  2
DASH_CENTER
 70
     0
  3
Dash_Center
 72
    65
 73
     4
 40
14.0
 49
11.0
 74
     0
 49
-1.0
 74
     0
 49
1.0
 74
     0
 49
-1.0
 74
     0
  0
LTYPE
  5
2F
330
5
100
AcDbSymbolTableRecord
100
AcDbLinetypeTableRecord
  2
PHANTOM
 70
     0
  3
Phantom
 72
    65
 73
     6
 40
13.0
 49
10.0
 74
     0
 49
-1.0
 74
     0
 49
0.0
 74
     0
 49
-1.0
 74
     0
 49
0.0
 74
     0
 49
-1.0
 74
     0
  0
LTYPE
  5
30
330
5
100
AcDbSymbolTableRecord
100
AcDbLinetypeTableRecord
  2
CENTER_DASH_DASH
 70
     0
  3
Center_Dash_Dash
 72
    65
 73
     6
 40
14.0
 49
9.0
 74
     0
 49
-1.0
 74
     0
 49
1.0
 74
     0
 49
-1.0
 74
     0
 49
1.0
 74
     0
 49
-1.0
 74
     0
  0
ENDTAB
  0
TABLE
  2
LAYER
  5
2
330
0
100
AcDbSymbolTable
 70
     2
  0
LAYER
  5
10
330
2
100
AcDbSymbolTableRecord
100
AcDbLayerTableRecord
  2
0
 70
     0
 62
     7
  6
Continuous
370
    -3
390
F
  0
LAYER
  5
31
330
2
100
AcDbSymbolTableRecord
100
AcDbLayerTableRecord
  2
1
 70
     0
 62
     7
  6
Continuous
370
    -3
390
F
  0
ENDTAB
  0
TABLE
  2
STYLE
  5
3
330
0
100
AcDbSymbolTable
 70
     2
  0
STYLE
  5
11
330
3
100
AcDbSymbolTableRecord
100
AcDbTextStyleTableRecord
  2
Standard
 70
     0
 40
0.0
 41
1.0
 50
0.0
 71
     0
 42
0.2
  3
txt
  4

  0
STYLE
  5
1C4
330
3
100
AcDbSymbolTableRecord
100
AcDbTextStyleTableRecord
  2
CONVERTER_11
 70
     0
 40
0.0
 41
0.9
 50
0.0
 71
     0
 42
0.2
  3
txt.shx
  4

  0
ENDTAB
  0
TABLE
  2
VIEW
  5
6
330
0
100
AcDbSymbolTable
 70
     0
  0
ENDTAB
  0
TABLE
  2
UCS
  5
7
330
0
100
AcDbSymbolTable
 70
     0
  0
ENDTAB
  0
TABLE
  2
APPID
  5
9
330
0
100
AcDbSymbolTable
 70
     1
  0
APPID
  5
12
330
9
100
AcDbSymbolTableRecord
100
AcDbRegAppTableRecord
  2
ACAD
 70
     0
  0
ENDTAB
  0
TABLE
  2
DIMSTYLE
  5
A
330
0
100
AcDbSymbolTable
 70
     5
100
AcDbDimStyleTable
  0
DIMSTYLE
105
27
330
A
100
AcDbSymbolTableRecord
100
AcDbDimStyleTableRecord
  2
Standard
 70
     0
340
11
  0
DIMSTYLE
105
1CF
102
{ACAD_REACTORS
330
1D0
102
}
330
A
100
AcDbSymbolTableRecord
100
AcDbDimStyleTableRecord
  2
ME10_DIM_10
 70
     0
 41
3.5
 42
0.0
 44
2.0
 73
     0
 74
     0
 77
     1
 78
    12
140
3.5
147
2.0
172
     1
173
     1
176
     2
177
     2
178
     2
271
     3
340
1C4
  0
DIMSTYLE
105
1DA
102
{ACAD_REACTORS
330
1DB
102
}
330
A
100
AcDbSymbolTableRecord
100
AcDbDimStyleTableRecord
  2
ME10_DIM_11
 70
     0
 41
3.5
 42
0.0
 44
2.0
 73
     0
 74
     0
 77
     1
 78
    12
140
3.5
147
2.0
172
     1
173
     1
176
     2
177
     2
178
     2
271
     3
340
1C4
  0
DIMSTYLE
105
1E5
102
{ACAD_REACTORS
330
1E6
102
}
330
A
100
AcDbSymbolTableRecord
100
AcDbDimStyleTableRecord
  2
ME10_DIM_12
 70
     0
 41
3.5
 42
0.0
 44
2.0
 73
     0
 74
     0
 77
     1
 78
    12
140
3.5
147
2.0
172
     1
173
     1
176
     2
177
     2
178
     2
271
     3
340
1C4
  0
DIMSTYLE
105
1F0
102
{ACAD_REACTORS
330
1F1
102
}
330
A
100
AcDbSymbolTableRecord
100
AcDbDimStyleTableRecord
  2
ME10_DIM_13
 70
     0
 41
3.5
 42
0.0
 44
2.0
 73
     0
 74
     0
 77
     1
 78
    12
140
3.5
147
2.0
172
     1
173
     1
176
     2
177
     2
178
     2
271
     3
340
1C4
  0
ENDTAB
  0
TABLE
  2
BLOCK_RECORD
  5
1
330
0
100
AcDbSymbolTable
 70
     5
  0
BLOCK_RECORD
  5
1F
330
1
100
AcDbSymbolTableRecord
100
AcDbBlockTableRecord
  2
*Model_Space
340
22
  0
BLOCK_RECORD
  5
1B
330
1
100
AcDbSymbolTableRecord
100
AcDbBlockTableRecord
  2
*Paper_Space
340
1E
  0
BLOCK_RECORD
  5
23
330
1
100
AcDbSymbolTableRecord
100
AcDbBlockTableRecord
  2
*Paper_Space0
340
26
  0
BLOCK_RECORD
  5
1C6
330
1
100
AcDbSymbolTableRecord
100
AcDbBlockTableRecord
  2
*D1
340
0
  0
BLOCK_RECORD
  5
1D1
330
1
100
AcDbSymbolTableRecord
100
AcDbBlockTableRecord
  2
*D2
340
0
  0
BLOCK_RECORD
  5
1DC
330
1
100
AcDbSymbolTableRecord
100
AcDbBlockTableRecord
  2
*D3
340
0
  0
BLOCK_RECORD
  5
1E7
330
1
100
AcDbSymbolTableRecord
100
AcDbBlockTableRecord
  2
*D4
340
0
  0
ENDTAB
  0
ENDSEC
  0
SECTION
  2
BLOCKS
  0
BLOCK
  5
20
330
1F
100
AcDbEntity
  8
0
100
AcDbBlockBegin
  2
*Model_Space
 70
     0
 71
     0
 10
0.0
 20
0.0
 30
0.0
  3
*Model_Space
  1

  0
ENDBLK
  5
21
330
1F
100
AcDbEntity
  8
0
100
AcDbBlockEnd
  0
BLOCK
  5
1C
330
1B
100
AcDbEntity
 67
     1
  8
0
100
AcDbBlockBegin
  2
*Paper_Space
 70
     0
 71
     0
 10
0.0
 20
0.0
 30
0.0
  3
*Paper_Space
  1

  0
ENDBLK
  5
1D
330
1B
100
AcDbEntity
 67
     1
  8
0
100
AcDbBlockEnd
  0
BLOCK
  5
24
330
23
100
AcDbEntity
  8
0
100
AcDbBlockBegin
  2
*Paper_Space0
 70
     0
 71
     0
 10
0.0
 20
0.0
 30
0.0
  3
*Paper_Space0
  1

  0
ENDBLK
  5
25
330
23
100
AcDbEntity
  8
0
100
AcDbBlockEnd
  0
BLOCK
  5
1CD
330
1C6
100
AcDbEntity
  8
0
100
AcDbBlockBegin
  2
*D1
 70
     1
 71
     0
 10
0.0
 20
0.0
 30
0.0
  3
*D1
  1

  0
LINE
  5
1C7
330
1C6
100
AcDbEntity
  8
1
  6
Continuous
 62
     2
100
AcDbLine
 10
222.2715677729272
 20
95.264522303263
 30
0.0
 11
256.0864592150665
 21
95.264522303263
 31
0.0
  0
LINE
  5
1C8
330
1C6
100
AcDbEntity
  8
1
  6
Continuous
 62
     2
100
AcDbLine
 10
256.0864592150665
 20
123.5427369240659
 30
0.0
 11
256.0864592150665
 21
93.264522303263
 31
0.0
  0
LINE
  5
1C9
330
1C6
100
AcDbEntity
  8
1
  6
Continuous
 62
     2
100
AcDbLine
 10
222.2715677729272
 20
123.5427369240636
 30
0.0
 11
222.2715677729272
 21
93.264522303263
 31
0.0
  0
SOLID
  5
1CA
330
1C6
100
AcDbEntity
  8
1
 62
     2
100
AcDbTrace
 10
252.5864592150665
 20
94.80373856170712
 30
0.0
 11
252.5864592150665
 21
95.7253060448189
 31
0.0
 12
256.0864592150665
 22
95.264522303263
 32
0.0
 13
256.0864592150665
 23
95.264522303263
 33
0.0
  0
SOLID
  5
1CB
330
1C6
100
AcDbEntity
  8
1
 62
     2
100
AcDbTrace
 10
225.7715677729272
 20
95.7253060448189
 30
0.0
 11
225.7715677729272
 21
94.80373856170712
 31
0.0
 12
222.2715677729272
 22
95.264522303263
 32
0.0
 13
222.2715677729272
 23
95.264522303263
 33
0.0
  0
MTEXT
  5
1CC
330
1C6
100
AcDbEntity
  8
1
 62
     2
100
AcDbMText
 10
237.3810742743283
 20
97.26451604189945
 30
0.0
 40
3.5
 41
0.0
 71
     7
 72
     1
  1
34
  7
CONVERTER_11
 11
0.999999999988248
 21
4.848136811095759E-6
 31
0.0
 73
     1
 44
0.60024009603842
  0
ENDBLK
  5
1CE
330
1C6
100
AcDbEntity
  8
0
100
AcDbBlockEnd
  0
BLOCK
  5
1D8
330
1D1
100
AcDbEntity
  8
0
100
AcDbBlockBegin
  2
*D2
 70
     1
 71
     0
 10
0.0
 20
0.0
 30
0.0
  3
*D2
  1

  0
LINE
  5
1D2
330
1D1
100
AcDbEntity
  8
1
  6
Continuous
 62
     2
100
AcDbLine
 10
226.871567772933
 20
143.571025881514
 30
0.0
 11
252.2364592150665
 21
143.571025881514
 31
0.0
  0
LINE
  5
1D3
330
1D1
100
AcDbEntity
  8
1
  6
Continuous
 62
     2
100
AcDbLine
 10
252.2364592150665
 20
173.6427369240658
 30
0.0
 11
252.2364592150665
 21
141.571025881514
 31
0.0
  0
LINE
  5
1D4
330
1D1
100
AcDbEntity
  8
1
  6
Continuous
 62
     2
100
AcDbLine
 10
226.871567772933
 20
173.6427369240658
 30
0.0
 11
226.871567772933
 21
141.571025881514
 31
0.0
  0
SOLID
  5
1D5
330
1D1
100
AcDbEntity
  8
1
 62
     2
100
AcDbTrace
 10
248.7364592150665
 20
143.1102421399581
 30
0.0
 11
248.7364592150665
 21
144.0318096230699
 31
0.0
 12
252.2364592150665
 22
143.571025881514
 32
0.0
 13
252.2364592150665
 23
143.571025881514
 33
0.0
  0
SOLID
  5
1D6
330
1D1
100
AcDbEntity
  8
1
 62
     2
100
AcDbTrace
 10
230.371567772933
 20
144.0318096230699
 30
0.0
 11
230.371567772933
 21
143.1102421399581
 31
0.0
 12
226.871567772933
 22
143.571025881514
 32
0.0
 13
226.871567772933
 23
143.571025881514
 33
0.0
  0
MTEXT
  5
1D7
330
1D1
100
AcDbEntity
  8
1
 62
     2
100
AcDbMText
 10
234.4722508084599
 20
145.5710133587818
 30
0.0
 40
3.5
 41
0.0
 71
     7
 72
     1
  1
25.5
  7
CONVERTER_11
 11
0.999999999988248
 21
4.848136811095759E-6
 31
0.0
 73
     1
 44
0.60024009603842
  0
ENDBLK
  5
1D9
330
1D1
100
AcDbEntity
  8
0
100
AcDbBlockEnd
  0
BLOCK
  5
1E3
330
1DC
100
AcDbEntity
  8
0
100
AcDbBlockBegin
  2
*D3
 70
     1
 71
     0
 10
0.0
 20
0.0
 30
0.0
  3
*D3
  1

  0
LINE
  5
1DD
330
1DC
100
AcDbEntity
  8
1
  6
Continuous
 62
     2
100
AcDbLine
 10
190.4715677729389
 20
95.264522303263
 30
0.0
 11
222.2715677729272
 21
95.264522303263
 31
0.0
  0
LINE
  5
1DE
330
1DC
100
AcDbEntity
  8
1
  6
Continuous
 62
     2
100
AcDbLine
 10
222.2715677729272
 20
123.5427369240636
 30
0.0
 11
222.2715677729272
 21
93.264522303263
 31
0.0
  0
LINE
  5
1DF
330
1DC
100
AcDbEntity
  8
1
  6
Continuous
 62
     2
100
AcDbLine
 10
190.4715677729389
 20
123.5427369240621
 30
0.0
 11
190.4715677729389
 21
93.264522303263
 31
0.0
  0
SOLID
  5
1E0
330
1DC
100
AcDbEntity
  8
1
 62
     2
100
AcDbTrace
 10
218.7715677729272
 20
94.80373856170712
 30
0.0
 11
218.7715677729272
 21
95.7253060448189
 31
0.0
 12
222.2715677729272
 22
95.264522303263
 32
0.0
 13
222.2715677729272
 23
95.264522303263
 33
0.0
  0
SOLID
  5
1E1
330
1DC
100
AcDbEntity
  8
1
 62
     2
100
AcDbTrace
 10
193.9715677729389
 20
95.7253060448189
 30
0.0
 11
193.9715677729389
 21
94.80373856170712
 31
0.0
 12
190.4715677729389
 22
95.264522303263
 32
0.0
 13
190.4715677729389
 23
95.264522303263
 33
0.0
  0
MTEXT
  5
1E2
330
1DC
100
AcDbEntity
  8
1
 62
     2
100
AcDbMText
 10
203.2472949627843
 20
97.26451604189945
 30
0.0
 40
3.5
 41
0.0
 71
     7
 72
     1
  1
32
  7
CONVERTER_11
 11
0.999999999988248
 21
4.848136811095759E-6
 31
0.0
 73
     1
 44
0.60024009603842
  0
ENDBLK
  5
1E4
330
1DC
100
AcDbEntity
  8
0
100
AcDbBlockEnd
  0
BLOCK
  5
1EE
330
1E7
100
AcDbEntity
  8
0
100
AcDbBlockBegin
  2
*D4
 70
     1
 71
     0
 10
0.0
 20
0.0
 30
0.0
  3
*D4
  1

  0
LINE
  5
1E8
330
1E7
100
AcDbEntity
  8
1
  6
Continuous
 62
     2
100
AcDbLine
 10
256.0864592150661
 20
95.264522303263
 30
0.0
 11
287.8864592150659
 21
95.264522303263
 31
0.0
  0
LINE
  5
1E9
330
1E7
100
AcDbEntity
  8
1
  6
Continuous
 62
     2
100
AcDbLine
 10
287.8864592150659
 20
123.5427369240659
 30
0.0
 11
287.8864592150659
 21
93.264522303263
 31
0.0
  0
LINE
  5
1EA
330
1E7
100
AcDbEntity
  8
1
  6
Continuous
 62
     2
100
AcDbLine
 10
256.0864592150661
 20
123.5427369240659
 30
0.0
 11
256.0864592150661
 21
93.264522303263
 31
0.0
  0
SOLID
  5
1EB
330
1E7
100
AcDbEntity
  8
1
 62
     2
100
AcDbTrace
 10
284.3864592150659
 20
94.80373856170712
 30
0.0
 11
284.3864592150659
 21
95.7253060448189
 31
0.0
 12
287.8864592150659
 22
95.264522303263
 32
0.0
 13
287.8864592150659
 23
95.264522303263
 33
0.0
  0
SOLID
  5
1EC
330
1E7
100
AcDbEntity
  8
1
 62
     2
100
AcDbTrace
 10
259.5864592150661
 20
95.7253060448189
 30
0.0
 11
259.5864592150661
 21
94.80373856170712
 31
0.0
 12
256.0864592150661
 22
95.264522303263
 32
0.0
 13
256.0864592150661
 23
95.264522303263
 33
0.0
  0
MTEXT
  5
1ED
330
1E7
100
AcDbEntity
  8
1
 62
     2
100
AcDbMText
 10
269.4034634571933
 20
97.26451604189945
 30
0.0
 40
3.5
 41
0.0
 71
     7
 72
     1
  1
32
  7
CONVERTER_11
 11
0.999999999988248
 21
4.848136811095759E-6
 31
0.0
 73
     1
 44
0.60024009603842
  0
ENDBLK
  5
1EF
330
1E7
100
AcDbEntity
  8
0
100
AcDbBlockEnd
  0
ENDSEC
  0
SECTION
  2
ENTITIES
  0
POINT
  5
32
330
1F
100
AcDbEntity
  8
1
 62
     7
100
AcDbPoint
 10
256.086459215067
 20
123.542736924066
 30
0.0
  0
POINT
  5
33
330
1F
100
AcDbEntity
  8
1
 62
     7
100
AcDbPoint
 10
222.271567772927
 20
123.542736924064
 30
0.0
  0
POINT
  5
34
330
1F
100
AcDbEntity
  8
1
 62
     7
100
AcDbPoint
 10
252.236459215067
 20
173.642736924066
 30
0.0
  0
POINT
  5
35
330
1F
100
AcDbEntity
  8
1
 62
     7
100
AcDbPoint
 10
226.871567772933
 20
173.642736924066
 30
0.0
  0
POINT
  5
36
330
1F
100
AcDbEntity
  8
1
 62
     7
100
AcDbPoint
 10
222.271567772927
 20
123.542736924064
 30
0.0
  0
POINT
  5
37
330
1F
100
AcDbEntity
  8
1
 62
     7
100
AcDbPoint
 10
190.471567772939
 20
123.542736924062
 30
0.0
  0
POINT
  5
38
330
1F
100
AcDbEntity
  8
1
 62
     7
100
AcDbPoint
 10
287.886459215066
 20
123.542736924066
 30
0.0
  0
POINT
  5
39
330
1F
100
AcDbEntity
  8
1
 62
     7
100
AcDbPoint
 10
256.086459215067
 20
123.542736924066
 30
0.0
  0
LINE
  5
3A
330
1F
100
AcDbEntity
  8
1
  6
Continuous
 62
     7
100
AcDbLine
 10
191.471567772939
 20
282.642736924066
 30
0.0
 11
191.471567772939
 21
172.642736924066
 31
0.0
  0
LINE
  5
3B
330
1F
100
AcDbEntity
  8
1
  6
Continuous
 62
     7
100
AcDbLine
 10
195.771567772927
 20
282.642736924066
 30
0.0
 11
195.771567772927
 21
280.142736924066
 31
0.0
  0
LINE
  5
3C
330
1F
100
AcDbEntity
  8
1
  6
DOT_CENTER
 62
     2
100
AcDbLine
 10
187.691917460032
 20
227.642736924066
 30
0.0
 11
206.593863770665
 21
227.642736924066
 31
0.0
  0
LINE
  5
3D
330
1F
100
AcDbEntity
  8
1
  6
Continuous
 62
     7
100
AcDbLine
 10
222.271567772927
 20
290.642736924066
 30
0.0
 11
222.271567772927
 21
301.642736924067
 31
0.0
  0
LINE
  5
3E
330
1F
100
AcDbEntity
  8
1
  6
Continuous
 62
     7
100
AcDbLine
 10
195.771567772927
 20
175.142736924066
 30
0.0
 11
195.771567772927
 21
172.642736924066
 31
0.0
  0
LINE
  5
3F
330
1F
100
AcDbEntity
  8
1
  6
Continuous
 62
     7
100
AcDbLine
 10
190.471567772939
 20
282.142736924066
 30
0.0
 11
191.471567772939
 21
282.142736924066
 31
0.0
  0
LINE
  5
40
330
1F
100
AcDbEntity
  8
1
  6
Continuous
 62
     7
100
AcDbLine
 10
190.471567772939
 20
173.142736924066
 30
0.0
 11
191.471567772939
 21
173.142736924066
 31
0.0
  0
LINE
  5
41
330
1F
100
AcDbEntity
  8
1
  6
Continuous
 62
     7
100
AcDbLine
 10
198.271567772927
 20
278.142736924066
 30
0.0
 11
198.271567772927
 21
177.142736924066
 31
0.0
  0
LINE
  5
42
330
1F
100
AcDbEntity
  8
1
  6
Continuous
 62
     7
100
AcDbLine
 10
196.271567772927
 20
280.142736924066
 30
0.0
 11
195.771567772927
 21
280.142736924066
 31
0.0
  0
LINE
  5
43
330
1F
100
AcDbEntity
  8
1
  6
Continuous
 62
     7
100
AcDbLine
 10
196.271567772927
 20
175.142736924066
 30
0.0
 11
195.771567772927
 21
175.142736924066
 31
0.0
  0
LINE
  5
44
330
1F
100
AcDbEntity
  8
1
  6
DOT_CENTER
 62
     2
100
AcDbLine
 10
204.521567772927
 20
122.642736924066
 30
0.0
 11
189.221567772924
 21
122.642736924066
 31
0.0
  0
LINE
  5
45
330
1F
100
AcDbEntity
  8
1
  6
DOT_CENTER
 62
     2
100
AcDbLine
 10
196.871567772933
 20
130.292736924066
 30
0.0
 11
196.871567772933
 21
114.992736924066
 31
0.0
  0
LINE
  5
46
330
1F
100
AcDbEntity
  8
1
  6
Continuous
 62
     7
100
AcDbLine
 10
222.271567772927
 20
123.542736924064
 30
0.0
 11
222.271567772927
 21
142.642736924066
 31
0.0
  0
LINE
  5
47
330
1F
100
AcDbEntity
  8
1
  6
DOT_CENTER
 62
     2
100
AcDbLine
 10
223.521567772927
 20
122.642736924066
 30
0.0
 11
208.221567772924
 21
122.642736924066
 31
0.0
  0
LINE
  5
48
330
1F
100
AcDbEntity
  8
1
  6
DOT_CENTER
 62
     2
100
AcDbLine
 10
215.871567772933
 20
130.292736924066
 30
0.0
 11
215.871567772933
 21
114.992736924066
 31
0.0
  0
LINE
  5
49
330
1F
100
AcDbEntity
  8
1
  6
Continuous
 62
     7
100
AcDbLine
 10
190.471567772939
 20
301.642736924067
 30
0.0
 11
190.471567772939
 21
290.642736924066
 31
0.0
  0
LINE
  5
4A
330
1F
100
AcDbEntity
  8
1
  6
Continuous
 62
     7
100
AcDbLine
 10
222.271567772927
 20
142.642736924066
 30
0.0
 11
222.271567772927
 21
164.642736924066
 31
0.0
  0
LINE
  5
4B
330
1F
100
AcDbEntity
  8
1
  6
Continuous
 62
     7
100
AcDbLine
 10
221.271567772927
 20
164.642736924066
 30
0.0
 11
191.471567772939
 21
164.642736924066
 31
0.0
  0
LINE
  5
4C
330
1F
100
AcDbEntity
  8
1
  6
Continuous
 62
     7
100
AcDbLine
 10
215.84518232579
 20
172.642736924066
 30
0.0
 11
215.871567772933
 21
172.642736924066
 31
0.0
  0
LINE
  5
4D
330
1F
100
AcDbEntity
  8
1
  6
Continuous
 62
     7
100
AcDbLine
 10
191.081055145486
 20
164.642736924066
 30
0.0
 11
190.871567772933
 21
172.642736924066
 31
0.0
  0
LINE
  5
4E
330
1F
100
AcDbEntity
  8
1
  6
Continuous
 62
     7
100
AcDbLine
 10
195.871567772933
 20
164.642736924066
 30
0.0
 11
191.471567772939
 21
164.642736924066
 31
0.0
  0
LINE
  5
4F
330
1F
100
AcDbEntity
  8
1
  6
Continuous
 62
     7
100
AcDbLine
 10
215.871567772933
 20
172.642736924066
 30
0.0
 11
215.871567772933
 21
173.642736924066
 31
0.0
  0
LINE
  5
50
330
1F
100
AcDbEntity
  8
1
  6
Continuous
 62
     7
100
AcDbLine
 10
226.871567772933
 20
173.642736924066
 30
0.0
 11
223.471567772933
 21
173.642736924066
 31
0.0
  0
LINE
  5
51
330
1F
100
AcDbEntity
  8
1
  6
Continuous
 62
     7
100
AcDbLine
 10
226.635894478811
 20
164.642736924066
 30
0.0
 11
226.871567772933
 21
173.642736924066
 31
0.0
  0
LINE
  5
52
330
1F
100
AcDbEntity
  8
1
  6
Continuous
 62
     7
100
AcDbLine
 10
223.471567772933
 20
173.642736924066
 30
0.0
 11
218.27155048136
 21
173.642736924066
 31
0.0
  0
LINE
  5
53
330
1F
100
AcDbEntity
  8
1
  6
Continuous
 62
     7
100
AcDbLine
 10
218.27155048136
 20
173.642736924066
 30
0.0
 11
215.871567772933
 21
173.642736924066
 31
0.0
  0
LINE
  5
54
330
1F
100
AcDbEntity
  8
1
  6
Continuous
 62
     7
100
AcDbLine
 10
190.871567772933
 20
172.642736924066
 30
0.0
 11
215.84518232579
 21
172.642736924066
 31
0.0
  0
LINE
  5
55
330
1F
100
AcDbEntity
  8
1
  6
Continuous
 62
     7
100
AcDbLine
 10
195.871567772933
 20
164.642736924066
 30
0.0
 11
226.635894478811
 21
164.642736924066
 31
0.0
  0
LINE
  5
56
330
1F
100
AcDbEntity
  8
1
  6
Continuous
 62
     7
100
AcDbLine
 10
226.635894478811
 20
290.642736924066
 30
0.0
 11
195.871567772933
 21
290.642736924066
 31
0.0
  0
LINE
  5
57
330
1F
100
AcDbEntity
  8
1
  6
Continuous
 62
     7
100
AcDbLine
 10
215.871567772933
 20
281.642736924066
 30
0.0
 11
218.27155048136
 21
281.642736924066
 31
0.0
  0
LINE
  5
58
330
1F
100
AcDbEntity
  8
1
  6
Continuous
 62
     7
100
AcDbLine
 10
226.871567772933
 20
281.642736924066
 30
0.0
 11
226.635894478811
 21
290.642736924066
 31
0.0
  0
LINE
  5
59
330
1F
100
AcDbEntity
  8
1
  6
Continuous
 62
     7
100
AcDbLine
 10
223.471567772933
 20
281.642736924066
 30
0.0
 11
226.871567772933
 21
281.642736924066
 31
0.0
  0
LINE
  5
5A
330
1F
100
AcDbEntity
  8
1
  6
Continuous
 62
     7
100
AcDbLine
 10
215.871567772933
 20
281.642736924066
 30
0.0
 11
215.871567772933
 21
282.642736924066
 31
0.0
  0
LINE
  5
5B
330
1F
100
AcDbEntity
  8
1
  6
Continuous
 62
     7
100
AcDbLine
 10
191.081055145486
 20
290.642736924066
 30
0.0
 11
195.871567772933
 21
290.642736924066
 31
0.0
  0
LINE
  5
5C
330
1F
100
AcDbEntity
  8
1
  6
Continuous
 62
     7
100
AcDbLine
 10
190.871567772933
 20
282.642736924066
 30
0.0
 11
191.081055145486
 21
290.642736924066
 31
0.0
  0
LINE
  5
5D
330
1F
100
AcDbEntity
  8
1
  6
Continuous
 62
     7
100
AcDbLine
 10
215.84518232579
 20
282.642736924066
 30
0.0
 11
190.871567772933
 21
282.642736924066
 31
0.0
  0
LINE
  5
5E
330
1F
100
AcDbEntity
  8
1
  6
Continuous
 62
     7
100
AcDbLine
 10
215.871567772933
 20
282.642736924066
 30
0.0
 11
215.84518232579
 21
282.642736924066
 31
0.0
  0
LINE
  5
5F
330
1F
100
AcDbEntity
  8
1
  6
Continuous
 62
     7
100
AcDbLine
 10
218.27155048136
 20
281.642736924066
 30
0.0
 11
223.471567772933
 21
281.642736924066
 31
0.0
  0
LINE
  5
60
330
1F
100
AcDbEntity
  8
1
  6
Continuous
 62
     7
100
AcDbLine
 10
222.271567772927
 20
301.642736924067
 30
0.0
 11
222.271567772927
 21
312.642736924066
 31
0.0
  0
LINE
  5
61
330
1F
100
AcDbEntity
  8
1
  6
Continuous
 62
     7
100
AcDbLine
 10
190.471567772939
 20
331.74273692407
 30
0.0
 11
190.471567772939
 21
301.642736924067
 31
0.0
  0
LINE
  5
62
330
1F
100
AcDbEntity
  8
1
  6
DOT_CENTER
 62
     2
100
AcDbLine
 10
215.871567772933
 20
340.292736924066
 30
0.0
 11
215.871567772933
 21
324.992736924066
 31
0.0
  0
LINE
  5
63
330
1F
100
AcDbEntity
  8
1
  6
DOT_CENTER
 62
     2
100
AcDbLine
 10
208.221567772924
 20
332.642736924066
 30
0.0
 11
223.521567772927
 21
332.642736924066
 31
0.0
  0
LINE
  5
64
330
1F
100
AcDbEntity
  8
1
  6
Continuous
 62
     7
100
AcDbLine
 10
191.471567772939
 20
290.642736924066
 30
0.0
 11
221.271567772927
 21
290.642736924066
 31
0.0
  0
LINE
  5
65
330
1F
100
AcDbEntity
  8
1
  6
Continuous
 62
     7
100
AcDbLine
 10
222.271567772927
 20
312.642736924066
 30
0.0
 11
222.271567772927
 21
331.742736924068
 31
0.0
  0
LINE
  5
66
330
1F
100
AcDbEntity
  8
1
  6
DOT_CENTER
 62
     2
100
AcDbLine
 10
196.871567772933
 20
340.292736924066
 30
0.0
 11
196.871567772933
 21
324.992736924066
 31
0.0
  0
LINE
  5
67
330
1F
100
AcDbEntity
  8
1
  6
DOT_CENTER
 62
     2
100
AcDbLine
 10
189.221567772924
 20
332.642736924066
 30
0.0
 11
204.521567772927
 21
332.642736924066
 31
0.0
  0
LINE
  5
68
330
1F
100
AcDbEntity
  8
1
  6
Continuous
 62
     7
100
AcDbLine
 10
256.086459215072
 20
301.642736924067
 30
0.0
 11
256.086459215071
 21
290.642736924066
 31
0.0
  0
LINE
  5
69
330
1F
100
AcDbEntity
  8
1
  6
Continuous
 62
     7
100
AcDbLine
 10
286.886459215061
 20
164.642736924066
 30
0.0
 11
286.886459215061
 21
290.642736924066
 31
0.0
  0
LINE
  5
6A
330
1F
100
AcDbEntity
  8
1
  6
Continuous
 62
     7
100
AcDbLine
 10
286.886459215061
 20
173.142736924066
 30
0.0
 11
287.886459215061
 21
173.142736924066
 31
0.0
  0
LINE
  5
6B
330
1F
100
AcDbEntity
  8
1
  6
Continuous
 62
     7
100
AcDbLine
 10
286.886459215061
 20
282.142736924066
 30
0.0
 11
287.886459215061
 21
282.142736924066
 31
0.0
  0
LINE
  5
6C
330
1F
100
AcDbEntity
  8
1
  6
DOT_CENTER
 62
     2
100
AcDbLine
 10
271.760126059978
 20
227.642736924066
 30
0.0
 11
290.666109527967
 21
227.642736924066
 31
0.0
  0
LINE
  5
6D
330
1F
100
AcDbEntity
  8
1
  6
Continuous
 62
     7
100
AcDbLine
 10
256.086459215071
 20
164.642736924066
 30
0.0
 11
256.086459215072
 21
153.642736924066
 31
0.0
  0
LINE
  5
6E
330
1F
100
AcDbEntity
  8
1
  6
Continuous
 62
     7
100
AcDbLine
 10
287.88645921506
 20
301.642736924066
 30
0.0
 11
287.88645921506
 21
310.642736924066
 31
0.0
  0
LINE
  5
6F
330
1F
100
AcDbEntity
  8
1
  6
Continuous
 62
     7
100
AcDbLine
 10
256.086459215058
 20
310.642736924066
 30
0.0
 11
256.086459215072
 21
301.642736924067
 31
0.0
  0
LINE
  5
70
330
1F
100
AcDbEntity
  8
1
  6
Continuous
 62
     7
100
AcDbLine
 10
257.086459215067
 20
290.642736924066
 30
0.0
 11
286.886459215061
 21
290.642736924066
 31
0.0
  0
LINE
  5
71
330
1F
100
AcDbEntity
  8
1
  6
Continuous
 62
     7
100
AcDbLine
 10
256.086459215067
 20
311.642736924066
 30
0.0
 11
256.086459215067
 21
331.742736924066
 31
0.0
  0
LINE
  5
72
330
1F
100
AcDbEntity
  8
1
  6
Continuous
 62
     7
100
AcDbLine
 10
287.886459215067
 20
311.642736924066
 30
0.0
 11
287.886459215067
 21
303.642736924066
 31
0.0
  0
LINE
  5
73
330
1F
100
AcDbEntity
  8
1
  6
DASHED
 62
     2
100
AcDbLine
 10
257.736459215066
 20
318.642736924066
 30
0.0
 11
257.736459215066
 21
312.642736924066
 31
0.0
  0
LINE
  5
74
330
1F
100
AcDbEntity
  8
1
  6
DASHED
 62
     2
100
AcDbLine
 10
266.236459215066
 20
312.642736924066
 30
0.0
 11
266.236459215066
 21
318.642736924066
 31
0.0
  0
LINE
  5
75
330
1F
100
AcDbEntity
  8
1
  6
DASHED
 62
     2
100
AcDbLine
 10
277.736459215066
 20
312.642736924066
 30
0.0
 11
277.736459215066
 21
318.642736924066
 31
0.0
  0
LINE
  5
76
330
1F
100
AcDbEntity
  8
1
  6
DOT_CENTER
 62
     2
100
AcDbLine
 10
255.236459215067
 20
312.642736924066
 30
0.0
 11
259.386459215067
 21
312.642736924066
 31
0.0
  0
LINE
  5
77
330
1F
100
AcDbEntity
  8
1
  6
DASHED
 62
     2
100
AcDbLine
 10
286.236459215066
 20
318.642736924066
 30
0.0
 11
286.236459215066
 21
312.642736924066
 31
0.0
  0
LINE
  5
78
330
1F
100
AcDbEntity
  8
1
  6
DOT_CENTER
 62
     2
100
AcDbLine
 10
255.236459215067
 20
318.642736924066
 30
0.0
 11
259.386459215067
 21
318.642736924066
 31
0.0
  0
LINE
  5
79
330
1F
100
AcDbEntity
  8
1
  6
DOT_CENTER
 62
     2
100
AcDbLine
 10
261.986459215066
 20
325.17738298959
 30
0.0
 11
261.986459215066
 21
306.392736924066
 31
0.0
  0
LINE
  5
7A
330
1F
100
AcDbEntity
  8
1
  6
DOT_CENTER
 62
     2
100
AcDbLine
 10
281.986459215066
 20
325.17738298959
 30
0.0
 11
281.986459215066
 21
306.392736924066
 31
0.0
  0
LINE
  5
7B
330
1F
100
AcDbEntity
  8
1
  6
Continuous
 62
     7
100
AcDbLine
 10
256.086459215067
 20
303.642736924066
 30
0.0
 11
256.086459215067
 21
311.642736924066
 31
0.0
  0
LINE
  5
7C
330
1F
100
AcDbEntity
  8
1
  6
DOT_CENTER
 62
     2
100
AcDbLine
 10
288.147763823499
 20
332.642736924066
 30
0.0
 11
274.530950862308
 21
332.642736924066
 31
0.0
  0
LINE
  5
7D
330
1F
100
AcDbEntity
  8
1
  6
DOT_CENTER
 62
     2
100
AcDbLine
 10
280.986459215066
 20
339.293115005855
 30
0.0
 11
280.986459215066
 21
325.576094653195
 31
0.0
  0
LINE
  5
7E
330
1F
100
AcDbEntity
  8
1
  6
DOT_CENTER
 62
     2
100
AcDbLine
 10
269.147763823499
 20
332.642736924066
 30
0.0
 11
255.530950862308
 21
332.642736924066
 31
0.0
  0
LINE
  5
7F
330
1F
100
AcDbEntity
  8
1
  6
Continuous
 62
     7
100
AcDbLine
 10
287.886459215066
 20
331.742736924066
 30
0.0
 11
287.886459215067
 21
311.642736924066
 31
0.0
  0
LINE
  5
80
330
1F
100
AcDbEntity
  8
1
  6
Continuous
 62
     7
100
AcDbLine
 10
286.13171552879
 20
286.642736924066
 30
0.0
 11
286.236459215066
 21
282.642736924066
 31
0.0
  0
LINE
  5
81
330
1F
100
AcDbEntity
  8
1
  6
Continuous
 62
     7
100
AcDbLine
 10
252.367388822912
 20
286.642736924066
 30
0.0
 11
252.236459215067
 21
281.642736924066
 31
0.0
  0
LINE
  5
82
330
1F
100
AcDbEntity
  8
1
  6
Continuous
 62
     7
100
AcDbLine
 10
252.367388822912
 20
286.642736924066
 30
0.0
 11
286.13171552879
 21
286.642736924066
 31
0.0
  0
LINE
  5
83
330
1F
100
AcDbEntity
  8
1
  6
Continuous
 62
     7
100
AcDbLine
 10
286.026971842513
 20
290.642736924066
 30
0.0
 11
286.13171552879
 21
286.642736924066
 31
0.0
  0
LINE
  5
84
330
1F
100
AcDbEntity
  8
1
  6
Continuous
 62
     7
100
AcDbLine
 10
282.236459215066
 20
290.642736924066
 30
0.0
 11
286.886459215061
 21
290.642736924066
 31
0.0
  0
LINE
  5
85
330
1F
100
AcDbEntity
  8
1
  6
Continuous
 62
     7
100
AcDbLine
 10
286.236459215066
 20
282.642736924066
 30
0.0
 11
262.486459215066
 21
282.642736924066
 31
0.0
  0
LINE
  5
86
330
1F
100
AcDbEntity
  8
1
  6
Continuous
 62
     7
100
AcDbLine
 10
262.486459215066
 20
282.642736924066
 30
0.0
 11
262.486459215067
 21
281.642736924066
 31
0.0
  0
LINE
  5
87
330
1F
100
AcDbEntity
  8
1
  6
Continuous
 62
     7
100
AcDbLine
 10
252.236459215067
 20
281.642736924066
 30
0.0
 11
254.886459215067
 21
281.642736924066
 31
0.0
  0
LINE
  5
88
330
1F
100
AcDbEntity
  8
1
  6
Continuous
 62
     7
100
AcDbLine
 10
252.472132509189
 20
290.642736924066
 30
0.0
 11
252.367388822912
 21
286.642736924066
 31
0.0
  0
LINE
  5
89
330
1F
100
AcDbEntity
  8
1
  6
Continuous
 62
     7
100
AcDbLine
 10
254.886459215067
 20
281.642736924066
 30
0.0
 11
260.086459215066
 21
281.642736924066
 31
0.0
  0
LINE
  5
8A
330
1F
100
AcDbEntity
  8
1
  6
Continuous
 62
     7
100
AcDbLine
 10
260.086459215066
 20
281.642736924066
 30
0.0
 11
262.486459215067
 21
281.642736924066
 31
0.0
  0
LINE
  5
8B
330
1F
100
AcDbEntity
  8
1
  6
Continuous
 62
     7
100
AcDbLine
 10
282.236459215066
 20
290.642736924066
 30
0.0
 11
252.472132509189
 21
290.642736924066
 31
0.0
  0
LINE
  5
8C
330
1F
100
AcDbEntity
  8
1
  6
Continuous
 62
     7
100
AcDbLine
 10
252.486459215067
 20
261.742736924066
 30
0.0
 11
252.486459215067
 21
260.142736924066
 31
0.0
  0
LINE
  5
8D
330
1F
100
AcDbEntity
  8
1
  6
Continuous
 62
     7
100
AcDbLine
 10
252.486459215067
 20
195.142736924066
 30
0.0
 11
252.486459215067
 21
193.542736924066
 31
0.0
  0
LINE
  5
8E
330
1F
100
AcDbEntity
  8
1
  6
Continuous
 62
     7
100
AcDbLine
 10
235.484618756211
 20
280.142736924066
 30
0.0
 11
262.736459215066
 21
280.142736924066
 31
0.0
  0
LINE
  5
8F
330
1F
100
AcDbEntity
  8
1
  6
Continuous
 62
     7
100
AcDbLine
 10
235.484618756211
 20
175.142736924066
 30
0.0
 11
206.593863770665
 21
175.142736924066
 31
0.0
  0
LINE
  5
90
330
1F
100
AcDbEntity
  8
1
  6
Continuous
 62
     7
100
AcDbLine
 10
262.736459215067
 20
175.142736924066
 30
0.0
 11
235.484618756211
 21
175.142736924066
 31
0.0
  0
LINE
  5
91
330
1F
100
AcDbEntity
  8
1
  6
Continuous
 62
     7
100
AcDbLine
 10
206.593863770665
 20
280.142736924066
 30
0.0
 11
235.484618756211
 21
280.142736924066
 31
0.0
  0
LINE
  5
92
330
1F
100
AcDbEntity
  8
1
  6
DOT_CENTER
 62
     2
100
AcDbLine
 10
210.593863770665
 20
282.47313733687
 30
0.0
 11
210.593863770665
 21
172.812336511261
 31
0.0
  0
LINE
  5
93
330
1F
100
AcDbEntity
  8
1
  6
DOT_CENTER
 62
     2
100
AcDbLine
 10
206.593863770665
 20
227.642736924066
 30
0.0
 11
239.184618756211
 21
227.642736924066
 31
0.0
  0
LINE
  5
94
330
1F
100
AcDbEntity
  8
1
  6
Continuous
 62
     7
100
AcDbLine
 10
206.593863770665
 20
175.142736924066
 30
0.0
 11
206.593863770665
 21
280.142736924066
 31
0.0
  0
LINE
  5
95
330
1F
100
AcDbEntity
  8
1
  6
DOT_CENTER
 62
     2
100
AcDbLine
 10
239.184618756212
 20
193.542736924066
 30
0.0
 11
239.184618756212
 21
172.812336511261
 31
0.0
  0
LINE
  5
96
330
1F
100
AcDbEntity
  8
1
  6
DOT_CENTER
 62
     2
100
AcDbLine
 10
239.184618756211
 20
282.47313733687
 30
0.0
 11
239.184618756211
 21
261.742736924066
 31
0.0
  0
LINE
  5
97
330
1F
100
AcDbEntity
  8
1
  6
Continuous
 62
     7
100
AcDbLine
 10
216.899650462277
 20
196.042736924066
 30
0.0
 11
216.899650462277
 21
259.242736924066
 31
0.0
  0
LINE
  5
98
330
1F
100
AcDbEntity
  8
1
  6
Continuous
 62
     7
100
AcDbLine
 10
219.399650462277
 20
193.542736924066
 30
0.0
 11
261.297378833265
 21
193.542736924066
 31
0.0
  0
LINE
  5
99
330
1F
100
AcDbEntity
  8
1
  6
Continuous
 62
     7
100
AcDbLine
 10
261.297378833265
 20
261.742736924066
 30
0.0
 11
219.399650462277
 21
261.742736924066
 31
0.0
  0
LINE
  5
9A
330
1F
100
AcDbEntity
  8
0
  6
Continuous
 62
     7
100
AcDbLine
 10
252.486459215067
 20
175.142736924066
 30
0.0
 11
252.486459215067
 21
173.642736924066
 31
0.0
  0
LINE
  5
9B
330
1F
100
AcDbEntity
  8
0
  6
Continuous
 62
     7
100
AcDbLine
 10
262.486459215067
 20
173.642736924066
 30
0.0
 11
262.486459215067
 21
174.142736924066
 31
0.0
  0
LINE
  5
9C
330
1F
100
AcDbEntity
  8
0
  6
Continuous
 62
     7
100
AcDbLine
 10
262.486459215067
 20
173.642736924066
 30
0.0
 11
252.486459215067
 21
173.642736924066
 31
0.0
  0
LINE
  5
9D
330
1F
100
AcDbEntity
  8
0
  6
Continuous
 62
     7
100
AcDbLine
 10
262.486459215067
 20
280.142736924066
 30
0.0
 11
262.486459215067
 21
281.142736924066
 31
0.0
  0
LINE
  5
9E
330
1F
100
AcDbEntity
  8
0
  6
Continuous
 62
     7
100
AcDbLine
 10
252.486459215067
 20
281.642736924066
 30
0.0
 11
252.486459215067
 21
280.142736924066
 31
0.0
  0
LINE
  5
9F
330
1F
100
AcDbEntity
  8
0
  6
Continuous
 62
     7
100
AcDbLine
 10
252.486459215067
 20
281.642736924066
 30
0.0
 11
262.486459215067
 21
281.642736924066
 31
0.0
  0
LINE
  5
A0
330
1F
100
AcDbEntity
  8
1
  6
Continuous
 62
     7
100
AcDbLine
 10
205.843863770665
 20
175.142736924066
 30
0.0
 11
205.843863770665
 21
174.142736924066
 31
0.0
  0
LINE
  5
A1
330
1F
100
AcDbEntity
  8
1
  6
Continuous
 62
     7
100
AcDbLine
 10
215.343863770665
 20
174.142736924066
 30
0.0
 11
215.343863770665
 21
175.142736924066
 31
0.0
  0
LINE
  5
A2
330
1F
100
AcDbEntity
  8
1
  6
Continuous
 62
     7
100
AcDbLine
 10
205.843863770665
 20
175.142736924066
 30
0.0
 11
215.343863770665
 21
175.142736924066
 31
0.0
  0
LINE
  5
A3
330
1F
100
AcDbEntity
  8
1
  6
Continuous
 62
     7
100
AcDbLine
 10
215.343863770665
 20
280.142736924066
 30
0.0
 11
205.843863770665
 21
280.142736924066
 31
0.0
  0
LINE
  5
A4
330
1F
100
AcDbEntity
  8
1
  6
Continuous
 62
     7
100
AcDbLine
 10
215.343863770665
 20
280.142736924066
 30
0.0
 11
215.343863770665
 21
281.142736924066
 31
0.0
  0
LINE
  5
A5
330
1F
100
AcDbEntity
  8
1
  6
Continuous
 62
     7
100
AcDbLine
 10
205.843863770665
 20
281.142736924066
 30
0.0
 11
205.843863770665
 21
280.142736924066
 31
0.0
  0
LINE
  5
A6
330
1F
100
AcDbEntity
  8
1
  6
Continuous
 62
     7
100
AcDbLine
 10
258.964998075327
 20
195.142736924066
 30
0.0
 11
217.311387734485
 21
195.142736924066
 31
0.0
  0
LINE
  5
A7
330
1F
100
AcDbEntity
  8
1
  6
Continuous
 62
     7
100
AcDbLine
 10
258.964998075327
 20
260.142736924066
 30
0.0
 11
217.311387734485
 21
260.142736924066
 31
0.0
  0
LINE
  5
A8
330
1F
100
AcDbEntity
  8
1
  6
Continuous
 62
     7
100
AcDbLine
 10
215.621567772933
 20
280.142736924066
 30
0.0
 11
226.375364917887
 21
280.142736924066
 31
0.0
  0
LINE
  5
A9
330
1F
100
AcDbEntity
  8
1
  6
Continuous
 62
     7
100
AcDbLine
 10
271.760126059978
 20
280.142736924066
 30
0.0
 11
271.760126059978
 21
175.142736924066
 31
0.0
  0
LINE
  5
AA
330
1F
100
AcDbEntity
  8
1
  6
Continuous
 62
     7
100
AcDbLine
 10
261.464998075327
 20
175.142736924066
 30
0.0
 11
271.760126059978
 21
175.142736924066
 31
0.0
  0
LINE
  5
AB
330
1F
100
AcDbEntity
  8
1
  6
Continuous
 62
     7
100
AcDbLine
 10
261.464998075327
 20
175.142736924066
 30
0.0
 11
261.464998075327
 21
192.642736924066
 31
0.0
  0
LINE
  5
AC
330
1F
100
AcDbEntity
  8
1
  6
Continuous
 62
     7
100
AcDbLine
 10
226.375364917886
 20
260.142736924066
 30
0.0
 11
226.375364917886
 21
261.742736924066
 31
0.0
  0
LINE
  5
AD
330
1F
100
AcDbEntity
  8
1
  6
Continuous
 62
     7
100
AcDbLine
 10
261.464998075327
 20
280.142736924066
 30
0.0
 11
271.760126059978
 21
280.142736924066
 31
0.0
  0
LINE
  5
AE
330
1F
100
AcDbEntity
  8
1
  6
DOT_CENTER
 62
     2
100
AcDbLine
 10
239.184618756211
 20
195.142736924066
 30
0.0
 11
239.184618756211
 21
260.142736924066
 31
0.0
  0
LINE
  5
AF
330
1F
100
AcDbEntity
  8
1
  6
DOT_CENTER
 62
     2
100
AcDbLine
 10
239.184618756211
 20
227.642736924066
 30
0.0
 11
271.760126059978
 21
227.642736924066
 31
0.0
  0
LINE
  5
B0
330
1F
100
AcDbEntity
  8
1
  6
Continuous
 62
     7
100
AcDbLine
 10
261.464998075327
 20
280.142736924066
 30
0.0
 11
261.464998075327
 21
262.642736924066
 31
0.0
  0
LINE
  5
B1
330
1F
100
AcDbEntity
  8
1
  6
Continuous
 62
     7
100
AcDbLine
 10
217.311387734485
 20
195.142736924066
 30
0.0
 11
217.311387734485
 21
194.668270198489
 31
0.0
  0
LINE
  5
B2
330
1F
100
AcDbEntity
  8
1
  6
Continuous
 62
     7
100
AcDbLine
 10
215.621567772933
 20
175.142736924066
 30
0.0
 11
226.375364917887
 21
175.142736924066
 31
0.0
  0
LINE
  5
B3
330
1F
100
AcDbEntity
  8
1
  6
Continuous
 62
     7
100
AcDbLine
 10
217.311387734485
 20
260.617203649642
 30
0.0
 11
217.311387734485
 21
260.142736924066
 31
0.0
  0
LINE
  5
B4
330
1F
100
AcDbEntity
  8
1
  6
Continuous
 62
     7
100
AcDbLine
 10
226.375364917886
 20
193.542736924066
 30
0.0
 11
226.375364917886
 21
195.142736924066
 31
0.0
  0
LINE
  5
B5
330
1F
100
AcDbEntity
  8
1
  6
Continuous
 62
     7
100
AcDbLine
 10
263.010126059978
 20
281.142736924066
 30
0.0
 11
263.010126059978
 21
280.142736924066
 31
0.0
  0
LINE
  5
B6
330
1F
100
AcDbEntity
  8
1
  6
Continuous
 62
     7
100
AcDbLine
 10
272.510126059978
 20
280.142736924066
 30
0.0
 11
272.510126059978
 21
281.142736924066
 31
0.0
  0
LINE
  5
B7
330
1F
100
AcDbEntity
  8
1
  6
Continuous
 62
     7
100
AcDbLine
 10
272.510126059978
 20
280.142736924066
 30
0.0
 11
263.010126059978
 21
280.142736924066
 31
0.0
  0
LINE
  5
B8
330
1F
100
AcDbEntity
  8
1
  6
Continuous
 62
     7
100
AcDbLine
 10
263.010126059978
 20
175.142736924066
 30
0.0
 11
272.510126059978
 21
175.142736924066
 31
0.0
  0
LINE
  5
B9
330
1F
100
AcDbEntity
  8
1
  6
Continuous
 62
     7
100
AcDbLine
 10
272.510126059978
 20
174.142736924066
 30
0.0
 11
272.510126059978
 21
175.142736924066
 31
0.0
  0
LINE
  5
BA
330
1F
100
AcDbEntity
  8
1
  6
Continuous
 62
     7
100
AcDbLine
 10
263.010126059978
 20
175.142736924066
 30
0.0
 11
263.010126059978
 21
174.142736924066
 31
0.0
  0
LINE
  5
BB
330
1F
100
AcDbEntity
  8
0
  6
Continuous
 62
     7
100
AcDbLine
 10
225.871567772933
 20
280.142736924066
 30
0.0
 11
225.871567772933
 21
281.642736924066
 31
0.0
  0
LINE
  5
BC
330
1F
100
AcDbEntity
  8
0
  6
Continuous
 62
     7
100
AcDbLine
 10
215.871567772933
 20
281.642736924066
 30
0.0
 11
215.871567772933
 21
281.142736924066
 31
0.0
  0
LINE
  5
BD
330
1F
100
AcDbEntity
  8
0
  6
Continuous
 62
     7
100
AcDbLine
 10
215.871567772933
 20
281.642736924066
 30
0.0
 11
225.871567772933
 21
281.642736924066
 31
0.0
  0
LINE
  5
BE
330
1F
100
AcDbEntity
  8
0
  6
Continuous
 62
     7
100
AcDbLine
 10
215.871567772933
 20
175.142736924066
 30
0.0
 11
215.871567772933
 21
174.142736924066
 31
0.0
  0
LINE
  5
BF
330
1F
100
AcDbEntity
  8
0
  6
Continuous
 62
     7
100
AcDbLine
 10
225.871567772933
 20
173.642736924066
 30
0.0
 11
225.871567772933
 21
175.142736924066
 31
0.0
  0
LINE
  5
C0
330
1F
100
AcDbEntity
  8
0
  6
Continuous
 62
     7
100
AcDbLine
 10
225.871567772933
 20
173.642736924066
 30
0.0
 11
215.871567772933
 21
173.642736924066
 31
0.0
  0
LINE
  5
C1
330
1F
100
AcDbEntity
  8
0
  6
Continuous
 62
     7
100
AcDbLine
 10
234.184618756211
 20
261.742736924066
 30
0.0
 11
234.184618756211
 21
260.142736924066
 31
0.0
  0
LINE
  5
C2
330
1F
100
AcDbEntity
  8
0
  6
Continuous
 62
     7
100
AcDbLine
 10
244.184618756211
 20
260.142736924066
 30
0.0
 11
244.184618756211
 21
261.742736924066
 31
0.0
  0
LINE
  5
C3
330
1F
100
AcDbEntity
  8
0
  6
Continuous
 62
     7
100
AcDbLine
 10
234.184618756211
 20
261.742736924066
 30
0.0
 11
244.184618756211
 21
261.742736924066
 31
0.0
  0
LINE
  5
C4
330
1F
100
AcDbEntity
  8
0
  6
Continuous
 62
     7
100
AcDbLine
 10
244.184618756211
 20
193.542736924066
 30
0.0
 11
244.184618756211
 21
195.142736924066
 31
0.0
  0
LINE
  5
C5
330
1F
100
AcDbEntity
  8
0
  6
Continuous
 62
     7
100
AcDbLine
 10
234.184618756211
 20
195.142736924066
 30
0.0
 11
234.184618756211
 21
193.542736924066
 31
0.0
  0
LINE
  5
C6
330
1F
100
AcDbEntity
  8
0
  6
Continuous
 62
     7
100
AcDbLine
 10
244.184618756211
 20
193.542736924066
 30
0.0
 11
234.184618756211
 21
193.542736924066
 31
0.0
  0
LINE
  5
C7
330
1F
100
AcDbEntity
  8
1
  6
DOT_CENTER
 62
     2
100
AcDbLine
 10
239.184618756211
 20
260.192736924066
 30
0.0
 11
239.184618756211
 21
261.742736924066
 31
0.0
  0
LINE
  5
C8
330
1F
100
AcDbEntity
  8
1
  6
DOT_CENTER
 62
     2
100
AcDbLine
 10
239.184618756211
 20
195.092736924066
 30
0.0
 11
239.184618756212
 21
193.542736924066
 31
0.0
  0
LINE
  5
C9
330
1F
100
AcDbEntity
  8
1
  6
Continuous
 62
     7
100
AcDbLine
 10
243.234618756211
 20
174.792736924066
 30
0.0
 11
235.134618756211
 21
174.792736924066
 31
0.0
  0
LINE
  5
CA
330
1F
100
AcDbEntity
  8
1
  6
Continuous
 62
     7
100
AcDbLine
 10
243.234618756211
 20
174.792736924066
 30
0.0
 11
242.884618756211
 21
175.142736924066
 31
0.0
  0
LINE
  5
CB
330
1F
100
AcDbEntity
  8
1
  6
Continuous
 62
     7
100
AcDbLine
 10
235.484618756211
 20
175.142736924066
 30
0.0
 11
235.134618756211
 21
174.792736924066
 31
0.0
  0
LINE
  5
CC
330
1F
100
AcDbEntity
  8
1
  6
Continuous
 62
     7
100
AcDbLine
 10
235.134618756211
 20
280.492736924066
 30
0.0
 11
235.484618756211
 21
280.142736924066
 31
0.0
  0
LINE
  5
CD
330
1F
100
AcDbEntity
  8
1
  6
Continuous
 62
     7
100
AcDbLine
 10
242.884618756211
 20
280.142736924066
 30
0.0
 11
243.234618756211
 21
280.492736924066
 31
0.0
  0
LINE
  5
CE
330
1F
100
AcDbEntity
  8
1
  6
Continuous
 62
     7
100
AcDbLine
 10
235.134618756211
 20
280.492736924066
 30
0.0
 11
243.234618756211
 21
280.492736924066
 31
0.0
  0
LINE
  5
CF
330
1F
100
AcDbEntity
  8
1
  6
DOT_CENTER
 62
     2
100
AcDbLine
 10
267.760126059978
 20
175.542736924066
 30
0.0
 11
267.760126059978
 21
166.790108628872
 31
0.0
  0
LINE
  5
D0
330
1F
100
AcDbEntity
  8
0
  6
Continuous
 62
     7
100
AcDbLine
 10
204.436666243346
 20
174.142736924066
 30
0.0
 11
215.871567772933
 21
174.142736924066
 31
0.0
  0
LINE
  5
D1
330
1F
100
AcDbEntity
  8
1
  6
DOT_CENTER
 62
     2
100
AcDbLine
 10
210.593863770665
 20
166.790108628872
 30
0.0
 11
210.593863770665
 21
175.542736924066
 31
0.0
  0
LINE
  5
D2
330
1F
100
AcDbEntity
  8
0
  6
Continuous
 62
     7
100
AcDbLine
 10
204.436666243346
 20
174.142736924066
 30
0.0
 11
204.436666243346
 21
172.642736924066
 31
0.0
  0
LINE
  5
D3
330
1F
100
AcDbEntity
  8
0
  6
Continuous
 62
     7
100
AcDbLine
 10
204.436666243346
 20
282.642736924066
 30
0.0
 11
204.436666243346
 21
281.142736924066
 31
0.0
  0
LINE
  5
D4
330
1F
100
AcDbEntity
  8
1
  6
DOT_CENTER
 62
     2
100
AcDbLine
 10
210.593863770665
 20
281.142736924066
 30
0.0
 11
210.593863770665
 21
288.49536521926
 31
0.0
  0
LINE
  5
D5
330
1F
100
AcDbEntity
  8
0
  6
Continuous
 62
     7
100
AcDbLine
 10
273.917323587297
 20
172.642736924066
 30
0.0
 11
273.917323587297
 21
174.142736924066
 31
0.0
  0
LINE
  5
D6
330
1F
100
AcDbEntity
  8
0
  6
Continuous
 62
     7
100
AcDbLine
 10
262.486459215067
 20
174.142736924066
 30
0.0
 11
273.917323587297
 21
174.142736924066
 31
0.0
  0
LINE
  5
D7
330
1F
100
AcDbEntity
  8
1
  6
DOT_CENTER
 62
     2
100
AcDbLine
 10
267.760126059978
 20
288.49536521926
 30
0.0
 11
267.760126059978
 21
279.742736924066
 31
0.0
  0
LINE
  5
D8
330
1F
100
AcDbEntity
  8
0
  6
Continuous
 62
     7
100
AcDbLine
 10
273.917323587297
 20
281.142736924066
 30
0.0
 11
273.917323587297
 21
282.642736924066
 31
0.0
  0
LINE
  5
D9
330
1F
100
AcDbEntity
  8
1
  6
Continuous
 62
     7
100
AcDbLine
 10
262.486459215067
 20
173.642736924066
 30
0.0
 11
260.086459215066
 21
173.642736924066
 31
0.0
  0
LINE
  5
DA
330
1F
100
AcDbEntity
  8
1
  6
Continuous
 62
     7
100
AcDbLine
 10
252.367388822912
 20
168.642736924066
 30
0.0
 11
252.472132509189
 21
164.642736924066
 31
0.0
  0
LINE
  5
DB
330
1F
100
AcDbEntity
  8
1
  6
Continuous
 62
     7
100
AcDbLine
 10
254.886459215067
 20
173.642736924066
 30
0.0
 11
252.236459215067
 21
173.642736924066
 31
0.0
  0
LINE
  5
DC
330
1F
100
AcDbEntity
  8
1
  6
Continuous
 62
     7
100
AcDbLine
 10
262.486459215067
 20
173.642736924066
 30
0.0
 11
262.486459215066
 21
172.642736924066
 31
0.0
  0
LINE
  5
DD
330
1F
100
AcDbEntity
  8
1
  6
Continuous
 62
     7
100
AcDbLine
 10
286.026971842513
 20
164.642736924066
 30
0.0
 11
282.236459215066
 21
164.642736924066
 31
0.0
  0
LINE
  5
DE
330
1F
100
AcDbEntity
  8
1
  6
Continuous
 62
     7
100
AcDbLine
 10
286.13171552879
 20
168.642736924066
 30
0.0
 11
286.026971842513
 21
164.642736924066
 31
0.0
  0
LINE
  5
DF
330
1F
100
AcDbEntity
  8
1
  6
Continuous
 62
     7
100
AcDbLine
 10
262.486459215066
 20
172.642736924066
 30
0.0
 11
286.236459215066
 21
172.642736924066
 31
0.0
  0
LINE
  5
E0
330
1F
100
AcDbEntity
  8
1
  6
Continuous
 62
     7
100
AcDbLine
 10
252.472132509189
 20
164.642736924066
 30
0.0
 11
282.236459215066
 21
164.642736924066
 31
0.0
  0
LINE
  5
E1
330
1F
100
AcDbEntity
  8
1
  6
Continuous
 62
     7
100
AcDbLine
 10
286.13171552879
 20
168.642736924066
 30
0.0
 11
252.367388822912
 21
168.642736924066
 31
0.0
  0
LINE
  5
E2
330
1F
100
AcDbEntity
  8
1
  6
Continuous
 62
     7
100
AcDbLine
 10
252.236459215067
 20
173.642736924066
 30
0.0
 11
252.367388822912
 21
168.642736924066
 31
0.0
  0
LINE
  5
E3
330
1F
100
AcDbEntity
  8
1
  6
Continuous
 62
     7
100
AcDbLine
 10
286.236459215066
 20
172.642736924066
 30
0.0
 11
286.13171552879
 21
168.642736924066
 31
0.0
  0
LINE
  5
E4
330
1F
100
AcDbEntity
  8
1
  6
Continuous
 62
     7
100
AcDbLine
 10
260.086459215066
 20
173.642736924066
 30
0.0
 11
254.886459215067
 21
173.642736924066
 31
0.0
  0
LINE
  5
E5
330
1F
100
AcDbEntity
  8
1
  6
Continuous
 62
     7
100
AcDbLine
 10
287.886459215067
 20
143.642736924066
 30
0.0
 11
287.886459215066
 21
123.542736924066
 31
0.0
  0
LINE
  5
E6
330
1F
100
AcDbEntity
  8
1
  6
DOT_CENTER
 62
     2
100
AcDbLine
 10
255.530950862308
 20
122.642736924066
 30
0.0
 11
269.147763823499
 21
122.642736924066
 31
0.0
  0
LINE
  5
E7
330
1F
100
AcDbEntity
  8
1
  6
DOT_CENTER
 62
     2
100
AcDbLine
 10
262.986459215066
 20
129.709379194937
 30
0.0
 11
262.986459215066
 21
115.992358842277
 31
0.0
  0
LINE
  5
E8
330
1F
100
AcDbEntity
  8
1
  6
DOT_CENTER
 62
     2
100
AcDbLine
 10
280.986459215066
 20
129.709379194937
 30
0.0
 11
280.986459215066
 21
115.992358842277
 31
0.0
  0
LINE
  5
E9
330
1F
100
AcDbEntity
  8
1
  6
DOT_CENTER
 62
     2
100
AcDbLine
 10
274.530950862308
 20
122.642736924066
 30
0.0
 11
288.147763823499
 21
122.642736924066
 31
0.0
  0
LINE
  5
EA
330
1F
100
AcDbEntity
  8
1
  6
Continuous
 62
     7
100
AcDbLine
 10
256.086459215067
 20
143.642736924066
 30
0.0
 11
256.086459215067
 21
151.642736924066
 31
0.0
  0
LINE
  5
EB
330
1F
100
AcDbEntity
  8
1
  6
DOT_CENTER
 62
     2
100
AcDbLine
 10
281.986459215066
 20
148.892736924066
 30
0.0
 11
281.986459215066
 21
130.108090858542
 31
0.0
  0
LINE
  5
EC
330
1F
100
AcDbEntity
  8
1
  6
DOT_CENTER
 62
     2
100
AcDbLine
 10
261.986459215066
 20
148.892736924066
 30
0.0
 11
261.986459215066
 21
130.108090858542
 31
0.0
  0
LINE
  5
ED
330
1F
100
AcDbEntity
  8
1
  6
DOT_CENTER
 62
     2
100
AcDbLine
 10
288.736459215066
 20
136.642736924066
 30
0.0
 11
284.586459215066
 21
136.642736924066
 31
0.0
  0
LINE
  5
EE
330
1F
100
AcDbEntity
  8
1
  6
DASHED
 62
     2
100
AcDbLine
 10
286.236459215066
 20
142.642736924066
 30
0.0
 11
286.236459215066
 21
136.642736924066
 31
0.0
  0
LINE
  5
EF
330
1F
100
AcDbEntity
  8
1
  6
DOT_CENTER
 62
     2
100
AcDbLine
 10
288.736459215066
 20
142.642736924066
 30
0.0
 11
284.586459215066
 21
142.642736924066
 31
0.0
  0
LINE
  5
F0
330
1F
100
AcDbEntity
  8
1
  6
DASHED
 62
     2
100
AcDbLine
 10
277.736459215066
 20
136.642736924066
 30
0.0
 11
277.736459215066
 21
142.642736924066
 31
0.0
  0
LINE
  5
F1
330
1F
100
AcDbEntity
  8
1
  6
DASHED
 62
     2
100
AcDbLine
 10
266.236459215066
 20
136.642736924066
 30
0.0
 11
266.236459215066
 21
142.642736924066
 31
0.0
  0
LINE
  5
F2
330
1F
100
AcDbEntity
  8
1
  6
DASHED
 62
     2
100
AcDbLine
 10
257.736459215066
 20
142.642736924066
 30
0.0
 11
257.736459215066
 21
136.642736924066
 31
0.0
  0
LINE
  5
F3
330
1F
100
AcDbEntity
  8
1
  6
Continuous
 62
     7
100
AcDbLine
 10
287.886459215067
 20
151.642736924066
 30
0.0
 11
287.886459215067
 21
143.642736924066
 31
0.0
  0
LINE
  5
F4
330
1F
100
AcDbEntity
  8
1
  6
Continuous
 62
     7
100
AcDbLine
 10
256.086459215067
 20
123.542736924066
 30
0.0
 11
256.086459215067
 21
143.642736924066
 31
0.0
  0
LINE
  5
F5
330
1F
100
AcDbEntity
  8
1
  6
Continuous
 62
     7
100
AcDbLine
 10
256.086459215072
 20
153.642736924066
 30
0.0
 11
256.086459215058
 21
144.642736924066
 31
0.0
  0
LINE
  5
F6
330
1F
100
AcDbEntity
  8
1
  6
Continuous
 62
     7
100
AcDbLine
 10
287.88645921506
 20
144.642736924066
 30
0.0
 11
287.88645921506
 21
164.642736924066
 31
0.0
  0
LINE
  5
F7
330
1F
100
AcDbEntity
  8
1
  6
Continuous
 62
     7
100
AcDbLine
 10
287.88645921506
 20
164.642736924066
 30
0.0
 11
286.886459215061
 21
164.642736924066
 31
0.0
  0
LINE
  5
F8
330
1F
100
AcDbEntity
  8
1
  6
DOT_CENTER
 62
     2
100
AcDbLine
 10
267.760126059978
 20
175.142736924066
 30
0.0
 11
267.760126059978
 21
280.142736924066
 31
0.0
  0
LINE
  5
F9
330
1F
100
AcDbEntity
  8
1
  6
DOT_CENTER
 62
     2
100
AcDbLine
 10
262.986459215066
 20
339.293115005855
 30
0.0
 11
262.986459215066
 21
325.576094653195
 31
0.0
  0
LINE
  5
FA
330
1F
100
AcDbEntity
  8
1
  6
Continuous
 62
     7
100
AcDbLine
 10
191.471567772939
 20
164.642736924066
 30
0.0
 11
190.471567772939
 21
164.642736924066
 31
0.0
  0
LINE
  5
FB
330
1F
100
AcDbEntity
  8
1
  6
Continuous
 62
     7
100
AcDbLine
 10
190.471567772939
 20
164.642736924066
 30
0.0
 11
190.471567772939
 21
123.542736924062
 31
0.0
  0
LINE
  5
FC
330
1F
100
AcDbEntity
  8
1
  6
Continuous
 62
     7
100
AcDbLine
 10
191.471567772939
 20
164.642736924066
 30
0.0
 11
191.081055145486
 21
164.642736924066
 31
0.0
  0
LINE
  5
FD
330
1F
100
AcDbEntity
  8
1
  6
Continuous
 62
     7
100
AcDbLine
 10
191.081055145486
 20
290.642736924066
 30
0.0
 11
190.471567772939
 21
290.642736924066
 31
0.0
  0
LINE
  5
FE
330
1F
100
AcDbEntity
  8
1
  6
Continuous
 62
     7
100
AcDbLine
 10
190.471567772939
 20
290.642736924066
 30
0.0
 11
190.471567772939
 21
164.642736924066
 31
0.0
  0
LINE
  5
FF
330
1F
100
AcDbEntity
  8
1
  6
Continuous
 62
     7
100
AcDbLine
 10
286.886459215061
 20
164.642736924066
 30
0.0
 11
257.086459215067
 21
164.642736924066
 31
0.0
  0
LINE
  5
100
330
1F
100
AcDbEntity
  8
1
  6
Continuous
 62
     7
100
AcDbLine
 10
287.88645921506
 20
164.642736924066
 30
0.0
 11
287.88645921506
 21
290.642736924066
 31
0.0
  0
LINE
  5
101
330
1F
100
AcDbEntity
  8
1
  6
Continuous
 62
     7
100
AcDbLine
 10
286.886459215061
 20
290.642736924066
 30
0.0
 11
287.88645921506
 21
290.642736924066
 31
0.0
  0
LINE
  5
102
330
1F
100
AcDbEntity
  8
1
  6
Continuous
 62
     7
100
AcDbLine
 10
287.88645921506
 20
290.642736924066
 30
0.0
 11
287.88645921506
 21
301.642736924066
 31
0.0
  0
LINE
  5
103
330
1F
100
AcDbEntity
  8
0
  6
Continuous
 62
     7
100
AcDbLine
 10
215.871567772933
 20
281.142736924066
 30
0.0
 11
204.436666243346
 21
281.142736924066
 31
0.0
  0
LINE
  5
104
330
1F
100
AcDbEntity
  8
0
  6
Continuous
 62
     7
100
AcDbLine
 10
215.871567772933
 20
281.142736924066
 30
0.0
 11
215.871567772933
 21
280.142736924066
 31
0.0
  0
LINE
  5
105
330
1F
100
AcDbEntity
  8
0
  6
Continuous
 62
     7
100
AcDbLine
 10
273.917323587297
 20
281.142736924066
 30
0.0
 11
262.486459215067
 21
281.142736924066
 31
0.0
  0
LINE
  5
106
330
1F
100
AcDbEntity
  8
0
  6
Continuous
 62
     7
100
AcDbLine
 10
262.486459215067
 20
281.142736924066
 30
0.0
 11
262.486459215067
 21
281.642736924066
 31
0.0
  0
LINE
  5
107
330
1F
100
AcDbEntity
  8
0
  6
Continuous
 62
     7
100
AcDbLine
 10
215.871567772933
 20
174.142736924066
 30
0.0
 11
215.871567772933
 21
173.642736924066
 31
0.0
  0
LINE
  5
108
330
1F
100
AcDbEntity
  8
0
  6
Continuous
 62
     7
100
AcDbLine
 10
262.486459215067
 20
174.142736924066
 30
0.0
 11
262.486459215067
 21
175.142736924066
 31
0.0
  0
LINE
  5
109
330
1F
100
AcDbEntity
  8
1
  6
DOT_CENTER
 62
     2
100
AcDbLine
 10
264.586459215066
 20
318.642736924066
 30
0.0
 11
268.736459215066
 21
318.642736924066
 31
0.0
  0
LINE
  5
10A
330
1F
100
AcDbEntity
  8
1
  6
DOT_CENTER
 62
     2
100
AcDbLine
 10
259.386459215067
 20
318.642736924066
 30
0.0
 11
264.586459215066
 21
318.642736924066
 31
0.0
  0
LINE
  5
10B
330
1F
100
AcDbEntity
  8
1
  6
DOT_CENTER
 62
     2
100
AcDbLine
 10
259.386459215067
 20
312.642736924066
 30
0.0
 11
264.586459215066
 21
312.642736924066
 31
0.0
  0
LINE
  5
10C
330
1F
100
AcDbEntity
  8
1
  6
DOT_CENTER
 62
     2
100
AcDbLine
 10
264.586459215066
 20
312.642736924066
 30
0.0
 11
268.736459215066
 21
312.642736924066
 31
0.0
  0
LINE
  5
10D
330
1F
100
AcDbEntity
  8
1
  6
DOT_CENTER
 62
     2
100
AcDbLine
 10
284.586459215066
 20
318.642736924066
 30
0.0
 11
288.736459215066
 21
318.642736924066
 31
0.0
  0
LINE
  5
10E
330
1F
100
AcDbEntity
  8
1
  6
DOT_CENTER
 62
     2
100
AcDbLine
 10
279.386459215067
 20
318.642736924066
 30
0.0
 11
284.586459215066
 21
318.642736924066
 31
0.0
  0
LINE
  5
10F
330
1F
100
AcDbEntity
  8
1
  6
DOT_CENTER
 62
     2
100
AcDbLine
 10
279.386459215067
 20
312.642736924066
 30
0.0
 11
284.586459215066
 21
312.642736924066
 31
0.0
  0
LINE
  5
110
330
1F
100
AcDbEntity
  8
1
  6
DOT_CENTER
 62
     2
100
AcDbLine
 10
284.586459215066
 20
312.642736924066
 30
0.0
 11
288.736459215066
 21
312.642736924066
 31
0.0
  0
LINE
  5
111
330
1F
100
AcDbEntity
  8
1
  6
DASHED
 62
     2
100
AcDbLine
 10
259.386459215067
 20
318.642736924066
 30
0.0
 11
259.386459215067
 21
312.642736924066
 31
0.0
  0
LINE
  5
112
330
1F
100
AcDbEntity
  8
1
  6
DASHED
 62
     2
100
AcDbLine
 10
264.586459215066
 20
318.642736924066
 30
0.0
 11
264.586459215066
 21
312.642736924066
 31
0.0
  0
LINE
  5
113
330
1F
100
AcDbEntity
  8
1
  6
DASHED
 62
     2
100
AcDbLine
 10
279.386459215067
 20
318.642736924066
 30
0.0
 11
279.386459215067
 21
312.642736924066
 31
0.0
  0
LINE
  5
114
330
1F
100
AcDbEntity
  8
1
  6
DASHED
 62
     2
100
AcDbLine
 10
284.586459215066
 20
318.642736924066
 30
0.0
 11
284.586459215066
 21
312.642736924066
 31
0.0
  0
LINE
  5
115
330
1F
100
AcDbEntity
  8
1
  6
DOT_CENTER
 62
     2
100
AcDbLine
 10
275.236459215066
 20
318.642736924066
 30
0.0
 11
279.386459215067
 21
318.642736924066
 31
0.0
  0
LINE
  5
116
330
1F
100
AcDbEntity
  8
1
  6
DOT_CENTER
 62
     2
100
AcDbLine
 10
275.236459215066
 20
312.642736924066
 30
0.0
 11
279.386459215067
 21
312.642736924066
 31
0.0
  0
LINE
  5
117
330
1F
100
AcDbEntity
  8
1
  6
DOT_CENTER
 62
     2
100
AcDbLine
 10
268.736459215066
 20
142.642736924066
 30
0.0
 11
264.586459215066
 21
142.642736924066
 31
0.0
  0
LINE
  5
118
330
1F
100
AcDbEntity
  8
1
  6
DOT_CENTER
 62
     2
100
AcDbLine
 10
268.736459215066
 20
136.642736924066
 30
0.0
 11
264.586459215066
 21
136.642736924066
 31
0.0
  0
LINE
  5
119
330
1F
100
AcDbEntity
  8
1
  6
DOT_CENTER
 62
     2
100
AcDbLine
 10
264.586459215066
 20
142.642736924066
 30
0.0
 11
259.386459215067
 21
142.642736924066
 31
0.0
  0
LINE
  5
11A
330
1F
100
AcDbEntity
  8
1
  6
DOT_CENTER
 62
     2
100
AcDbLine
 10
259.386459215067
 20
142.642736924066
 30
0.0
 11
255.236459215067
 21
142.642736924066
 31
0.0
  0
LINE
  5
11B
330
1F
100
AcDbEntity
  8
1
  6
DOT_CENTER
 62
     2
100
AcDbLine
 10
259.386459215067
 20
136.642736924066
 30
0.0
 11
255.236459215067
 21
136.642736924066
 31
0.0
  0
LINE
  5
11C
330
1F
100
AcDbEntity
  8
1
  6
DOT_CENTER
 62
     2
100
AcDbLine
 10
264.586459215066
 20
136.642736924066
 30
0.0
 11
259.386459215067
 21
136.642736924066
 31
0.0
  0
LINE
  5
11D
330
1F
100
AcDbEntity
  8
1
  6
DOT_CENTER
 62
     2
100
AcDbLine
 10
279.386459215067
 20
136.642736924066
 30
0.0
 11
275.236459215066
 21
136.642736924066
 31
0.0
  0
LINE
  5
11E
330
1F
100
AcDbEntity
  8
1
  6
DOT_CENTER
 62
     2
100
AcDbLine
 10
284.586459215066
 20
136.642736924066
 30
0.0
 11
279.386459215067
 21
136.642736924066
 31
0.0
  0
LINE
  5
11F
330
1F
100
AcDbEntity
  8
1
  6
DOT_CENTER
 62
     2
100
AcDbLine
 10
284.586459215066
 20
142.642736924066
 30
0.0
 11
279.386459215067
 21
142.642736924066
 31
0.0
  0
LINE
  5
120
330
1F
100
AcDbEntity
  8
1
  6
DOT_CENTER
 62
     2
100
AcDbLine
 10
279.386459215067
 20
142.642736924066
 30
0.0
 11
275.236459215066
 21
142.642736924066
 31
0.0
  0
LINE
  5
121
330
1F
100
AcDbEntity
  8
1
  6
DASHED
 62
     2
100
AcDbLine
 10
259.386459215067
 20
142.642736924066
 30
0.0
 11
259.386459215067
 21
136.642736924066
 31
0.0
  0
LINE
  5
122
330
1F
100
AcDbEntity
  8
1
  6
DASHED
 62
     2
100
AcDbLine
 10
264.586459215066
 20
136.642736924066
 30
0.0
 11
264.586459215066
 21
142.642736924066
 31
0.0
  0
LINE
  5
123
330
1F
100
AcDbEntity
  8
1
  6
DASHED
 62
     2
100
AcDbLine
 10
279.386459215067
 20
142.642736924066
 30
0.0
 11
279.386459215067
 21
136.642736924066
 31
0.0
  0
LINE
  5
124
330
1F
100
AcDbEntity
  8
1
  6
DASHED
 62
     2
100
AcDbLine
 10
284.586459215066
 20
136.642736924066
 30
0.0
 11
284.586459215066
 21
142.642736924066
 31
0.0
  0
LINE
  5
125
330
1F
100
AcDbEntity
  8
1
  6
Continuous
 62
     7
100
AcDbLine
 10
205.871567772933
 20
128.89273692405
 30
0.0
 11
206.871567772933
 21
128.89273692405
 31
0.0
  0
LINE
  5
126
330
1F
100
AcDbEntity
  8
1
  6
Continuous
 62
     7
100
AcDbLine
 10
206.871567772933
 20
128.89273692405
 30
0.0
 11
206.871567772933
 21
127.64273692405
 31
0.0
  0
LINE
  5
127
330
1F
100
AcDbEntity
  8
1
  6
Continuous
 62
     7
100
AcDbLine
 10
207.371567772933
 20
127.14273692405
 30
0.0
 11
208.621567772933
 21
127.14273692405
 31
0.0
  0
LINE
  5
128
330
1F
100
AcDbEntity
  8
1
  6
Continuous
 62
     7
100
AcDbLine
 10
208.621567772933
 20
127.14273692405
 30
0.0
 11
208.621567772933
 21
126.14273692405
 31
0.0
  0
LINE
  5
129
330
1F
100
AcDbEntity
  8
1
  6
Continuous
 62
     7
100
AcDbLine
 10
208.621567772933
 20
126.14273692405
 30
0.0
 11
207.371567772933
 21
126.14273692405
 31
0.0
  0
LINE
  5
12A
330
1F
100
AcDbEntity
  8
1
  6
Continuous
 62
     7
100
AcDbLine
 10
206.871567772933
 20
125.64273692405
 30
0.0
 11
206.871567772933
 21
124.39273692405
 31
0.0
  0
LINE
  5
12B
330
1F
100
AcDbEntity
  8
1
  6
Continuous
 62
     7
100
AcDbLine
 10
206.871567772933
 20
124.39273692405
 30
0.0
 11
205.871567772933
 21
124.39273692405
 31
0.0
  0
LINE
  5
12C
330
1F
100
AcDbEntity
  8
1
  6
Continuous
 62
     7
100
AcDbLine
 10
205.871567772933
 20
124.39273692405
 30
0.0
 11
205.871567772933
 21
125.64273692405
 31
0.0
  0
LINE
  5
12D
330
1F
100
AcDbEntity
  8
1
  6
Continuous
 62
     7
100
AcDbLine
 10
205.371567772933
 20
126.14273692405
 30
0.0
 11
204.121567772933
 21
126.14273692405
 31
0.0
  0
LINE
  5
12E
330
1F
100
AcDbEntity
  8
1
  6
Continuous
 62
     7
100
AcDbLine
 10
204.121567772933
 20
126.14273692405
 30
0.0
 11
204.121567772933
 21
127.14273692405
 31
0.0
  0
LINE
  5
12F
330
1F
100
AcDbEntity
  8
1
  6
Continuous
 62
     7
100
AcDbLine
 10
204.121567772933
 20
127.14273692405
 30
0.0
 11
205.371567772933
 21
127.14273692405
 31
0.0
  0
LINE
  5
130
330
1F
100
AcDbEntity
  8
1
  6
Continuous
 62
     7
100
AcDbLine
 10
205.871567772933
 20
127.64273692405
 30
0.0
 11
205.871567772933
 21
128.89273692405
 31
0.0
  0
LINE
  5
131
330
1F
100
AcDbEntity
  8
1
  6
Continuous
 62
     7
100
AcDbLine
 10
205.871567772933
 20
127.64273692405
 30
0.0
 11
205.621567772933
 21
127.39273692405
 31
0.0
  0
LINE
  5
132
330
1F
100
AcDbEntity
  8
1
  6
Continuous
 62
     7
100
AcDbLine
 10
206.871567772933
 20
127.64273692405
 30
0.0
 11
207.121567772933
 21
127.39273692405
 31
0.0
  0
LINE
  5
133
330
1F
100
AcDbEntity
  8
1
  6
Continuous
 62
     7
100
AcDbLine
 10
207.371567772933
 20
126.14273692405
 30
0.0
 11
207.121567772933
 21
125.89273692405
 31
0.0
  0
LINE
  5
134
330
1F
100
AcDbEntity
  8
1
  6
Continuous
 62
     7
100
AcDbLine
 10
205.871567772933
 20
125.64273692405
 30
0.0
 11
205.621567772933
 21
125.89273692405
 31
0.0
  0
LINE
  5
135
330
1F
100
AcDbEntity
  8
1
  6
Continuous
 62
     2
100
AcDbLine
 10
207.121567772933
 20
127.39273692405
 30
0.0
 11
207.962558030603
 21
128.23372718172
 31
0.0
  0
LINE
  5
136
330
1F
100
AcDbEntity
  8
1
  6
Continuous
 62
     7
100
AcDbLine
 10
207.121567772933
 20
127.39273692405
 30
0.0
 11
207.371567772933
 21
127.14273692405
 31
0.0
  0
LINE
  5
137
330
1F
100
AcDbEntity
  8
1
  6
Continuous
 62
     2
100
AcDbLine
 10
205.621567772933
 20
127.39273692405
 30
0.0
 11
204.780577515263
 21
128.23372718172
 31
0.0
  0
LINE
  5
138
330
1F
100
AcDbEntity
  8
1
  6
Continuous
 62
     7
100
AcDbLine
 10
205.621567772933
 20
127.39273692405
 30
0.0
 11
205.371567772933
 21
127.14273692405
 31
0.0
  0
LINE
  5
139
330
1F
100
AcDbEntity
  8
1
  6
Continuous
 62
     2
100
AcDbLine
 10
205.621567772933
 20
125.89273692405
 30
0.0
 11
204.780577515263
 21
125.05174666638
 31
0.0
  0
LINE
  5
13A
330
1F
100
AcDbEntity
  8
1
  6
Continuous
 62
     7
100
AcDbLine
 10
205.621567772933
 20
125.89273692405
 30
0.0
 11
205.371567772933
 21
126.14273692405
 31
0.0
  0
LINE
  5
13B
330
1F
100
AcDbEntity
  8
1
  6
Continuous
 62
     2
100
AcDbLine
 10
207.121567772933
 20
125.89273692405
 30
0.0
 11
207.962558030603
 21
125.05174666638
 31
0.0
  0
LINE
  5
13C
330
1F
100
AcDbEntity
  8
1
  6
Continuous
 62
     7
100
AcDbLine
 10
207.121567772933
 20
125.89273692405
 30
0.0
 11
206.871567772933
 21
125.64273692405
 31
0.0
  0
LINE
  5
13D
330
1F
100
AcDbEntity
  8
1
  6
DOT_CENTER
 62
     2
100
AcDbLine
 10
206.371567772933
 20
120.497365691284
 30
0.0
 11
206.371567772933
 21
133.001233347755
 31
0.0
  0
LINE
  5
13E
330
1F
100
AcDbEntity
  8
1
  6
DOT_CENTER
 62
     2
100
AcDbLine
 10
200.674389177044
 20
126.64273692405
 30
0.0
 11
212.797764520148
 21
126.64273692405
 31
0.0
  0
LINE
  5
13F
330
1F
100
AcDbEntity
  8
1
  6
Continuous
 62
     7
100
AcDbLine
 10
271.486459215067
 20
128.89273692405
 30
0.0
 11
272.486459215067
 21
128.89273692405
 31
0.0
  0
LINE
  5
140
330
1F
100
AcDbEntity
  8
1
  6
Continuous
 62
     7
100
AcDbLine
 10
272.486459215067
 20
128.89273692405
 30
0.0
 11
272.486459215067
 21
127.64273692405
 31
0.0
  0
LINE
  5
141
330
1F
100
AcDbEntity
  8
1
  6
Continuous
 62
     7
100
AcDbLine
 10
272.986459215067
 20
127.14273692405
 30
0.0
 11
274.236459215067
 21
127.14273692405
 31
0.0
  0
LINE
  5
142
330
1F
100
AcDbEntity
  8
1
  6
Continuous
 62
     7
100
AcDbLine
 10
274.236459215067
 20
127.14273692405
 30
0.0
 11
274.236459215067
 21
126.14273692405
 31
0.0
  0
LINE
  5
143
330
1F
100
AcDbEntity
  8
1
  6
Continuous
 62
     7
100
AcDbLine
 10
274.236459215067
 20
126.14273692405
 30
0.0
 11
272.986459215067
 21
126.14273692405
 31
0.0
  0
LINE
  5
144
330
1F
100
AcDbEntity
  8
1
  6
Continuous
 62
     7
100
AcDbLine
 10
272.486459215067
 20
125.64273692405
 30
0.0
 11
272.486459215067
 21
124.39273692405
 31
0.0
  0
LINE
  5
145
330
1F
100
AcDbEntity
  8
1
  6
Continuous
 62
     7
100
AcDbLine
 10
272.486459215067
 20
124.39273692405
 30
0.0
 11
271.486459215067
 21
124.39273692405
 31
0.0
  0
LINE
  5
146
330
1F
100
AcDbEntity
  8
1
  6
Continuous
 62
     7
100
AcDbLine
 10
271.486459215067
 20
124.39273692405
 30
0.0
 11
271.486459215067
 21
125.64273692405
 31
0.0
  0
LINE
  5
147
330
1F
100
AcDbEntity
  8
1
  6
Continuous
 62
     7
100
AcDbLine
 10
270.986459215067
 20
126.14273692405
 30
0.0
 11
269.736459215067
 21
126.14273692405
 31
0.0
  0
LINE
  5
148
330
1F
100
AcDbEntity
  8
1
  6
Continuous
 62
     7
100
AcDbLine
 10
269.736459215067
 20
126.14273692405
 30
0.0
 11
269.736459215067
 21
127.14273692405
 31
0.0
  0
LINE
  5
149
330
1F
100
AcDbEntity
  8
1
  6
Continuous
 62
     7
100
AcDbLine
 10
269.736459215067
 20
127.14273692405
 30
0.0
 11
270.986459215067
 21
127.14273692405
 31
0.0
  0
LINE
  5
14A
330
1F
100
AcDbEntity
  8
1
  6
Continuous
 62
     7
100
AcDbLine
 10
271.486459215067
 20
127.64273692405
 30
0.0
 11
271.486459215067
 21
128.89273692405
 31
0.0
  0
LINE
  5
14B
330
1F
100
AcDbEntity
  8
1
  6
Continuous
 62
     7
100
AcDbLine
 10
271.486459215067
 20
127.64273692405
 30
0.0
 11
271.236459215067
 21
127.39273692405
 31
0.0
  0
LINE
  5
14C
330
1F
100
AcDbEntity
  8
1
  6
Continuous
 62
     7
100
AcDbLine
 10
272.486459215067
 20
127.64273692405
 30
0.0
 11
272.736459215067
 21
127.39273692405
 31
0.0
  0
LINE
  5
14D
330
1F
100
AcDbEntity
  8
1
  6
Continuous
 62
     7
100
AcDbLine
 10
272.986459215067
 20
126.14273692405
 30
0.0
 11
272.736459215067
 21
125.89273692405
 31
0.0
  0
LINE
  5
14E
330
1F
100
AcDbEntity
  8
1
  6
Continuous
 62
     7
100
AcDbLine
 10
271.486459215067
 20
125.64273692405
 30
0.0
 11
271.236459215067
 21
125.89273692405
 31
0.0
  0
LINE
  5
14F
330
1F
100
AcDbEntity
  8
1
  6
Continuous
 62
     2
100
AcDbLine
 10
272.736459215067
 20
127.39273692405
 30
0.0
 11
273.577449472736
 21
128.23372718172
 31
0.0
  0
LINE
  5
150
330
1F
100
AcDbEntity
  8
1
  6
Continuous
 62
     7
100
AcDbLine
 10
272.736459215067
 20
127.39273692405
 30
0.0
 11
272.986459215067
 21
127.14273692405
 31
0.0
  0
LINE
  5
151
330
1F
100
AcDbEntity
  8
1
  6
Continuous
 62
     2
100
AcDbLine
 10
271.236459215067
 20
127.39273692405
 30
0.0
 11
270.395468957397
 21
128.23372718172
 31
0.0
  0
LINE
  5
152
330
1F
100
AcDbEntity
  8
1
  6
Continuous
 62
     7
100
AcDbLine
 10
271.236459215067
 20
127.39273692405
 30
0.0
 11
270.986459215067
 21
127.14273692405
 31
0.0
  0
LINE
  5
153
330
1F
100
AcDbEntity
  8
1
  6
Continuous
 62
     2
100
AcDbLine
 10
271.236459215067
 20
125.89273692405
 30
0.0
 11
270.395468957397
 21
125.05174666638
 31
0.0
  0
LINE
  5
154
330
1F
100
AcDbEntity
  8
1
  6
Continuous
 62
     7
100
AcDbLine
 10
271.236459215067
 20
125.89273692405
 30
0.0
 11
270.986459215067
 21
126.14273692405
 31
0.0
  0
LINE
  5
155
330
1F
100
AcDbEntity
  8
1
  6
Continuous
 62
     2
100
AcDbLine
 10
272.736459215067
 20
125.89273692405
 30
0.0
 11
273.577449472736
 21
125.05174666638
 31
0.0
  0
LINE
  5
156
330
1F
100
AcDbEntity
  8
1
  6
Continuous
 62
     7
100
AcDbLine
 10
272.736459215067
 20
125.89273692405
 30
0.0
 11
272.486459215067
 21
125.64273692405
 31
0.0
  0
LINE
  5
157
330
1F
100
AcDbEntity
  8
1
  6
DOT_CENTER
 62
     2
100
AcDbLine
 10
271.986459215067
 20
120.497365691284
 30
0.0
 11
271.986459215067
 21
133.001233347755
 31
0.0
  0
LINE
  5
158
330
1F
100
AcDbEntity
  8
1
  6
DOT_CENTER
 62
     2
100
AcDbLine
 10
266.289280619177
 20
126.64273692405
 30
0.0
 11
278.412655962282
 21
126.64273692405
 31
0.0
  0
LINE
  5
159
330
1F
100
AcDbEntity
  8
1
  6
Continuous
 62
     7
100
AcDbLine
 10
271.486459215067
 20
330.892736924081
 30
0.0
 11
272.486459215067
 21
330.892736924081
 31
0.0
  0
LINE
  5
15A
330
1F
100
AcDbEntity
  8
1
  6
Continuous
 62
     7
100
AcDbLine
 10
272.486459215067
 20
330.892736924081
 30
0.0
 11
272.486459215067
 21
329.642736924081
 31
0.0
  0
LINE
  5
15B
330
1F
100
AcDbEntity
  8
1
  6
Continuous
 62
     7
100
AcDbLine
 10
272.986459215067
 20
329.142736924081
 30
0.0
 11
274.236459215067
 21
329.142736924081
 31
0.0
  0
LINE
  5
15C
330
1F
100
AcDbEntity
  8
1
  6
Continuous
 62
     7
100
AcDbLine
 10
274.236459215067
 20
329.142736924081
 30
0.0
 11
274.236459215067
 21
328.142736924081
 31
0.0
  0
LINE
  5
15D
330
1F
100
AcDbEntity
  8
1
  6
Continuous
 62
     7
100
AcDbLine
 10
274.236459215067
 20
328.142736924081
 30
0.0
 11
272.986459215067
 21
328.142736924081
 31
0.0
  0
LINE
  5
15E
330
1F
100
AcDbEntity
  8
1
  6
Continuous
 62
     7
100
AcDbLine
 10
272.486459215067
 20
327.642736924081
 30
0.0
 11
272.486459215067
 21
326.392736924081
 31
0.0
  0
LINE
  5
15F
330
1F
100
AcDbEntity
  8
1
  6
Continuous
 62
     7
100
AcDbLine
 10
272.486459215067
 20
326.392736924081
 30
0.0
 11
271.486459215067
 21
326.392736924081
 31
0.0
  0
LINE
  5
160
330
1F
100
AcDbEntity
  8
1
  6
Continuous
 62
     7
100
AcDbLine
 10
271.486459215067
 20
326.392736924081
 30
0.0
 11
271.486459215067
 21
327.642736924081
 31
0.0
  0
LINE
  5
161
330
1F
100
AcDbEntity
  8
1
  6
Continuous
 62
     7
100
AcDbLine
 10
270.986459215067
 20
328.142736924081
 30
0.0
 11
269.736459215067
 21
328.142736924081
 31
0.0
  0
LINE
  5
162
330
1F
100
AcDbEntity
  8
1
  6
Continuous
 62
     7
100
AcDbLine
 10
269.736459215067
 20
328.142736924081
 30
0.0
 11
269.736459215067
 21
329.142736924081
 31
0.0
  0
LINE
  5
163
330
1F
100
AcDbEntity
  8
1
  6
Continuous
 62
     7
100
AcDbLine
 10
269.736459215067
 20
329.142736924081
 30
0.0
 11
270.986459215067
 21
329.142736924081
 31
0.0
  0
LINE
  5
164
330
1F
100
AcDbEntity
  8
1
  6
Continuous
 62
     7
100
AcDbLine
 10
271.486459215067
 20
329.642736924081
 30
0.0
 11
271.486459215067
 21
330.892736924081
 31
0.0
  0
LINE
  5
165
330
1F
100
AcDbEntity
  8
1
  6
Continuous
 62
     7
100
AcDbLine
 10
271.486459215067
 20
329.642736924081
 30
0.0
 11
271.236459215067
 21
329.392736924081
 31
0.0
  0
LINE
  5
166
330
1F
100
AcDbEntity
  8
1
  6
Continuous
 62
     7
100
AcDbLine
 10
272.486459215067
 20
329.642736924081
 30
0.0
 11
272.736459215067
 21
329.392736924081
 31
0.0
  0
LINE
  5
167
330
1F
100
AcDbEntity
  8
1
  6
Continuous
 62
     7
100
AcDbLine
 10
272.986459215067
 20
328.142736924081
 30
0.0
 11
272.736459215067
 21
327.892736924081
 31
0.0
  0
LINE
  5
168
330
1F
100
AcDbEntity
  8
1
  6
Continuous
 62
     7
100
AcDbLine
 10
271.486459215067
 20
327.642736924081
 30
0.0
 11
271.236459215067
 21
327.892736924081
 31
0.0
  0
LINE
  5
169
330
1F
100
AcDbEntity
  8
1
  6
Continuous
 62
     2
100
AcDbLine
 10
272.736459215067
 20
329.392736924081
 30
0.0
 11
273.577449472736
 21
330.233727181751
 31
0.0
  0
LINE
  5
16A
330
1F
100
AcDbEntity
  8
1
  6
Continuous
 62
     7
100
AcDbLine
 10
272.736459215067
 20
329.392736924081
 30
0.0
 11
272.986459215067
 21
329.142736924081
 31
0.0
  0
LINE
  5
16B
330
1F
100
AcDbEntity
  8
1
  6
Continuous
 62
     2
100
AcDbLine
 10
271.236459215067
 20
329.392736924081
 30
0.0
 11
270.395468957397
 21
330.233727181751
 31
0.0
  0
LINE
  5
16C
330
1F
100
AcDbEntity
  8
1
  6
Continuous
 62
     7
100
AcDbLine
 10
271.236459215067
 20
329.392736924081
 30
0.0
 11
270.986459215067
 21
329.142736924081
 31
0.0
  0
LINE
  5
16D
330
1F
100
AcDbEntity
  8
1
  6
Continuous
 62
     2
100
AcDbLine
 10
271.236459215067
 20
327.892736924081
 30
0.0
 11
270.395468957397
 21
327.051746666412
 31
0.0
  0
LINE
  5
16E
330
1F
100
AcDbEntity
  8
1
  6
Continuous
 62
     7
100
AcDbLine
 10
271.236459215067
 20
327.892736924081
 30
0.0
 11
270.986459215067
 21
328.142736924081
 31
0.0
  0
LINE
  5
16F
330
1F
100
AcDbEntity
  8
1
  6
Continuous
 62
     2
100
AcDbLine
 10
272.736459215067
 20
327.892736924081
 30
0.0
 11
273.577449472736
 21
327.051746666412
 31
0.0
  0
LINE
  5
170
330
1F
100
AcDbEntity
  8
1
  6
Continuous
 62
     7
100
AcDbLine
 10
272.736459215067
 20
327.892736924081
 30
0.0
 11
272.486459215067
 21
327.642736924081
 31
0.0
  0
LINE
  5
171
330
1F
100
AcDbEntity
  8
1
  6
DOT_CENTER
 62
     2
100
AcDbLine
 10
271.986459215067
 20
322.497365691315
 30
0.0
 11
271.986459215067
 21
335.001233347787
 31
0.0
  0
LINE
  5
172
330
1F
100
AcDbEntity
  8
1
  6
DOT_CENTER
 62
     2
100
AcDbLine
 10
266.289280619177
 20
328.642736924081
 30
0.0
 11
278.412655962282
 21
328.642736924081
 31
0.0
  0
LINE
  5
173
330
1F
100
AcDbEntity
  8
1
  6
Continuous
 62
     7
100
AcDbLine
 10
205.871567772933
 20
330.892736924081
 30
0.0
 11
206.871567772933
 21
330.892736924081
 31
0.0
  0
LINE
  5
174
330
1F
100
AcDbEntity
  8
1
  6
Continuous
 62
     7
100
AcDbLine
 10
206.871567772933
 20
330.892736924081
 30
0.0
 11
206.871567772933
 21
329.642736924081
 31
0.0
  0
LINE
  5
175
330
1F
100
AcDbEntity
  8
1
  6
Continuous
 62
     7
100
AcDbLine
 10
207.371567772933
 20
329.142736924081
 30
0.0
 11
208.621567772933
 21
329.142736924081
 31
0.0
  0
LINE
  5
176
330
1F
100
AcDbEntity
  8
1
  6
Continuous
 62
     7
100
AcDbLine
 10
208.621567772933
 20
329.142736924081
 30
0.0
 11
208.621567772933
 21
328.142736924081
 31
0.0
  0
LINE
  5
177
330
1F
100
AcDbEntity
  8
1
  6
Continuous
 62
     7
100
AcDbLine
 10
208.621567772933
 20
328.142736924081
 30
0.0
 11
207.371567772933
 21
328.142736924081
 31
0.0
  0
LINE
  5
178
330
1F
100
AcDbEntity
  8
1
  6
Continuous
 62
     7
100
AcDbLine
 10
206.871567772933
 20
327.642736924081
 30
0.0
 11
206.871567772933
 21
326.392736924081
 31
0.0
  0
LINE
  5
179
330
1F
100
AcDbEntity
  8
1
  6
Continuous
 62
     7
100
AcDbLine
 10
206.871567772933
 20
326.392736924081
 30
0.0
 11
205.871567772933
 21
326.392736924081
 31
0.0
  0
LINE
  5
17A
330
1F
100
AcDbEntity
  8
1
  6
Continuous
 62
     7
100
AcDbLine
 10
205.871567772933
 20
326.392736924081
 30
0.0
 11
205.871567772933
 21
327.642736924081
 31
0.0
  0
LINE
  5
17B
330
1F
100
AcDbEntity
  8
1
  6
Continuous
 62
     7
100
AcDbLine
 10
205.371567772933
 20
328.142736924081
 30
0.0
 11
204.121567772933
 21
328.142736924081
 31
0.0
  0
LINE
  5
17C
330
1F
100
AcDbEntity
  8
1
  6
Continuous
 62
     7
100
AcDbLine
 10
204.121567772933
 20
328.142736924081
 30
0.0
 11
204.121567772933
 21
329.142736924081
 31
0.0
  0
LINE
  5
17D
330
1F
100
AcDbEntity
  8
1
  6
Continuous
 62
     7
100
AcDbLine
 10
204.121567772933
 20
329.142736924081
 30
0.0
 11
205.371567772933
 21
329.142736924081
 31
0.0
  0
LINE
  5
17E
330
1F
100
AcDbEntity
  8
1
  6
Continuous
 62
     7
100
AcDbLine
 10
205.871567772933
 20
329.642736924081
 30
0.0
 11
205.871567772933
 21
330.892736924081
 31
0.0
  0
LINE
  5
17F
330
1F
100
AcDbEntity
  8
1
  6
Continuous
 62
     7
100
AcDbLine
 10
205.871567772933
 20
329.642736924081
 30
0.0
 11
205.621567772933
 21
329.392736924081
 31
0.0
  0
LINE
  5
180
330
1F
100
AcDbEntity
  8
1
  6
Continuous
 62
     7
100
AcDbLine
 10
206.871567772933
 20
329.642736924081
 30
0.0
 11
207.121567772933
 21
329.392736924081
 31
0.0
  0
LINE
  5
181
330
1F
100
AcDbEntity
  8
1
  6
Continuous
 62
     7
100
AcDbLine
 10
207.371567772933
 20
328.142736924081
 30
0.0
 11
207.121567772933
 21
327.892736924081
 31
0.0
  0
LINE
  5
182
330
1F
100
AcDbEntity
  8
1
  6
Continuous
 62
     7
100
AcDbLine
 10
205.871567772933
 20
327.642736924081
 30
0.0
 11
205.621567772933
 21
327.892736924081
 31
0.0
  0
LINE
  5
183
330
1F
100
AcDbEntity
  8
1
  6
Continuous
 62
     2
100
AcDbLine
 10
207.121567772933
 20
329.392736924081
 30
0.0
 11
207.962558030603
 21
330.233727181751
 31
0.0
  0
LINE
  5
184
330
1F
100
AcDbEntity
  8
1
  6
Continuous
 62
     7
100
AcDbLine
 10
207.121567772933
 20
329.392736924081
 30
0.0
 11
207.371567772933
 21
329.142736924081
 31
0.0
  0
LINE
  5
185
330
1F
100
AcDbEntity
  8
1
  6
Continuous
 62
     2
100
AcDbLine
 10
205.621567772933
 20
329.392736924081
 30
0.0
 11
204.780577515263
 21
330.233727181751
 31
0.0
  0
LINE
  5
186
330
1F
100
AcDbEntity
  8
1
  6
Continuous
 62
     7
100
AcDbLine
 10
205.621567772933
 20
329.392736924081
 30
0.0
 11
205.371567772933
 21
329.142736924081
 31
0.0
  0
LINE
  5
187
330
1F
100
AcDbEntity
  8
1
  6
Continuous
 62
     2
100
AcDbLine
 10
205.621567772933
 20
327.892736924081
 30
0.0
 11
204.780577515263
 21
327.051746666412
 31
0.0
  0
LINE
  5
188
330
1F
100
AcDbEntity
  8
1
  6
Continuous
 62
     7
100
AcDbLine
 10
205.621567772933
 20
327.892736924081
 30
0.0
 11
205.371567772933
 21
328.142736924081
 31
0.0
  0
LINE
  5
189
330
1F
100
AcDbEntity
  8
1
  6
Continuous
 62
     2
100
AcDbLine
 10
207.121567772933
 20
327.892736924081
 30
0.0
 11
207.962558030603
 21
327.051746666412
 31
0.0
  0
LINE
  5
18A
330
1F
100
AcDbEntity
  8
1
  6
Continuous
 62
     7
100
AcDbLine
 10
207.121567772933
 20
327.892736924081
 30
0.0
 11
206.871567772933
 21
327.642736924081
 31
0.0
  0
LINE
  5
18B
330
1F
100
AcDbEntity
  8
1
  6
DOT_CENTER
 62
     2
100
AcDbLine
 10
206.371567772933
 20
322.497365691315
 30
0.0
 11
206.371567772933
 21
335.001233347787
 31
0.0
  0
LINE
  5
18C
330
1F
100
AcDbEntity
  8
1
  6
DOT_CENTER
 62
     2
100
AcDbLine
 10
200.674389177044
 20
328.642736924081
 30
0.0
 11
212.797764520148
 21
328.642736924081
 31
0.0
  0
LINE
  5
18D
102
{ACAD_REACTORS
330
1F2
330
1F2
102
}
330
1F
100
AcDbEntity
  8
1
  6
Continuous
 62
     2
100
AcDbLine
 10
302.139061561898
 20
107.642736924066
 30
0.0
 11
302.599845303454
 21
111.142736924066
 31
0.0
  0
LINE
  5
18E
102
{ACAD_REACTORS
330
1F2
330
1F2
102
}
330
1F
100
AcDbEntity
  8
1
  6
Continuous
 62
     2
100
AcDbLine
 10
301.678277820342
 20
111.142736924066
 30
0.0
 11
302.139061561898
 21
107.642736924066
 31
0.0
  0
LINE
  5
18F
102
{ACAD_REACTORS
330
1F2
330
1F2
102
}
330
1F
100
AcDbEntity
  8
1
  6
Continuous
 62
     2
100
AcDbLine
 10
302.599845303454
 20
111.142736924066
 30
0.0
 11
301.678277820342
 21
111.142736924066
 31
0.0
  0
LINE
  5
190
102
{ACAD_REACTORS
330
1F3
330
1F3
102
}
330
1F
100
AcDbEntity
  8
1
  6
Continuous
 62
     2
100
AcDbLine
 10
302.139061561898
 20
347.642736924066
 30
0.0
 11
301.678277820342
 21
344.142736924066
 31
0.0
  0
LINE
  5
191
102
{ACAD_REACTORS
330
1F3
330
1F3
102
}
330
1F
100
AcDbEntity
  8
1
  6
Continuous
 62
     2
100
AcDbLine
 10
302.599845303454
 20
344.142736924066
 30
0.0
 11
302.139061561898
 21
347.642736924066
 31
0.0
  0
LINE
  5
192
102
{ACAD_REACTORS
330
1F3
330
1F3
102
}
330
1F
100
AcDbEntity
  8
1
  6
Continuous
 62
     2
100
AcDbLine
 10
301.678277820342
 20
344.142736924066
 30
0.0
 11
302.599845303454
 21
344.142736924066
 31
0.0
  0
LINE
  5
193
330
1F
100
AcDbEntity
  8
1
  6
Continuous
 62
     2
100
AcDbLine
 10
271.986459215067
 20
107.642736924066
 30
0.0
 11
304.139061561898
 21
107.642736924066
 31
0.0
  0
LINE
  5
194
330
1F
100
AcDbEntity
  8
1
  6
Continuous
 62
     2
100
AcDbLine
 10
271.986459215067
 20
347.642736924066
 30
0.0
 11
304.139061561898
 21
347.642736924066
 31
0.0
  0
LINE
  5
195
330
1F
100
AcDbEntity
  8
1
  6
Continuous
 62
     2
100
AcDbLine
 10
302.139061561898
 20
347.642736924066
 30
0.0
 11
302.139061561898
 21
107.642736924066
 31
0.0
  0
ARC
  5
196
330
1F
100
AcDbEntity
  8
1
  6
Continuous
 62
     7
100
AcDbCircle
 10
206.371567772919
 20
123.542736924059
 30
0.0
 40
15.89999999998
100
AcDbArc
 50
179.9999999999892
 51
0.00000000001803
  0
ARC
  5
197
330
1F
100
AcDbEntity
  8
1
  6
Continuous
 62
     7
100
AcDbCircle
 10
206.371567772919
 20
331.742736924073
 30
0.0
 40
15.90000000000799
100
AcDbArc
 50
-0.00000000001782
 51
-179.9999999999894
  0
ARC
  5
198
330
1F
100
AcDbEntity
  8
1
  6
DASHED
 62
     2
100
AcDbCircle
 10
261.986459215066
 20
312.642736924066
 30
0.0
 40
2.599999999999
100
AcDbArc
 50
180.0
 51
0.0
  0
ARC
  5
199
330
1F
100
AcDbEntity
  8
1
  6
DASHED
 62
     2
100
AcDbCircle
 10
261.986459215066
 20
318.642736924066
 30
0.0
 40
2.599999999999966
100
AcDbArc
 50
0.0
 51
180.0
  0
ARC
  5
19A
330
1F
100
AcDbEntity
  8
1
  6
DASHED
 62
     2
100
AcDbCircle
 10
281.986459215066
 20
312.642736924066
 30
0.0
 40
2.599999999999
100
AcDbArc
 50
180.0
 51
0.0
  0
ARC
  5
19B
330
1F
100
AcDbEntity
  8
1
  6
DASHED
 62
     2
100
AcDbCircle
 10
281.986459215066
 20
318.642736924066
 30
0.0
 40
2.599999999999966
100
AcDbArc
 50
0.0
 51
180.0
  0
ARC
  5
19C
330
1F
100
AcDbEntity
  8
1
  6
Continuous
 62
     7
100
AcDbCircle
 10
271.986459215067
 20
331.742736924066
 30
0.0
 40
15.89999999999901
100
AcDbArc
 50
0.0
 51
180.0
  0
ARC
  5
19D
330
1F
100
AcDbEntity
  8
1
  6
DASHED
 62
     2
100
AcDbCircle
 10
281.986459215066
 20
318.642736924066
 30
0.0
 40
4.25
100
AcDbArc
 50
0.0
 51
180.0
  0
ARC
  5
19E
330
1F
100
AcDbEntity
  8
1
  6
DASHED
 62
     2
100
AcDbCircle
 10
261.986459215066
 20
318.642736924066
 30
0.0
 40
4.25
100
AcDbArc
 50
0.0
 51
180.0
  0
ARC
  5
19F
330
1F
100
AcDbEntity
  8
1
  6
DASHED
 62
     2
100
AcDbCircle
 10
261.986459215066
 20
312.642736924066
 30
0.0
 40
4.25
100
AcDbArc
 50
180.0
 51
0.0
  0
ARC
  5
1A0
330
1F
100
AcDbEntity
  8
1
  6
DASHED
 62
     2
100
AcDbCircle
 10
281.986459215066
 20
312.642736924066
 30
0.0
 40
4.25
100
AcDbArc
 50
180.0
 51
0.0
  0
ARC
  5
1A1
330
1F
100
AcDbEntity
  8
1
  6
Continuous
 62
     7
100
AcDbCircle
 10
219.399650462277
 20
259.242736924066
 30
0.0
 40
2.5
100
AcDbArc
 50
90.0
 51
180.0
  0
ARC
  5
1A2
330
1F
100
AcDbEntity
  8
1
  6
Continuous
 62
     7
100
AcDbCircle
 10
219.399650462277
 20
196.042736924066
 30
0.0
 40
2.5
100
AcDbArc
 50
180.0
 51
-90.0
  0
ARC
  5
1A3
330
1F
100
AcDbEntity
  8
1
  6
Continuous
 62
     7
100
AcDbCircle
 10
258.964998075327
 20
262.642736924066
 30
0.0
 40
2.5
100
AcDbArc
 50
-90.0
 51
0.0
  0
ARC
  5
1A4
330
1F
100
AcDbEntity
  8
1
  6
Continuous
 62
     7
100
AcDbCircle
 10
258.964998075327
 20
192.642736924066
 30
0.0
 40
2.5
100
AcDbArc
 50
0.0
 51
90.0
  0
ARC
  5
1A5
330
1F
100
AcDbEntity
  8
1
  6
DASHED
 62
     2
100
AcDbCircle
 10
281.986459215066
 20
142.642736924066
 30
0.0
 40
4.25
100
AcDbArc
 50
0.0
 51
180.0
  0
ARC
  5
1A6
330
1F
100
AcDbEntity
  8
1
  6
DASHED
 62
     2
100
AcDbCircle
 10
261.986459215066
 20
142.642736924066
 30
0.0
 40
4.25
100
AcDbArc
 50
0.0
 51
180.0
  0
ARC
  5
1A7
330
1F
100
AcDbEntity
  8
1
  6
DASHED
 62
     2
100
AcDbCircle
 10
261.986459215066
 20
136.642736924066
 30
0.0
 40
4.25
100
AcDbArc
 50
180.0
 51
0.0
  0
ARC
  5
1A8
330
1F
100
AcDbEntity
  8
1
  6
DASHED
 62
     2
100
AcDbCircle
 10
281.986459215066
 20
136.642736924066
 30
0.0
 40
4.25
100
AcDbArc
 50
180.0
 51
0.0
  0
ARC
  5
1A9
330
1F
100
AcDbEntity
  8
1
  6
Continuous
 62
     7
100
AcDbCircle
 10
271.986459215067
 20
123.542736924066
 30
0.0
 40
15.89999999999998
100
AcDbArc
 50
180.0
 51
0.0
  0
ARC
  5
1AA
330
1F
100
AcDbEntity
  8
1
  6
DASHED
 62
     2
100
AcDbCircle
 10
281.986459215066
 20
136.642736924066
 30
0.0
 40
2.599999999999
100
AcDbArc
 50
180.0
 51
0.0
  0
ARC
  5
1AB
330
1F
100
AcDbEntity
  8
1
  6
DASHED
 62
     2
100
AcDbCircle
 10
281.986459215066
 20
142.642736924066
 30
0.0
 40
2.599999999999966
100
AcDbArc
 50
0.0
 51
180.0
  0
ARC
  5
1AC
330
1F
100
AcDbEntity
  8
1
  6
DASHED
 62
     2
100
AcDbCircle
 10
261.986459215066
 20
136.642736924066
 30
0.0
 40
2.599999999999
100
AcDbArc
 50
180.0
 51
0.0
  0
ARC
  5
1AD
330
1F
100
AcDbEntity
  8
1
  6
DASHED
 62
     2
100
AcDbCircle
 10
261.986459215066
 20
142.642736924066
 30
0.0
 40
2.599999999999966
100
AcDbArc
 50
0.0
 51
180.0
  0
ARC
  5
1AE
330
1F
100
AcDbEntity
  8
1
  6
Continuous
 62
     7
100
AcDbCircle
 10
196.271567772927
 20
278.142736924066
 30
0.0
 40
2.0
100
AcDbArc
 50
0.0
 51
90.0
  0
ARC
  5
1AF
330
1F
100
AcDbEntity
  8
1
  6
Continuous
 62
     7
100
AcDbCircle
 10
196.271567772927
 20
177.142736924066
 30
0.0
 40
2.0
100
AcDbArc
 50
-90.0
 51
0.0
  0
CIRCLE
  5
1B0
330
1F
100
AcDbEntity
  8
1
  6
DASHED
 62
     2
100
AcDbCircle
 10
196.871567772933
 20
122.642736924066
 30
0.0
 40
2.75
  0
CIRCLE
  5
1B1
330
1F
100
AcDbEntity
  8
1
  6
DASHED
 62
     2
100
AcDbCircle
 10
196.871567772933
 20
122.642736924066
 30
0.0
 40
5.10000000000602
  0
CIRCLE
  5
1B2
330
1F
100
AcDbEntity
  8
1
  6
DASHED
 62
     2
100
AcDbCircle
 10
215.871567772933
 20
122.642736924066
 30
0.0
 40
5.10000000000602
  0
CIRCLE
  5
1B3
330
1F
100
AcDbEntity
  8
1
  6
DASHED
 62
     2
100
AcDbCircle
 10
215.871567772933
 20
122.642736924066
 30
0.0
 40
2.75
  0
CIRCLE
  5
1B4
330
1F
100
AcDbEntity
  8
1
  6
DASHED
 62
     2
100
AcDbCircle
 10
215.871567772933
 20
332.642736924066
 30
0.0
 40
2.75
  0
CIRCLE
  5
1B5
330
1F
100
AcDbEntity
  8
1
  6
DASHED
 62
     2
100
AcDbCircle
 10
215.871567772933
 20
332.642736924066
 30
0.0
 40
5.10000000000602
  0
CIRCLE
  5
1B6
330
1F
100
AcDbEntity
  8
1
  6
DASHED
 62
     2
100
AcDbCircle
 10
196.871567772933
 20
332.642736924066
 30
0.0
 40
5.10000000000602
  0
CIRCLE
  5
1B7
330
1F
100
AcDbEntity
  8
1
  6
DASHED
 62
     2
100
AcDbCircle
 10
196.871567772933
 20
332.642736924066
 30
0.0
 40
2.75
  0
CIRCLE
  5
1B8
330
1F
100
AcDbEntity
  8
1
  6
DASHED
 62
     2
100
AcDbCircle
 10
280.986459215066
 20
332.642736924066
 30
0.0
 40
2.75
  0
CIRCLE
  5
1B9
330
1F
100
AcDbEntity
  8
1
  6
DASHED
 62
     2
100
AcDbCircle
 10
280.986459215066
 20
332.642736924066
 30
0.0
 40
5.100000000000989
  0
CIRCLE
  5
1BA
330
1F
100
AcDbEntity
  8
1
  6
DASHED
 62
     2
100
AcDbCircle
 10
262.986459215066
 20
332.642736924066
 30
0.0
 40
2.75
  0
CIRCLE
  5
1BB
330
1F
100
AcDbEntity
  8
1
  6
DASHED
 62
     2
100
AcDbCircle
 10
262.986459215066
 20
332.642736924066
 30
0.0
 40
5.100000000000989
  0
CIRCLE
  5
1BC
330
1F
100
AcDbEntity
  8
1
  6
DASHED
 62
     2
100
AcDbCircle
 10
262.986459215066
 20
122.642736924066
 30
0.0
 40
5.100000000000989
  0
CIRCLE
  5
1BD
330
1F
100
AcDbEntity
  8
1
  6
DASHED
 62
     2
100
AcDbCircle
 10
262.986459215066
 20
122.642736924066
 30
0.0
 40
2.75
  0
CIRCLE
  5
1BE
330
1F
100
AcDbEntity
  8
1
  6
DASHED
 62
     2
100
AcDbCircle
 10
280.986459215066
 20
122.642736924066
 30
0.0
 40
5.100000000000989
  0
CIRCLE
  5
1BF
330
1F
100
AcDbEntity
  8
1
  6
DASHED
 62
     2
100
AcDbCircle
 10
280.986459215066
 20
122.642736924066
 30
0.0
 40
2.75
  0
CIRCLE
  5
1C0
330
1F
100
AcDbEntity
  8
1
  6
Continuous
 62
     7
100
AcDbCircle
 10
206.371567772933
 20
126.64273692405
 30
0.0
 40
4.0
  0
CIRCLE
  5
1C1
330
1F
100
AcDbEntity
  8
1
  6
Continuous
 62
     7
100
AcDbCircle
 10
271.986459215067
 20
126.64273692405
 30
0.0
 40
4.0
  0
CIRCLE
  5
1C2
330
1F
100
AcDbEntity
  8
1
  6
Continuous
 62
     7
100
AcDbCircle
 10
271.986459215067
 20
328.642736924081
 30
0.0
 40
4.0
  0
CIRCLE
  5
1C3
330
1F
100
AcDbEntity
  8
1
  6
Continuous
 62
     7
100
AcDbCircle
 10
206.371567772933
 20
328.642736924081
 30
0.0
 40
4.0
  0
MTEXT
  5
1C5
330
1F
100
AcDbEntity
  8
1
 62
     2
100
AcDbMText
 10
300.139061561898
 20
224.921610292845
 30
0.0
 40
3.5
 41
0.0
 71
     7
 72
     1
  1
240
  7
CONVERTER_11
 11
0.0
 21
1.0
 31
0.0
 73
     1
 44
1.0
  0
DIMENSION
  5
1D0
330
1F
100
AcDbEntity
  8
1
100
AcDbDimension
  2
*D1
 10
256.0864592150665
 20
95.264522303263
 30
0.0
 11
239.964070032201
 21
99.014522303263
 31
0.0
 70
    32
  1
34
 71
     5
 42
-1.0
 53
0.00013888888889
  3
ME10_DIM_10
100
AcDbAlignedDimension
 13
222.271567772927
 23
123.542736924064
 33
0.0
 14
256.086459215067
 24
123.542736924066
 34
0.0
100
AcDbRotatedDimension
  0
DIMENSION
  5
1DB
330
1F
100
AcDbEntity
  8
1
100
AcDbDimension
  2
*D2
 10
252.2364592150665
 20
143.571025881514
 30
0.0
 11
239.638246566325
 21
147.321025881514
 31
0.0
 70
    32
  1
25.5
 71
     5
 42
-1.0
 53
0.00013888888889
  3
ME10_DIM_11
100
AcDbAlignedDimension
 13
226.871567772933
 23
173.642736924066
 33
0.0
 14
252.236459215067
 24
173.642736924066
 34
0.0
100
AcDbRotatedDimension
  0
DIMENSION
  5
1E6
330
1F
100
AcDbEntity
  8
1
100
AcDbDimension
  2
*D3
 10
222.2715677729272
 20
95.264522303263
 30
0.0
 11
205.830290720657
 21
99.014522303263
 31
0.0
 70
    32
  1
32
 71
     5
 42
-1.0
 53
0.00013888888889
  3
ME10_DIM_12
100
AcDbAlignedDimension
 13
190.471567772939
 23
123.542736924062
 33
0.0
 14
222.271567772927
 24
123.542736924064
 34
0.0
100
AcDbRotatedDimension
  0
DIMENSION
  5
1F1
330
1F
100
AcDbEntity
  8
1
100
AcDbDimension
  2
*D4
 10
287.8864592150659
 20
95.264522303263
 30
0.0
 11
271.986459215066
 21
99.014522303263
 31
0.0
 70
    32
  1
32
 71
     5
 42
-1.0
 53
0.00013888888889
  3
ME10_DIM_13
100
AcDbAlignedDimension
 13
256.086459215067
 23
123.542736924066
 33
0.0
 14
287.886459215066
 24
123.542736924066
 34
0.0
100
AcDbRotatedDimension
  0
HATCH
  5
1F2
330
1F
100
AcDbEntity
  8
1
  6
Continuous
 62
     2
100
AcDbHatch
 10
0.0
 20
0.0
 30
0.0
210
0.0
220
0.0
230
1.0
  2
SOLID
 70
     1
 71
     1
 91
        1
 92
        1
 93
        3
 72
     1
 10
302.599845303454
 20
111.142736924066
 11
301.678277820342
 21
111.142736924066
 72
     1
 10
301.678277820342
 20
111.142736924066
 11
302.139061561898
 21
107.642736924066
 72
     1
 10
302.139061561898
 20
107.642736924066
 11
302.599845303454
 21
111.142736924066
 97
        3
330
18F
330
18E
330
18D
 75
     0
 76
     1
 98
        1
 10
0.0
 20
0.0
  0
HATCH
  5
1F3
330
1F
100
AcDbEntity
  8
1
  6
Continuous
 62
     2
100
AcDbHatch
 10
0.0
 20
0.0
 30
0.0
210
0.0
220
0.0
230
1.0
  2
SOLID
 70
     1
 71
     1
 91
        1
 92
        1
 93
        3
 72
     1
 10
301.678277820342
 20
344.142736924066
 11
302.599845303454
 21
344.142736924066
 72
     1
 10
302.599845303454
 20
344.142736924066
 11
302.139061561898
 21
347.642736924066
 72
     1
 10
302.139061561898
 20
347.642736924066
 11
301.678277820342
 21
344.142736924066
 97
        3
330
192
330
191
330
190
 75
     0
 76
     1
 98
        1
 10
0.0
 20
0.0
  0
ENDSEC
  0
SECTION
  2
OBJECTS
  0
DICTIONARY
  5
C
330
0
100
AcDbDictionary
281
     1
  3
ACAD_GROUP
350
D
  3
ACAD_LAYOUT
350
1A
  3
ACAD_MLINESTYLE
350
17
  3
ACAD_PLOTSETTINGS
350
19
  3
ACAD_PLOTSTYLENAME
350
E
  0
DICTIONARY
  5
D
102
{ACAD_REACTORS
330
C
102
}
330
C
100
AcDbDictionary
281
     1
  0
DICTIONARY
  5
1A
102
{ACAD_REACTORS
330
C
102
}
330
C
100
AcDbDictionary
281
     1
  3
Layout1
350
1E
  3
Layout2
350
26
  3
Model
350
22
  0
DICTIONARY
  5
17
102
{ACAD_REACTORS
330
C
102
}
330
C
100
AcDbDictionary
281
     1
  3
Standard
350
18
  0
DICTIONARY
  5
19
102
{ACAD_REACTORS
330
C
102
}
330
C
100
AcDbDictionary
281
     1
  0
ACDBDICTIONARYWDFLT
  5
E
102
{ACAD_REACTORS
330
C
102
}
330
C
100
AcDbDictionary
281
     1
  3
Normal
350
F
100
AcDbDictionaryWithDefault
340
F
  0
LAYOUT
  5
1E
102
{ACAD_REACTORS
330
1A
102
}
330
1A
100
AcDbPlotSettings
  1

  2

  4

  6

 40
0.0
 41
0.0
 42
0.0
 43
0.0
 44
0.0
 45
0.0
 46
0.0
 47
0.0
 48
0.0
 49
0.0
140
0.0
141
0.0
142
1.0
143
1.0
 70
   688
 72
     0
 73
     0
 74
     5
  7

 75
    16
 76
     0
 77
     2
 78
   300
147
1.0
148
0.0
149
0.0
100
AcDbLayout
  1
Layout1
 70
     1
 71
     1
 10
0.0
 20
0.0
 11
0.0
 21
0.0
 12
0.0
 22
0.0
 32
0.0
 14
0.0
 24
0.0
 34
0.0
 15
0.0
 25
0.0
 35
0.0
146
0.0
 13
0.0
 23
0.0
 33
0.0
 16
1.0
 26
0.0
 36
0.0
 17
0.0
 27
1.0
 37
0.0
 76
     0
330
1B
  0
LAYOUT
  5
26
102
{ACAD_REACTORS
330
1A
102
}
330
1A
100
AcDbPlotSettings
  1

  2

  4

  6

 40
0.0
 41
0.0
 42
0.0
 43
0.0
 44
0.0
 45
0.0
 46
0.0
 47
0.0
 48
0.0
 49
0.0
140
0.0
141
0.0
142
1.0
143
1.0
 70
   688
 72
     0
 73
     0
 74
     5
  7

 75
    16
 76
     0
 77
     2
 78
   300
147
1.0
148
0.0
149
0.0
100
AcDbLayout
  1
Layout2
 70
     1
 71
     2
 10
0.0
 20
0.0
 11
0.0
 21
0.0
 12
0.0
 22
0.0
 32
0.0
 14
0.0
 24
0.0
 34
0.0
 15
0.0
 25
0.0
 35
0.0
146
0.0
 13
0.0
 23
0.0
 33
0.0
 16
1.0
 26
0.0
 36
0.0
 17
0.0
 27
1.0
 37
0.0
 76
     0
330
23
  0
LAYOUT
  5
22
102
{ACAD_REACTORS
330
1A
102
}
330
1A
100
AcDbPlotSettings
  1

  2

  4

  6

 40
0.0
 41
0.0
 42
0.0
 43
0.0
 44
0.0
 45
0.0
 46
0.0
 47
0.0
 48
0.0
 49
0.0
140
0.0
141
0.0
142
1.0
143
1.0
 70
  1712
 72
     0
 73
     0
 74
     0
  7

 75
     0
 76
     0
 77
     2
 78
   300
147
1.0
148
0.0
149
0.0
100
AcDbLayout
  1
Model
 70
     1
 71
     0
 10
0.0
 20
0.0
 11
0.0
 21
0.0
 12
0.0
 22
0.0
 32
0.0
 14
187.691917460032
 24
93.264522303263
 34
0.0
 15
304.139061561898
 25
347.642736924066
 35
0.0
146
0.0
 13
0.0
 23
0.0
 33
0.0
 16
1.0
 26
0.0
 36
0.0
 17
0.0
 27
1.0
 37
0.0
 76
     0
330
1F
  0
MLINESTYLE
  5
18
102
{ACAD_REACTORS
330
17
102
}
330
17
100
AcDbMlineStyle
  2
Standard
 70
     0
  3

 62
   256
 51
90.0
 52
90.0
 71
     2
 49
0.5
 62
   256
  6
BYLAYER
 49
-0.5
 62
   256
  6
BYLAYER
  0
ACDBPLACEHOLDER
  5
F
102
{ACAD_REACTORS
330
E
102
}
330
E
  0
ENDSEC
  0
EOF
