  0
SECTION
  2
HEADER
  9
$ACADVER
  1
AC1018
  9
$ACADMAINTVER
 70
     0
  9
$DWGCODEPAGE
  3
ANSI_1252
  9
$INSBASE
 10
0.0
 20
0.0
 30
0.0
  9
$EXTMIN
 10
586.169094479899
 20
160.540233742051
 30
0.0
  9
$EXTMAX
 10
732.644599640976
 20
257.3034542425874
 30
0.0
  9
$LIMMIN
 10
0.0
 20
0.0
  9
$LIMMAX
 10
12.0
 20
9.0
  9
$ORTHOMODE
 70
     0
  9
$REGENMODE
 70
     1
  9
$FILLMODE
 70
     1
  9
$QTEXTMODE
 70
     0
  9
$MIRRTEXT
 70
     1
  9
$LTSCALE
 40
1.0
  9
$ATTMODE
 70
     1
  9
$TEXTSIZE
 40
0.2
  9
$TRACEWID
 40
0.05
  9
$TEXTSTYLE
  7
Standard
  9
$CLAYER
  8
0
  9
$CELTYPE
  6
ByLayer
  9
$CECOLOR
 62
   256
  9
$CELTSCALE
 40
1.0
  9
$DISPSILH
 70
     0
  9
$DIMSCALE
 40
1.0
  9
$DIMASZ
 40
0.18
  9
$DIMEXO
 40
0.0625
  9
$DIMDLI
 40
0.38
  9
$DIMRND
 40
0.0
  9
$DIMDLE
 40
0.0
  9
$DIMEXE
 40
0.18
  9
$DIMTP
 40
0.0
  9
$DIMTM
 40
0.0
  9
$DIMTXT
 40
0.18
  9
$DIMCEN
 40
0.09
  9
$DIMTSZ
 40
0.0
  9
$DIMTOL
 70
     0
  9
$DIMLIM
 70
     0
  9
$DIMTIH
 70
     1
  9
$DIMTOH
 70
     1
  9
$DIMSE1
 70
     0
  9
$DIMSE2
 70
     0
  9
$DIMTAD
 70
     0
  9
$DIMZIN
 70
     0
  9
$DIMBLK
  1

  9
$DIMASO
 70
     1
  9
$DIMSHO
 70
     1
  9
$DIMPOST
  1

  9
$DIMAPOST
  1

  9
$DIMALT
 70
     0
  9
$DIMALTD
 70
     2
  9
$DIMALTF
 40
25.4
  9
$DIMLFAC
 40
1.0
  9
$DIMTOFL
 70
     0
  9
$DIMTVP
 40
0.0
  9
$DIMTIX
 70
     0
  9
$DIMSOXD
 70
     0
  9
$DIMSAH
 70
     0
  9
$DIMBLK1
  1

  9
$DIMBLK2
  1

  9
$DIMSTYLE
  2
Standard
  9
$DIMCLRD
 70
     0
  9
$DIMCLRE
 70
     0
  9
$DIMCLRT
 70
     0
  9
$DIMTFAC
 40
1.0
  9
$DIMGAP
 40
0.09
  9
$DIMJUST
 70
     0
  9
$DIMSD1
 70
     0
  9
$DIMSD2
 70
     0
  9
$DIMTOLJ
 70
     1
  9
$DIMTZIN
 70
     0
  9
$DIMALTZ
 70
     0
  9
$DIMALTTZ
 70
     0
  9
$DIMUPT
 70
     0
  9
$DIMDEC
 70
     4
  9
$DIMTDEC
 70
     4
  9
$DIMALTU
 70
     2
  9
$DIMALTTD
 70
     2
  9
$DIMTXSTY
  7
Standard
  9
$DIMAUNIT
 70
     0
  9
$DIMADEC
 70
     0
  9
$DIMALTRND
 40
0.0
  9
$DIMAZIN
 70
     0
  9
$DIMDSEP
 70
    46
  9
$DIMATFIT
 70
     3
  9
$DIMFRAC
 70
     0
  9
$DIMLDRBLK
  1

  9
$DIMLUNIT
 70
     2
  9
$DIMLWD
 70
    -2
  9
$DIMLWE
 70
    -2
  9
$DIMTMOVE
 70
     0
  9
$LUNITS
 70
     2
  9
$LUPREC
 70
     4
  9
$SKETCHINC
 40
0.1
  9
$FILLETRAD
 40
0.5
  9
$AUNITS
 70
     0
  9
$AUPREC
 70
     0
  9
$MENU
  1
.
  9
$ELEVATION
 40
0.0
  9
$PELEVATION
 40
0.0
  9
$THICKNESS
 40
0.0
  9
$LIMCHECK
 70
     0
  9
$CHAMFERA
 40
0.5
  9
$CHAMFERB
 40
0.5
  9
$CHAMFERC
 40
1.0
  9
$CHAMFERD
 40
0.0
  9
$SKPOLY
 70
     0
  9
$TDCREATE
 40
2454816.436619595
  9
$TDUCREATE
 40
2454816.394952928
  9
$TDUPDATE
 40
2454816.436619606
  9
$TDUUPDATE
 40
2454816.39495294
  9
$TDINDWG
 40
0.0000000116
  9
$TDUSRTIMER
 40
0.0000000116
  9
$USRTIMER
 70
     1
  9
$ANGBASE
 50
0.0
  9
$ANGDIR
 70
     0
  9
$PDMODE
 70
     0
  9
$PDSIZE
 40
0.0
  9
$PLINEWID
 40
0.0
  9
$SPLFRAME
 70
     0
  9
$SPLINETYPE
 70
     6
  9
$SPLINESEGS
 70
     8
  9
$HANDSEED
  5
1E7
  9
$SURFTAB1
 70
     6
  9
$SURFTAB2
 70
     6
  9
$SURFTYPE
 70
     6
  9
$SURFU
 70
     6
  9
$SURFV
 70
     6
  9
$UCSBASE
  2

  9
$UCSNAME
  2

  9
$UCSORG
 10
0.0
 20
0.0
 30
0.0
  9
$UCSXDIR
 10
1.0
 20
0.0
 30
0.0
  9
$UCSYDIR
 10
0.0
 20
1.0
 30
0.0
  9
$UCSORTHOREF
  2

  9
$UCSORTHOVIEW
 70
     0
  9
$UCSORGTOP
 10
0.0
 20
0.0
 30
0.0
  9
$UCSORGBOTTOM
 10
0.0
 20
0.0
 30
0.0
  9
$UCSORGLEFT
 10
0.0
 20
0.0
 30
0.0
  9
$UCSORGRIGHT
 10
0.0
 20
0.0
 30
0.0
  9
$UCSORGFRONT
 10
0.0
 20
0.0
 30
0.0
  9
$UCSORGBACK
 10
0.0
 20
0.0
 30
0.0
  9
$PUCSBASE
  2

  9
$PUCSNAME
  2

  9
$PUCSORG
 10
0.0
 20
0.0
 30
0.0
  9
$PUCSXDIR
 10
1.0
 20
0.0
 30
0.0
  9
$PUCSYDIR
 10
0.0
 20
1.0
 30
0.0
  9
$PUCSORTHOREF
  2

  9
$PUCSORTHOVIEW
 70
     0
  9
$PUCSORGTOP
 10
0.0
 20
0.0
 30
0.0
  9
$PUCSORGBOTTOM
 10
0.0
 20
0.0
 30
0.0
  9
$PUCSORGLEFT
 10
0.0
 20
0.0
 30
0.0
  9
$PUCSORGRIGHT
 10
0.0
 20
0.0
 30
0.0
  9
$PUCSORGFRONT
 10
0.0
 20
0.0
 30
0.0
  9
$PUCSORGBACK
 10
0.0
 20
0.0
 30
0.0
  9
$USERI1
 70
     0
  9
$USERI2
 70
     0
  9
$USERI3
 70
     0
  9
$USERI4
 70
     0
  9
$USERI5
 70
     0
  9
$USERR1
 40
14.5
  9
$USERR2
 40
0.0
  9
$USERR3
 40
0.0
  9
$USERR4
 40
0.0
  9
$USERR5
 40
0.0
  9
$WORLDVIEW
 70
     1
  9
$SHADEDGE
 70
     3
  9
$SHADEDIF
 70
    70
  9
$TILEMODE
 70
     1
  9
$MAXACTVP
 70
    64
  9
$PINSBASE
 10
0.0
 20
0.0
 30
0.0
  9
$PLIMCHECK
 70
     0
  9
$PEXTMIN
 10
1.00000000000000E+20
 20
1.00000000000000E+20
 30
1.00000000000000E+20
  9
$PEXTMAX
 10
-1.00000000000000E+20
 20
-1.00000000000000E+20
 30
-1.00000000000000E+20
  9
$PLIMMIN
 10
0.0
 20
0.0
  9
$PLIMMAX
 10
12.0
 20
9.0
  9
$UNITMODE
 70
     0
  9
$VISRETAIN
 70
     1
  9
$PLINEGEN
 70
     0
  9
$PSLTSCALE
 70
     1
  9
$TREEDEPTH
 70
  3020
  9
$CMLSTYLE
  2
Standard
  9
$CMLJUST
 70
     0
  9
$CMLSCALE
 40
1.0
  9
$PROXYGRAPHICS
 70
     1
  9
$MEASUREMENT
 70
     1
  9
$CELWEIGHT
370
    -1
  9
$ENDCAPS
280
     0
  9
$JOINSTYLE
280
     0
  9
$LWDISPLAY
290
     0
  9
$INSUNITS
 70
     1
  9
$HYPERLINKBASE
  1

  9
$STYLESHEET
  1

  9
$XEDIT
290
     1
  9
$CEPSNTYPE
380
     0
  9
$PSTYLEMODE
290
     1
  9
$FINGERPRINTGUID
  2
{849C75AC-6777-4FB2-823F-F29FD1614FA7}
  9
$VERSIONGUID
  2
{FAEB1C32-E019-11D5-929B-00C0DF256EC4}
  9
$EXTNAMES
290
     1
  9
$PSVPSCALE
 40
0.0
  9
$OLESTARTUP
290
     0
  9
$SORTENTS
280
   127
  9
$INDEXCTL
280
     0
  9
$HIDETEXT
280
     1
  9
$XCLIPFRAME
290
     0
  9
$HALOGAP
280
     0
  9
$OBSCOLOR
 70
   257
  9
$OBSLTYPE
280
     0
  9
$INTERSECTIONDISPLAY
280
     0
  9
$INTERSECTIONCOLOR
 70
   257
  9
$DIMASSOC
280
     2
  9
$PROJECTNAME
  1

  0
ENDSEC
  0
SECTION
  2
CLASSES
  0
CLASS
  1
ACDBDICTIONARYWDFLT
  2
AcDbDictionaryWithDefault
  3
ObjectDBX Classes
 90
        0
 91
        3
280
     0
281
     0
  0
CLASS
  1

  2
exOdDbCircle
  3

 90
        0
 91
        3
280
     0
281
     1
  0
ENDSEC
  0
SECTION
  2
TABLES
  0
TABLE
  2
VPORT
  5
8
330
0
100
AcDbSymbolTable
 70
     1
  0
VPORT
  5
29
330
8
100
AcDbSymbolTableRecord
100
AcDbViewportTableRecord
  2
*Active
 70
     0
 10
0.0
 20
0.0
 11
1.0
 21
1.0
 12
659.4068470604375
 22
208.9218439923192
 13
0.0
 23
0.0
 14
0.5
 24
0.5
 15
0.5
 25
0.5
 16
0.0
 26
0.0
 36
1.0
 17
0.0
 27
0.0
 37
0.0
 40
106.4395425505901
 41
1.60267857142857
 42
50.0
 43
0.0
 44
0.0
 50
0.0
 51
0.0
 71
     0
 72
   100
 73
     1
 74
     3
 75
     0
 76
     0
 77
     0
 78
     0
281
     0
 65
     1
110
0.0
120
0.0
130
0.0
111
1.0
121
0.0
131
0.0
112
0.0
122
1.0
132
0.0
 79
     0
146
0.0
  0
ENDTAB
  0
TABLE
  2
LTYPE
  5
5
330
0
100
AcDbSymbolTable
 70
     8
  0
LTYPE
  5
14
330
5
100
AcDbSymbolTableRecord
100
AcDbLinetypeTableRecord
  2
ByBlock
 70
     0
  3

 72
    65
 73
     0
 40
0.0
  0
LTYPE
  5
15
330
5
100
AcDbSymbolTableRecord
100
AcDbLinetypeTableRecord
  2
ByLayer
 70
     0
  3

 72
    65
 73
     0
 40
0.0
  0
LTYPE
  5
16
330
5
100
AcDbSymbolTableRecord
100
AcDbLinetypeTableRecord
  2
Continuous
 70
     0
  3
Solid line
 72
    65
 73
     0
 40
0.0
  0
LTYPE
  5
2A
330
5
100
AcDbSymbolTableRecord
100
AcDbLinetypeTableRecord
  2
DASHED
 70
     0
  3
Dashed
 72
    65
 73
     2
 40
15.0
 49
7.0
 74
     0
 49
-8.0
 74
     0
  0
LTYPE
  5
2B
330
5
100
AcDbSymbolTableRecord
100
AcDbLinetypeTableRecord
  2
DOTTED
 70
     0
  3
Dotted
 72
    65
 73
     2
 40
1.0
 49
0.0
 74
     0
 49
-1.0
 74
     0
  0
LTYPE
  5
2C
330
5
100
AcDbSymbolTableRecord
100
AcDbLinetypeTableRecord
  2
DOT_CENTER
 70
     0
  3
Dot_Center
 72
    65
 73
     4
 40
14.0
 49
12.0
 74
     0
 49
-1.0
 74
     0
 49
0.0
 74
     0
 49
-1.0
 74
     0
  0
LTYPE
  5
2D
330
5
100
AcDbSymbolTableRecord
100
AcDbLinetypeTableRecord
  2
LONG_DASHED
 70
     0
  3
Long_Dashed
 72
    65
 73
     2
 40
15.0
 49
10.0
 74
     0
 49
-5.0
 74
     0
  0
LTYPE
  5
2E
330
5
100
AcDbSymbolTableRecord
100
AcDbLinetypeTableRecord
  2
DASH_CENTER
 70
     0
  3
Dash_Center
 72
    65
 73
     4
 40
14.0
 49
11.0
 74
     0
 49
-1.0
 74
     0
 49
1.0
 74
     0
 49
-1.0
 74
     0
  0
LTYPE
  5
2F
330
5
100
AcDbSymbolTableRecord
100
AcDbLinetypeTableRecord
  2
PHANTOM
 70
     0
  3
Phantom
 72
    65
 73
     6
 40
13.0
 49
10.0
 74
     0
 49
-1.0
 74
     0
 49
0.0
 74
     0
 49
-1.0
 74
     0
 49
0.0
 74
     0
 49
-1.0
 74
     0
  0
LTYPE
  5
30
330
5
100
AcDbSymbolTableRecord
100
AcDbLinetypeTableRecord
  2
CENTER_DASH_DASH
 70
     0
  3
Center_Dash_Dash
 72
    65
 73
     6
 40
14.0
 49
9.0
 74
     0
 49
-1.0
 74
     0
 49
1.0
 74
     0
 49
-1.0
 74
     0
 49
1.0
 74
     0
 49
-1.0
 74
     0
  0
ENDTAB
  0
TABLE
  2
LAYER
  5
2
330
0
100
AcDbSymbolTable
 70
     2
  0
LAYER
  5
10
330
2
100
AcDbSymbolTableRecord
100
AcDbLayerTableRecord
  2
0
 70
     0
 62
     7
  6
Continuous
370
    -3
390
F
  0
LAYER
  5
31
330
2
100
AcDbSymbolTableRecord
100
AcDbLayerTableRecord
  2
1
 70
     0
 62
     7
  6
Continuous
370
    -3
390
F
  0
ENDTAB
  0
TABLE
  2
STYLE
  5
3
330
0
100
AcDbSymbolTable
 70
     2
  0
STYLE
  5
11
330
3
100
AcDbSymbolTableRecord
100
AcDbTextStyleTableRecord
  2
Standard
 70
     0
 40
0.0
 41
1.0
 50
0.0
 71
     0
 42
0.2
  3
txt
  4

  0
STYLE
  5
178
330
3
100
AcDbSymbolTableRecord
100
AcDbTextStyleTableRecord
  2
CONVERTER_11
 70
     0
 40
0.0
 41
0.9
 50
0.0
 71
     0
 42
0.2
  3
txt.shx
  4

  0
ENDTAB
  0
TABLE
  2
VIEW
  5
6
330
0
100
AcDbSymbolTable
 70
     0
  0
ENDTAB
  0
TABLE
  2
UCS
  5
7
330
0
100
AcDbSymbolTable
 70
     0
  0
ENDTAB
  0
TABLE
  2
APPID
  5
9
330
0
100
AcDbSymbolTable
 70
     1
  0
APPID
  5
12
330
9
100
AcDbSymbolTableRecord
100
AcDbRegAppTableRecord
  2
ACAD
 70
     0
  0
ENDTAB
  0
TABLE
  2
DIMSTYLE
  5
A
330
0
100
AcDbSymbolTable
 70
    11
100
AcDbDimStyleTable
  0
DIMSTYLE
105
27
330
A
100
AcDbSymbolTableRecord
100
AcDbDimStyleTableRecord
  2
Standard
 70
     0
340
11
  0
DIMSTYLE
105
17C
102
{ACAD_REACTORS
330
17D
102
}
330
A
100
AcDbSymbolTableRecord
100
AcDbDimStyleTableRecord
  2
ME10_DIM_10
 70
     0
 41
3.5
 42
0.0
 44
2.0
 73
     0
 74
     0
 77
     1
 78
     8
140
3.5
147
2.0
172
     1
173
     1
176
     2
177
     2
178
     2
271
     3
340
178
  0
DIMSTYLE
105
187
102
{ACAD_REACTORS
330
188
102
}
330
A
100
AcDbSymbolTableRecord
100
AcDbDimStyleTableRecord
  2
ME10_DIM_11
 70
     0
 41
3.5
 42
0.0
 44
2.0
 73
     0
 74
     0
 77
     1
 78
     8
140
3.5
147
2.0
172
     1
173
     1
176
     2
177
     2
178
     2
271
     3
340
178
  0
DIMSTYLE
105
192
102
{ACAD_REACTORS
330
193
102
}
330
A
100
AcDbSymbolTableRecord
100
AcDbDimStyleTableRecord
  2
ME10_DIM_12
 70
     0
 41
3.5
 42
0.0
 44
2.0
 73
     0
 74
     0
 77
     1
 78
     8
140
3.5
147
2.0
172
     1
173
     1
176
     2
177
     2
178
     2
271
     3
340
178
  0
DIMSTYLE
105
19D
102
{ACAD_REACTORS
330
19E
102
}
330
A
100
AcDbSymbolTableRecord
100
AcDbDimStyleTableRecord
  2
ME10_DIM_13
 70
     0
 41
3.5
 42
0.0
 44
2.0
 73
     0
 74
     0
 77
     1
 78
     8
140
3.5
147
2.0
172
     1
173
     1
176
     2
177
     2
178
     2
271
     3
340
178
  0
DIMSTYLE
105
1A8
102
{ACAD_REACTORS
330
1A9
102
}
330
A
100
AcDbSymbolTableRecord
100
AcDbDimStyleTableRecord
  2
ME10_DIM_14
 70
     0
 41
3.5
 42
0.0
 44
2.0
 73
     0
 74
     0
 77
     1
 78
     8
140
3.5
147
2.0
172
     1
173
     1
176
     2
177
     2
178
     2
271
     3
340
178
  0
DIMSTYLE
105
1B5
102
{ACAD_REACTORS
330
1B6
102
}
330
A
100
AcDbSymbolTableRecord
100
AcDbDimStyleTableRecord
  2
ME10_DIM_15
 70
     0
 41
3.5
 42
0.0
 44
2.0
 73
     0
 74
     0
 77
     1
 78
     8
140
3.5
147
2.0
172
     1
173
     1
176
     2
177
     2
178
     2
271
     3
340
178
  0
DIMSTYLE
105
1C2
102
{ACAD_REACTORS
330
1C3
102
}
330
A
100
AcDbSymbolTableRecord
100
AcDbDimStyleTableRecord
  2
ME10_DIM_16
 70
     0
 41
3.5
 42
0.0
 44
2.0
 73
     0
 74
     0
 77
     1
 78
     8
140
3.5
147
2.0
172
     1
173
     1
176
     2
177
     2
178
     2
271
     3
340
178
  0
DIMSTYLE
105
1CD
102
{ACAD_REACTORS
330
1CE
102
}
330
A
100
AcDbSymbolTableRecord
100
AcDbDimStyleTableRecord
  2
ME10_DIM_17
 70
     0
 41
3.5
 42
0.0
 44
2.0
 73
     0
 74
     0
 77
     1
 78
     8
140
3.5
147
2.0
172
     1
173
     1
176
     2
177
     2
178
     2
271
     3
340
178
  0
DIMSTYLE
105
1D8
102
{ACAD_REACTORS
330
1D9
102
}
330
A
100
AcDbSymbolTableRecord
100
AcDbDimStyleTableRecord
  2
ME10_DIM_18
 70
     0
 41
3.5
 42
0.0
 44
2.0
 73
     0
 74
     0
 77
     1
 78
     8
140
3.5
147
2.0
172
     1
173
     1
176
     2
177
     2
178
     2
271
     3
340
178
  0
DIMSTYLE
105
1E5
102
{ACAD_REACTORS
330
1E6
102
}
330
A
100
AcDbSymbolTableRecord
100
AcDbDimStyleTableRecord
  2
ME10_DIM_19
 70
     0
 41
3.5
 42
0.0
 44
2.0
 73
     0
 74
     0
 77
     1
 78
     8
140
3.5
147
2.0
172
     1
173
     1
176
     2
177
     2
178
     2
271
     3
340
178
  0
ENDTAB
  0
TABLE
  2
BLOCK_RECORD
  5
1
330
0
100
AcDbSymbolTable
 70
    11
  0
BLOCK_RECORD
  5
1F
330
1
100
AcDbSymbolTableRecord
100
AcDbBlockTableRecord
  2
*Model_Space
340
22
  0
BLOCK_RECORD
  5
1B
330
1
100
AcDbSymbolTableRecord
100
AcDbBlockTableRecord
  2
*Paper_Space
340
1E
  0
BLOCK_RECORD
  5
23
330
1
100
AcDbSymbolTableRecord
100
AcDbBlockTableRecord
  2
*Paper_Space0
340
26
  0
BLOCK_RECORD
  5
172
330
1
100
AcDbSymbolTableRecord
100
AcDbBlockTableRecord
  2
*D1
340
0
  0
BLOCK_RECORD
  5
17E
330
1
100
AcDbSymbolTableRecord
100
AcDbBlockTableRecord
  2
*D2
340
0
  0
BLOCK_RECORD
  5
189
330
1
100
AcDbSymbolTableRecord
100
AcDbBlockTableRecord
  2
*D3
340
0
  0
BLOCK_RECORD
  5
194
330
1
100
AcDbSymbolTableRecord
100
AcDbBlockTableRecord
  2
*D4
340
0
  0
BLOCK_RECORD
  5
19F
330
1
100
AcDbSymbolTableRecord
100
AcDbBlockTableRecord
  2
*D5
340
0
  0
BLOCK_RECORD
  5
1AA
330
1
100
AcDbSymbolTableRecord
100
AcDbBlockTableRecord
  2
*D6
340
0
  0
BLOCK_RECORD
  5
1B7
330
1
100
AcDbSymbolTableRecord
100
AcDbBlockTableRecord
  2
*D7
340
0
  0
BLOCK_RECORD
  5
1C4
330
1
100
AcDbSymbolTableRecord
100
AcDbBlockTableRecord
  2
*D8
340
0
  0
BLOCK_RECORD
  5
1CF
330
1
100
AcDbSymbolTableRecord
100
AcDbBlockTableRecord
  2
*D9
340
0
  0
BLOCK_RECORD
  5
1DA
330
1
100
AcDbSymbolTableRecord
100
AcDbBlockTableRecord
  2
*D10
340
0
  0
ENDTAB
  0
ENDSEC
  0
SECTION
  2
BLOCKS
  0
BLOCK
  5
20
330
1F
100
AcDbEntity
  8
0
100
AcDbBlockBegin
  2
*Model_Space
 70
     0
 71
     0
 10
0.0
 20
0.0
 30
0.0
  3
*Model_Space
  1

  0
ENDBLK
  5
21
330
1F
100
AcDbEntity
  8
0
100
AcDbBlockEnd
  0
BLOCK
  5
1C
330
1B
100
AcDbEntity
 67
     1
  8
0
100
AcDbBlockBegin
  2
*Paper_Space
 70
     0
 71
     0
 10
0.0
 20
0.0
 30
0.0
  3
*Paper_Space
  1

  0
ENDBLK
  5
1D
330
1B
100
AcDbEntity
 67
     1
  8
0
100
AcDbBlockEnd
  0
BLOCK
  5
24
330
23
100
AcDbEntity
  8
0
100
AcDbBlockBegin
  2
*Paper_Space0
 70
     0
 71
     0
 10
0.0
 20
0.0
 30
0.0
  3
*Paper_Space0
  1

  0
ENDBLK
  5
25
330
23
100
AcDbEntity
  8
0
100
AcDbBlockEnd
  0
BLOCK
  5
17A
330
172
100
AcDbEntity
  8
0
100
AcDbBlockBegin
  2
*D1
 70
     1
 71
     0
 10
0.0
 20
0.0
 30
0.0
  3
*D1
  1

  0
LINE
  5
173
330
172
100
AcDbEntity
  8
1
  6
Continuous
 62
     2
100
AcDbLine
 10
721.135640717242
 20
231.2379374782647
 30
0.0
 11
721.135640717242
 21
199.2379374782763
 31
0.0
  0
LINE
  5
174
330
172
100
AcDbEntity
  8
1
  6
Continuous
 62
     2
100
AcDbLine
 10
702.1717830109272
 20
199.2379374782763
 30
0.0
 11
723.135640717242
 21
199.2379374782763
 31
0.0
  0
LINE
  5
175
330
172
100
AcDbEntity
  8
1
  6
Continuous
 62
     2
100
AcDbLine
 10
702.1717830109272
 20
231.2379374782647
 30
0.0
 11
723.135640717242
 21
231.2379374782647
 31
0.0
  0
SOLID
  5
176
330
172
100
AcDbEntity
  8
1
 62
     2
100
AcDbTrace
 10
721.596424458798
 20
227.7379374782647
 30
0.0
 11
720.6748569756861
 21
227.7379374782647
 31
0.0
 12
721.135640717242
 22
231.2379374782647
 32
0.0
 13
721.135640717242
 23
231.2379374782647
 33
0.0
  0
SOLID
  5
177
330
172
100
AcDbEntity
  8
1
 62
     2
100
AcDbTrace
 10
720.6748569756861
 20
202.7379374782763
 30
0.0
 11
721.596424458798
 21
202.7379374782763
 31
0.0
 12
721.135640717242
 22
199.2379374782763
 32
0.0
 13
721.135640717242
 23
199.2379374782763
 33
0.0
  0
MTEXT
  5
179
330
172
100
AcDbEntity
  8
1
 62
     2
100
AcDbMText
 10
719.135640717242
 20
214.991694681453
 30
0.0
 40
3.5
 41
0.0
 71
     7
 72
     1
  1
32
  7
CONVERTER_11
 11
0.0
 21
1.0
 31
0.0
 73
     1
 44
0.60024009603842
  0
ENDBLK
  5
17B
330
172
100
AcDbEntity
  8
0
100
AcDbBlockEnd
  0
BLOCK
  5
185
330
17E
100
AcDbEntity
  8
0
100
AcDbBlockBegin
  2
*D2
 70
     1
 71
     0
 10
0.0
 20
0.0
 30
0.0
  3
*D2
  1

  0
LINE
  5
17F
330
17E
100
AcDbEntity
  8
1
  6
Continuous
 62
     2
100
AcDbLine
 10
601.649832921375
 20
231.2379374782644
 30
0.0
 11
601.649832921375
 21
199.2379374782646
 31
0.0
  0
LINE
  5
180
330
17E
100
AcDbEntity
  8
1
  6
Continuous
 62
     2
100
AcDbLine
 10
614.1717830109271
 20
199.2379374782646
 30
0.0
 11
599.649832921375
 21
199.2379374782646
 31
0.0
  0
LINE
  5
181
330
17E
100
AcDbEntity
  8
1
  6
Continuous
 62
     2
100
AcDbLine
 10
614.1717830109271
 20
231.2379374782644
 30
0.0
 11
599.649832921375
 21
231.2379374782644
 31
0.0
  0
SOLID
  5
182
330
17E
100
AcDbEntity
  8
1
 62
     2
100
AcDbTrace
 10
602.110616662931
 20
227.7379374782644
 30
0.0
 11
601.1890491798191
 21
227.7379374782644
 31
0.0
 12
601.649832921375
 22
231.2379374782644
 32
0.0
 13
601.649832921375
 23
231.2379374782644
 33
0.0
  0
SOLID
  5
183
330
17E
100
AcDbEntity
  8
1
 62
     2
100
AcDbTrace
 10
601.1890491798191
 20
202.7379374782646
 30
0.0
 11
602.110616662931
 21
202.7379374782646
 31
0.0
 12
601.649832921375
 22
199.2379374782646
 32
0.0
 13
601.649832921375
 23
199.2379374782646
 33
0.0
  0
MTEXT
  5
184
330
17E
100
AcDbEntity
  8
1
 62
     2
100
AcDbMText
 10
599.649832921375
 20
214.124625550312
 30
0.0
 40
3.5
 41
0.0
 71
     7
 72
     1
  1
32
  7
CONVERTER_11
 11
0.0
 21
1.0
 31
0.0
 73
     1
 44
0.60024009603842
  0
ENDBLK
  5
186
330
17E
100
AcDbEntity
  8
0
100
AcDbBlockEnd
  0
BLOCK
  5
190
330
189
100
AcDbEntity
  8
0
100
AcDbBlockBegin
  2
*D3
 70
     1
 71
     0
 10
0.0
 20
0.0
 30
0.0
  3
*D3
  1

  0
LINE
  5
18A
330
189
100
AcDbEntity
  8
1
  6
Continuous
 62
     2
100
AcDbLine
 10
658.6717830109271
 20
175.540233742051
 30
0.0
 11
699.6717830109271
 21
175.540233742051
 31
0.0
  0
LINE
  5
18B
330
189
100
AcDbEntity
  8
1
  6
Continuous
 62
     2
100
AcDbLine
 10
699.6717830109271
 20
202.6499801055365
 30
0.0
 11
699.6717830109271
 21
173.540233742051
 31
0.0
  0
LINE
  5
18C
330
189
100
AcDbEntity
  8
1
  6
Continuous
 62
     2
100
AcDbLine
 10
658.6717830109271
 20
186.2379374782644
 30
0.0
 11
658.6717830109271
 21
173.540233742051
 31
0.0
  0
SOLID
  5
18D
330
189
100
AcDbEntity
  8
1
 62
     2
100
AcDbTrace
 10
662.1717830109271
 20
176.0010174836069
 30
0.0
 11
662.1717830109271
 21
175.0794500004951
 31
0.0
 12
658.6717830109271
 22
175.540233742051
 32
0.0
 13
658.6717830109271
 23
175.540233742051
 33
0.0
  0
SOLID
  5
18E
330
189
100
AcDbEntity
  8
1
 62
     2
100
AcDbTrace
 10
696.1717830109271
 20
175.0794500004951
 30
0.0
 11
696.1717830109271
 21
176.0010174836069
 31
0.0
 12
699.6717830109271
 22
175.540233742051
 32
0.0
 13
699.6717830109271
 23
175.540233742051
 33
0.0
  0
MTEXT
  5
18F
330
189
100
AcDbEntity
  8
1
 62
     2
100
AcDbMText
 10
677.3660056049398
 20
177.540233742051
 30
0.0
 40
3.5
 41
0.0
 71
     7
 72
     1
  1
41
  7
CONVERTER_11
 11
0.9999999999970621
 21
2.424068405545307E-6
 31
0.0
 73
     1
 44
0.60024009603842
  0
ENDBLK
  5
191
330
189
100
AcDbEntity
  8
0
100
AcDbBlockEnd
  0
BLOCK
  5
19B
330
194
100
AcDbEntity
  8
0
100
AcDbBlockBegin
  2
*D4
 70
     1
 71
     0
 10
0.0
 20
0.0
 30
0.0
  3
*D4
  1

  0
LINE
  5
195
330
194
100
AcDbEntity
  8
1
  6
Continuous
 62
     2
100
AcDbLine
 10
614.1717830109271
 20
175.540233742051
 30
0.0
 11
655.1717830109271
 21
175.540233742051
 31
0.0
  0
LINE
  5
196
330
194
100
AcDbEntity
  8
1
  6
Continuous
 62
     2
100
AcDbLine
 10
655.1717830109271
 20
186.2379374782646
 30
0.0
 11
655.1717830109271
 21
173.540233742051
 31
0.0
  0
LINE
  5
197
330
194
100
AcDbEntity
  8
1
  6
Continuous
 62
     2
100
AcDbLine
 10
614.1717830109271
 20
199.2379374782646
 30
0.0
 11
614.1717830109271
 21
173.540233742051
 31
0.0
  0
SOLID
  5
198
330
194
100
AcDbEntity
  8
1
 62
     2
100
AcDbTrace
 10
617.6717830109271
 20
176.0010174836069
 30
0.0
 11
617.6717830109271
 21
175.0794500004951
 31
0.0
 12
614.1717830109271
 22
175.540233742051
 32
0.0
 13
614.1717830109271
 23
175.540233742051
 33
0.0
  0
SOLID
  5
199
330
194
100
AcDbEntity
  8
1
 62
     2
100
AcDbTrace
 10
651.6717830109271
 20
175.0794500004951
 30
0.0
 11
651.6717830109271
 21
176.0010174836069
 31
0.0
 12
655.1717830109271
 22
175.540233742051
 32
0.0
 13
655.1717830109271
 23
175.540233742051
 33
0.0
  0
MTEXT
  5
19A
330
194
100
AcDbEntity
  8
1
 62
     2
100
AcDbMText
 10
628.729572891007
 20
177.540233742051
 30
0.0
 40
3.5
 41
0.0
 71
     7
 72
     1
  1
41
  7
CONVERTER_11
 11
0.9999999999970621
 21
2.424068405545307E-6
 31
0.0
 73
     1
 44
0.60024009603842
  0
ENDBLK
  5
19C
330
194
100
AcDbEntity
  8
0
100
AcDbBlockEnd
  0
BLOCK
  5
1A6
330
19F
100
AcDbEntity
  8
0
100
AcDbBlockBegin
  2
*D5
 70
     1
 71
     0
 10
0.0
 20
0.0
 30
0.0
  3
*D5
  1

  0
LINE
  5
1A0
330
19F
100
AcDbEntity
  8
1
  6
Continuous
 62
     2
100
AcDbLine
 10
658.6717830109271
 20
162.540233742051
 30
0.0
 11
702.1717830109272
 21
162.540233742051
 31
0.0
  0
LINE
  5
1A1
330
19F
100
AcDbEntity
  8
1
  6
Continuous
 62
     2
100
AcDbLine
 10
702.1717830109272
 20
199.2379374782763
 30
0.0
 11
702.1717830109272
 21
160.540233742051
 31
0.0
  0
LINE
  5
1A2
330
19F
100
AcDbEntity
  8
1
  6
Continuous
 62
     2
100
AcDbLine
 10
658.6717830109271
 20
186.2379374782644
 30
0.0
 11
658.6717830109271
 21
160.540233742051
 31
0.0
  0
SOLID
  5
1A3
330
19F
100
AcDbEntity
  8
1
 62
     2
100
AcDbTrace
 10
662.1717830109271
 20
163.0010174836069
 30
0.0
 11
662.1717830109271
 21
162.0794500004951
 31
0.0
 12
658.6717830109271
 22
162.540233742051
 32
0.0
 13
658.6717830109271
 23
162.540233742051
 33
0.0
  0
SOLID
  5
1A4
330
19F
100
AcDbEntity
  8
1
 62
     2
100
AcDbTrace
 10
698.6717830109272
 20
162.0794500004951
 30
0.0
 11
698.6717830109272
 21
163.0010174836069
 31
0.0
 12
702.1717830109272
 22
162.540233742051
 32
0.0
 13
702.1717830109272
 23
162.540233742051
 33
0.0
  0
MTEXT
  5
1A5
330
19F
100
AcDbEntity
  8
1
 62
     2
100
AcDbMText
 10
674.6530330109272
 20
164.540233742051
 30
0.0
 40
3.5
 41
0.0
 71
     7
 72
     1
  1
43.5
  7
CONVERTER_11
 11
0.9999999999970621
 21
2.424068405545307E-6
 31
0.0
 73
     1
 44
0.60024009603842
  0
ENDBLK
  5
1A7
330
19F
100
AcDbEntity
  8
0
100
AcDbBlockEnd
  0
BLOCK
  5
1B3
330
1AA
100
AcDbEntity
  8
0
100
AcDbBlockBegin
  2
*D6
 70
     1
 71
     0
 10
0.0
 20
0.0
 30
0.0
  3
*D6
  1

  0
LINE
  5
1AB
330
1AA
100
AcDbEntity
  8
1
  6
Continuous
 62
     2
100
AcDbLine
 10
648.1717830109271
 20
175.540233742051
 30
0.0
 11
655.1717830109271
 21
175.540233742051
 31
0.0
  0
LINE
  5
1AC
330
1AA
100
AcDbEntity
  8
1
  6
Continuous
 62
     2
100
AcDbLine
 10
655.1717830109271
 20
175.540233742051
 30
0.0
 11
658.6717830109271
 21
175.540233742051
 31
0.0
  0
LINE
  5
1AD
330
1AA
100
AcDbEntity
  8
1
  6
Continuous
 62
     2
100
AcDbLine
 10
658.6717830109271
 20
175.540233742051
 30
0.0
 11
665.6717830109271
 21
175.540233742051
 31
0.0
  0
LINE
  5
1AE
330
1AA
100
AcDbEntity
  8
1
  6
Continuous
 62
     2
100
AcDbLine
 10
658.6717830109271
 20
186.2379374782644
 30
0.0
 11
658.6717830109271
 21
173.540233742051
 31
0.0
  0
LINE
  5
1AF
330
1AA
100
AcDbEntity
  8
1
  6
Continuous
 62
     2
100
AcDbLine
 10
655.1717830109271
 20
186.2379374782646
 30
0.0
 11
655.1717830109271
 21
173.540233742051
 31
0.0
  0
SOLID
  5
1B0
330
1AA
100
AcDbEntity
  8
1
 62
     2
100
AcDbTrace
 10
651.6717830109271
 20
175.0794500004951
 30
0.0
 11
651.6717830109271
 21
176.0010174836069
 31
0.0
 12
655.1717830109271
 22
175.540233742051
 32
0.0
 13
655.1717830109271
 23
175.540233742051
 33
0.0
  0
SOLID
  5
1B1
330
1AA
100
AcDbEntity
  8
1
 62
     2
100
AcDbTrace
 10
662.1717830109271
 20
176.0010174836069
 30
0.0
 11
662.1717830109271
 21
175.0794500004951
 31
0.0
 12
658.6717830109271
 22
175.540233742051
 32
0.0
 13
658.6717830109271
 23
175.540233742051
 33
0.0
  0
MTEXT
  5
1B2
330
1AA
100
AcDbEntity
  8
1
 62
     2
100
AcDbMText
 10
651.304296819926
 20
168.714548090692
 30
0.0
 40
3.5
 41
0.0
 71
     7
 72
     1
  1
3.5
  7
CONVERTER_11
 11
0.9999999999970621
 21
2.424068405545307E-6
 31
0.0
 73
     1
 44
0.60024009603842
  0
ENDBLK
  5
1B4
330
1AA
100
AcDbEntity
  8
0
100
AcDbBlockEnd
  0
BLOCK
  5
1C0
330
1B7
100
AcDbEntity
  8
0
100
AcDbBlockBegin
  2
*D7
 70
     1
 71
     0
 10
0.0
 20
0.0
 30
0.0
  3
*D7
  1

  0
LINE
  5
1B8
330
1B7
100
AcDbEntity
  8
1
  6
Continuous
 62
     2
100
AcDbLine
 10
730.644599640976
 20
179.2379374782644
 30
0.0
 11
730.644599640976
 21
186.2379374782644
 31
0.0
  0
LINE
  5
1B9
330
1B7
100
AcDbEntity
  8
1
  6
Continuous
 62
     2
100
AcDbLine
 10
730.644599640976
 20
186.2379374782644
 30
0.0
 11
730.644599640976
 21
194.2379374782646
 31
0.0
  0
LINE
  5
1BA
330
1B7
100
AcDbEntity
  8
1
  6
Continuous
 62
     2
100
AcDbLine
 10
730.644599640976
 20
194.2379374782646
 30
0.0
 11
730.644599640976
 21
201.2379374782646
 31
0.0
  0
LINE
  5
1BB
330
1B7
100
AcDbEntity
  8
1
  6
Continuous
 62
     2
100
AcDbLine
 10
713.6717830109271
 20
194.2379374782646
 30
0.0
 11
732.644599640976
 21
194.2379374782646
 31
0.0
  0
LINE
  5
1BC
330
1B7
100
AcDbEntity
  8
1
  6
Continuous
 62
     2
100
AcDbLine
 10
713.6717830109271
 20
186.2379374782644
 30
0.0
 11
732.644599640976
 21
186.2379374782644
 31
0.0
  0
SOLID
  5
1BD
330
1B7
100
AcDbEntity
  8
1
 62
     2
100
AcDbTrace
 10
731.105383382532
 20
182.7379374782644
 30
0.0
 11
730.1838158994201
 21
182.7379374782644
 31
0.0
 12
730.644599640976
 22
186.2379374782644
 32
0.0
 13
730.644599640976
 23
186.2379374782644
 33
0.0
  0
SOLID
  5
1BE
330
1B7
100
AcDbEntity
  8
1
 62
     2
100
AcDbTrace
 10
730.1838158994201
 20
197.7379374782646
 30
0.0
 11
731.105383382532
 21
197.7379374782646
 31
0.0
 12
730.644599640976
 22
194.2379374782646
 32
0.0
 13
730.644599640976
 23
194.2379374782646
 33
0.0
  0
MTEXT
  5
1BF
330
1B7
100
AcDbEntity
  8
1
 62
     2
100
AcDbMText
 10
728.644599640976
 20
189.530896689886
 30
0.0
 40
3.5
 41
0.0
 71
     7
 72
     1
  1
8
  7
CONVERTER_11
 11
0.0
 21
1.0
 31
0.0
 73
     1
 44
0.60024009603842
  0
ENDBLK
  5
1C1
330
1B7
100
AcDbEntity
  8
0
100
AcDbBlockEnd
  0
BLOCK
  5
1CB
330
1C4
100
AcDbEntity
  8
0
100
AcDbBlockBegin
  2
*D8
 70
     1
 71
     0
 10
0.0
 20
0.0
 30
0.0
  3
*D8
  1

  0
LINE
  5
1C5
330
1C4
100
AcDbEntity
  8
1
  6
Continuous
 62
     2
100
AcDbLine
 10
730.644599640976
 20
194.2379374782647
 30
0.0
 11
730.644599640976
 21
231.2379374782648
 31
0.0
  0
LINE
  5
1C6
330
1C4
100
AcDbEntity
  8
1
  6
Continuous
 62
     2
100
AcDbLine
 10
702.1717830109272
 20
231.2379374782648
 30
0.0
 11
732.644599640976
 21
231.2379374782648
 31
0.0
  0
LINE
  5
1C7
330
1C4
100
AcDbEntity
  8
1
  6
Continuous
 62
     2
100
AcDbLine
 10
713.6717830109271
 20
194.2379374782647
 30
0.0
 11
732.644599640976
 21
194.2379374782647
 31
0.0
  0
SOLID
  5
1C8
330
1C4
100
AcDbEntity
  8
1
 62
     2
100
AcDbTrace
 10
730.1838158994201
 20
197.7379374782647
 30
0.0
 11
731.105383382532
 21
197.7379374782647
 31
0.0
 12
730.644599640976
 22
194.2379374782647
 32
0.0
 13
730.644599640976
 23
194.2379374782647
 33
0.0
  0
SOLID
  5
1C9
330
1C4
100
AcDbEntity
  8
1
 62
     2
100
AcDbTrace
 10
731.105383382532
 20
227.7379374782648
 30
0.0
 11
730.1838158994201
 21
227.7379374782648
 31
0.0
 12
730.644599640976
 22
231.2379374782648
 32
0.0
 13
730.644599640976
 23
231.2379374782648
 33
0.0
  0
MTEXT
  5
1CA
330
1C4
100
AcDbEntity
  8
1
 62
     2
100
AcDbMText
 10
728.644599640976
 20
210.1129374782647
 30
0.0
 40
3.5
 41
0.0
 71
     7
 72
     1
  1
37
  7
CONVERTER_11
 11
0.0
 21
1.0
 31
0.0
 73
     1
 44
0.60024009603842
  0
ENDBLK
  5
1CC
330
1C4
100
AcDbEntity
  8
0
100
AcDbBlockEnd
  0
BLOCK
  5
1D6
330
1CF
100
AcDbEntity
  8
0
100
AcDbBlockBegin
  2
*D9
 70
     1
 71
     0
 10
0.0
 20
0.0
 30
0.0
  3
*D9
  1

  0
LINE
  5
1D0
330
1CF
100
AcDbEntity
  8
1
  6
Continuous
 62
     2
100
AcDbLine
 10
591.669094479899
 20
231.2379374782644
 30
0.0
 11
591.669094479899
 21
194.2379374782646
 31
0.0
  0
LINE
  5
1D1
330
1CF
100
AcDbEntity
  8
1
  6
Continuous
 62
     2
100
AcDbLine
 10
609.171783010927
 20
194.2379374782646
 30
0.0
 11
589.669094479899
 21
194.2379374782646
 31
0.0
  0
LINE
  5
1D2
330
1CF
100
AcDbEntity
  8
1
  6
Continuous
 62
     2
100
AcDbLine
 10
614.1717830109271
 20
231.2379374782644
 30
0.0
 11
589.669094479899
 21
231.2379374782644
 31
0.0
  0
SOLID
  5
1D3
330
1CF
100
AcDbEntity
  8
1
 62
     2
100
AcDbTrace
 10
592.1298782214549
 20
227.7379374782644
 30
0.0
 11
591.208310738343
 21
227.7379374782644
 31
0.0
 12
591.669094479899
 22
231.2379374782644
 32
0.0
 13
591.669094479899
 23
231.2379374782644
 33
0.0
  0
SOLID
  5
1D4
330
1CF
100
AcDbEntity
  8
1
 62
     2
100
AcDbTrace
 10
591.208310738343
 20
197.7379374782646
 30
0.0
 11
592.1298782214549
 21
197.7379374782646
 31
0.0
 12
591.669094479899
 22
194.2379374782646
 32
0.0
 13
591.669094479899
 23
194.2379374782646
 33
0.0
  0
MTEXT
  5
1D5
330
1CF
100
AcDbEntity
  8
1
 62
     2
100
AcDbMText
 10
589.669094479899
 20
209.386423284715
 30
0.0
 40
3.5
 41
0.0
 71
     7
 72
     1
  1
37
  7
CONVERTER_11
 11
0.0
 21
1.0
 31
0.0
 73
     1
 44
0.60024009603842
  0
ENDBLK
  5
1D7
330
1CF
100
AcDbEntity
  8
0
100
AcDbBlockEnd
  0
BLOCK
  5
1E3
330
1DA
100
AcDbEntity
  8
0
100
AcDbBlockBegin
  2
*D10
 70
     1
 71
     0
 10
0.0
 20
0.0
 30
0.0
  3
*D10
  1

  0
LINE
  5
1DB
330
1DA
100
AcDbEntity
  8
1
  6
Continuous
 62
     2
100
AcDbLine
 10
591.669094479899
 20
201.2379374782646
 30
0.0
 11
591.669094479899
 21
194.2379374782646
 31
0.0
  0
LINE
  5
1DC
330
1DA
100
AcDbEntity
  8
1
  6
Continuous
 62
     2
100
AcDbLine
 10
591.669094479899
 20
194.2379374782646
 30
0.0
 11
591.669094479899
 21
186.2379374782646
 31
0.0
  0
LINE
  5
1DD
330
1DA
100
AcDbEntity
  8
1
  6
Continuous
 62
     2
100
AcDbLine
 10
591.669094479899
 20
186.2379374782646
 30
0.0
 11
591.669094479899
 21
179.2379374782646
 31
0.0
  0
LINE
  5
1DE
330
1DA
100
AcDbEntity
  8
1
  6
Continuous
 62
     2
100
AcDbLine
 10
609.171783010927
 20
186.2379374782646
 30
0.0
 11
589.669094479899
 21
186.2379374782646
 31
0.0
  0
LINE
  5
1DF
330
1DA
100
AcDbEntity
  8
1
  6
Continuous
 62
     2
100
AcDbLine
 10
609.171783010927
 20
194.2379374782646
 30
0.0
 11
589.669094479899
 21
194.2379374782646
 31
0.0
  0
SOLID
  5
1E0
330
1DA
100
AcDbEntity
  8
1
 62
     2
100
AcDbTrace
 10
591.208310738343
 20
197.7379374782646
 30
0.0
 11
592.1298782214549
 21
197.7379374782646
 31
0.0
 12
591.669094479899
 22
194.2379374782646
 32
0.0
 13
591.669094479899
 23
194.2379374782646
 33
0.0
  0
SOLID
  5
1E1
330
1DA
100
AcDbEntity
  8
1
 62
     2
100
AcDbTrace
 10
592.1298782214549
 20
182.7379374782646
 30
0.0
 11
591.208310738343
 21
182.7379374782646
 31
0.0
 12
591.669094479899
 22
186.2379374782646
 32
0.0
 13
591.669094479899
 23
186.2379374782646
 33
0.0
  0
MTEXT
  5
1E2
330
1DA
100
AcDbEntity
  8
1
 62
     2
100
AcDbMText
 10
589.669094479899
 20
189.363185904791
 30
0.0
 40
3.5
 41
0.0
 71
     7
 72
     1
  1
8
  7
CONVERTER_11
 11
0.0
 21
1.0
 31
0.0
 73
     1
 44
0.60024009603842
  0
ENDBLK
  5
1E4
330
1DA
100
AcDbEntity
  8
0
100
AcDbBlockEnd
  0
ENDSEC
  0
SECTION
  2
ENTITIES
  0
POINT
  5
32
330
1F
100
AcDbEntity
  8
1
 62
     3
 60
     1
100
AcDbPoint
 10
655.1717830109271
 20
186.2379374782646
 30
0.0
  0
POINT
  5
33
330
1F
100
AcDbEntity
  8
1
 62
     3
 60
     1
100
AcDbPoint
 10
621.40339769184
 20
190.617935948132
 30
0.0
  0
LINE
  5
34
330
1F
100
AcDbEntity
  8
1
  6
Continuous
 62
     7
100
AcDbLine
 10
658.6717830109272
 20
218.363840987769
 30
0.0
 11
658.6717830109271
 21
194.2379374782647
 31
0.0
  0
LINE
  5
35
330
1F
100
AcDbEntity
  8
1
  6
Continuous
 62
     7
100
AcDbLine
 10
671.171783010927
 20
199.1371564189075
 30
0.0
 11
671.1717830109269
 21
194.7379374782646
 31
0.0
  0
LINE
  5
36
330
1F
100
AcDbEntity
  8
1
  6
Continuous
 62
     7
100
AcDbLine
 10
671.4217830109267
 20
206.1173251348267
 30
0.0
 11
698.1717830109272
 21
213.2849660323594
 31
0.0
  0
LINE
  5
37
330
1F
100
AcDbEntity
  8
1
  6
DASHED
 62
     2
100
AcDbLine
 10
671.3974696039783
 20
215.4282960007604
 30
0.0
 11
668.0633966930047
 21
214.5349338567585
 31
0.0
  0
LINE
  5
38
330
1F
100
AcDbEntity
  8
1
  6
Continuous
 62
     7
100
AcDbLine
 10
663.1717830109271
 20
228.2379374782647
 30
0.0
 11
663.1717830109271
 21
228.7379374782646
 31
0.0
  0
LINE
  5
39
330
1F
100
AcDbEntity
  8
1
  6
DASHED
 62
     2
100
AcDbLine
 10
690.3286372604194
 20
225.7379374782646
 30
0.0
 11
665.1717830109271
 21
225.7379374782646
 31
0.0
  0
LINE
  5
3A
330
1F
100
AcDbEntity
  8
1
  6
DASHED
 62
     2
100
AcDbLine
 10
694.458968683354
 20
221.6076060553302
 30
0.0
 11
689.4398708609273
 21
220.2627428470781
 31
0.0
  0
LINE
  5
3B
330
1F
100
AcDbEntity
  8
1
  6
Continuous
 62
     7
100
AcDbLine
 10
689.4398708609273
 20
220.2627428470781
 30
0.0
 11
671.3974696039783
 21
215.4282960007604
 31
0.0
  0
LINE
  5
3C
330
1F
100
AcDbEntity
  8
1
  6
Continuous
 62
     7
100
AcDbLine
 10
665.1717830109272
 20
231.2379374782643
 30
0.0
 11
684.6717830109272
 21
231.2379374782647
 31
0.0
  0
LINE
  5
3D
330
1F
100
AcDbEntity
  8
1
  6
Continuous
 62
     7
100
AcDbLine
 10
665.1717830109272
 20
230.2379374782643
 30
0.0
 11
684.633409069306
 21
230.2379374782646
 31
0.0
  0
LINE
  5
3E
330
1F
100
AcDbEntity
  8
1
  6
Continuous
 62
     7
100
AcDbLine
 10
665.1717830109272
 20
230.2379374782643
 30
0.0
 11
665.1717830109272
 21
231.2379374782643
 31
0.0
  0
LINE
  5
3F
330
1F
100
AcDbEntity
  8
1
  6
DASHED
 62
     2
100
AcDbLine
 10
663.1717830109271
 20
227.7379374782646
 30
0.0
 11
663.1717830109271
 21
228.2379374782647
 31
0.0
  0
LINE
  5
40
330
1F
100
AcDbEntity
  8
1
  6
Continuous
 62
     7
100
AcDbLine
 10
671.1717830109269
 20
194.7379374782646
 30
0.0
 11
659.1717830109271
 21
194.7379374782646
 31
0.0
  0
LINE
  5
41
330
1F
100
AcDbEntity
  8
1
  6
DASHED
 62
     2
100
AcDbLine
 10
671.1717830109271
 20
202.7379374782646
 30
0.0
 11
671.171783010927
 21
199.1371564189075
 31
0.0
  0
LINE
  5
42
330
1F
100
AcDbEntity
  8
1
  6
Continuous
 62
     7
100
AcDbLine
 10
694.1717830109271
 20
203.7379374782646
 30
0.0
 11
672.1717830109272
 21
203.7379374782646
 31
0.0
  0
LINE
  5
43
330
1F
100
AcDbEntity
  8
1
  6
Continuous
 62
     7
100
AcDbLine
 10
696.1717830109271
 20
225.7379374782646
 30
0.0
 11
690.3286372604194
 21
225.7379374782646
 31
0.0
  0
LINE
  5
44
330
1F
100
AcDbEntity
  8
1
  6
Continuous
 62
     7
100
AcDbLine
 10
663.1717830109271
 20
228.7379374782646
 30
0.0
 11
659.8512324826971
 21
228.7379374782646
 31
0.0
  0
LINE
  5
45
330
1F
100
AcDbEntity
  8
1
  6
Continuous
 62
     7
100
AcDbLine
 10
658.6717830109272
 20
231.2379374782643
 30
0.0
 11
658.6717830109272
 21
229.1369169638315
 31
0.0
  0
LINE
  5
46
330
1F
100
AcDbEntity
  8
1
  6
Continuous
 62
     7
100
AcDbLine
 10
675.1717830109272
 20
194.2379374782647
 30
0.0
 11
676.1717830109272
 21
194.2379374782647
 31
0.0
  0
LINE
  5
47
330
1F
100
AcDbEntity
  8
1
  6
Continuous
 62
     7
100
AcDbLine
 10
675.1717830109272
 20
199.2379374782763
 30
0.0
 11
675.1717830109272
 21
194.2379374782647
 31
0.0
  0
LINE
  5
48
330
1F
100
AcDbEntity
  8
1
  6
Continuous
 62
     7
100
AcDbLine
 10
658.6717830109271
 20
194.2379374782647
 30
0.0
 11
675.1717830109272
 21
194.2379374782647
 31
0.0
  0
LINE
  5
49
330
1F
100
AcDbEntity
  8
1
  6
Continuous
 62
     7
100
AcDbLine
 10
702.1717830109272
 20
199.2379374782763
 30
0.0
 11
684.6717830109271
 21
199.2379374782764
 31
0.0
  0
LINE
  5
4A
330
1F
100
AcDbEntity
  8
1
  6
Continuous
 62
     7
100
AcDbLine
 10
702.1717830109272
 20
231.2379374782647
 30
0.0
 11
702.1717830109272
 21
199.2379374782763
 31
0.0
  0
LINE
  5
4B
330
1F
100
AcDbEntity
  8
1
  6
Continuous
 62
     7
100
AcDbLine
 10
658.6717830109272
 20
231.2379374782643
 30
0.0
 11
660.6717830109272
 21
231.2379374782643
 31
0.0
  0
LINE
  5
4C
330
1F
100
AcDbEntity
  8
1
  6
Continuous
 62
     7
100
AcDbLine
 10
658.6717830109272
 20
234.7379374782645
 30
0.0
 11
658.6717830109272
 21
231.2379374782643
 31
0.0
  0
LINE
  5
4D
330
1F
100
AcDbEntity
  8
1
  6
DOT_CENTER
 62
     2
100
AcDbLine
 10
713.6717830109271
 20
234.7379374782644
 30
0.0
 11
713.6717830109271
 21
237.4895924793995
 31
0.0
  0
LINE
  5
4E
330
1F
100
AcDbEntity
  8
1
  6
Continuous
 62
     7
100
AcDbLine
 10
713.6717830109271
 20
186.2379374782644
 30
0.0
 11
658.6717830109271
 21
186.2379374782644
 31
0.0
  0
LINE
  5
4F
330
1F
100
AcDbEntity
  8
1
  6
PHANTOM
 62
     2
100
AcDbLine
 10
713.6717830109271
 20
186.2379374782644
 30
0.0
 11
713.6717830109271
 21
194.2379374782646
 31
0.0
  0
LINE
  5
50
330
1F
100
AcDbEntity
  8
1
  6
Continuous
 62
     7
100
AcDbLine
 10
658.6717830109271
 20
186.2379374782644
 30
0.0
 11
658.6717830109271
 21
194.2379374782647
 31
0.0
  0
LINE
  5
51
330
1F
100
AcDbEntity
  8
1
  6
Continuous
 62
     7
100
AcDbLine
 10
658.6717830109272
 20
234.7379374782645
 30
0.0
 11
713.6717830109271
 21
234.7379374782644
 31
0.0
  0
LINE
  5
52
330
1F
100
AcDbEntity
  8
1
  6
PHANTOM
 62
     2
100
AcDbLine
 10
713.6717830109271
 20
184.462206871161
 30
0.0
 11
713.6717830109271
 21
186.2379374782644
 31
0.0
  0
LINE
  5
53
330
1F
100
AcDbEntity
  8
1
  6
Continuous
 62
     7
100
AcDbLine
 10
676.1717830109272
 20
194.2379374782647
 30
0.0
 11
713.6717830109271
 21
194.2379374782646
 31
0.0
  0
LINE
  5
54
330
1F
100
AcDbEntity
  8
1
  6
PHANTOM
 62
     2
100
AcDbLine
 10
713.6717830109271
 20
194.2379374782646
 30
0.0
 11
713.6717830109271
 21
234.7379374782644
 31
0.0
  0
LINE
  5
55
330
1F
100
AcDbEntity
  8
1
  6
Continuous
 62
     7
100
AcDbLine
 10
660.6717830109272
 20
231.2379374782643
 30
0.0
 11
660.6717830109272
 21
230.7379374782643
 31
0.0
  0
LINE
  5
56
330
1F
100
AcDbEntity
  8
1
  6
Continuous
 62
     7
100
AcDbLine
 10
660.6717830109272
 20
231.2379374782643
 30
0.0
 11
665.1717830109272
 21
231.2379374782643
 31
0.0
  0
LINE
  5
57
330
1F
100
AcDbEntity
  8
1
  6
Continuous
 62
     7
100
AcDbLine
 10
660.6717830109272
 20
230.7379374782643
 30
0.0
 11
662.5378084147115
 21
230.2379374782643
 31
0.0
  0
LINE
  5
58
330
1F
100
AcDbEntity
  8
1
  6
Continuous
 62
     7
100
AcDbLine
 10
662.5378084147115
 20
230.2379374782643
 30
0.0
 11
665.1717830109272
 21
230.2379374782643
 31
0.0
  0
LINE
  5
59
330
1F
100
AcDbEntity
  8
1
  6
Continuous
 62
     7
100
AcDbLine
 10
684.633409069306
 20
230.2379374782646
 30
0.0
 11
698.2415229258017
 21
228.3211432427423
 31
0.0
  0
LINE
  5
5A
330
1F
100
AcDbEntity
  8
1
  6
Continuous
 62
     7
100
AcDbLine
 10
698.6717830109271
 20
227.8260307865536
 30
0.0
 11
698.6717830109272
 21
227.2379374782764
 31
0.0
  0
LINE
  5
5B
330
1F
100
AcDbEntity
  8
1
  6
Continuous
 62
     7
100
AcDbLine
 10
698.2413695614072
 20
202.1548460711657
 30
0.0
 11
684.6018561989838
 21
200.2379374782763
 31
0.0
  0
LINE
  5
5C
330
1F
100
AcDbEntity
  8
1
  6
Continuous
 62
     7
100
AcDbLine
 10
684.6018561989838
 20
200.2379374782763
 30
0.0
 11
675.1717830109272
 21
200.2379374782763
 31
0.0
  0
LINE
  5
5D
330
1F
100
AcDbEntity
  8
1
  6
Continuous
 62
     7
100
AcDbLine
 10
675.1717830109272
 20
199.2379374782763
 30
0.0
 11
675.1717830109272
 21
200.2379374782763
 31
0.0
  0
LINE
  5
5E
330
1F
100
AcDbEntity
  8
1
  6
Continuous
 62
     7
100
AcDbLine
 10
684.6717830109271
 20
199.2379374782764
 30
0.0
 11
698.3805426623674
 21
201.1645780024242
 31
0.0
  0
LINE
  5
5F
330
1F
100
AcDbEntity
  8
1
  6
Continuous
 62
     7
100
AcDbLine
 10
684.6717830109271
 20
199.2379374782764
 30
0.0
 11
675.1717830109272
 21
199.2379374782763
 31
0.0
  0
LINE
  5
60
330
1F
100
AcDbEntity
  8
1
  6
Continuous
 62
     7
100
AcDbLine
 10
699.6717830109271
 20
202.6499801055365
 30
0.0
 11
699.6717830109271
 21
206.7379374782763
 31
0.0
  0
LINE
  5
61
330
1F
100
AcDbEntity
  8
1
  6
Continuous
 62
     7
100
AcDbLine
 10
698.3805426623674
 20
229.3112969541167
 30
0.0
 11
684.6717830109272
 21
231.2379374782647
 31
0.0
  0
LINE
  5
62
330
1F
100
AcDbEntity
  8
1
  6
Continuous
 62
     7
100
AcDbLine
 10
684.6717830109272
 20
231.2379374782647
 30
0.0
 11
702.1717830109272
 21
231.2379374782647
 31
0.0
  0
LINE
  5
63
330
1F
100
AcDbEntity
  8
1
  6
Continuous
 62
     7
100
AcDbLine
 10
659.1717830109271
 20
194.7379374782646
 30
0.0
 11
659.1717830109272
 21
218.1719089702513
 31
0.0
  0
LINE
  5
64
330
1F
100
AcDbEntity
  8
1
  6
Continuous
 62
     7
100
AcDbLine
 10
698.6717830109271
 20
206.7379374782763
 30
0.0
 11
699.6717830109271
 21
206.7379374782763
 31
0.0
  0
LINE
  5
65
330
1F
100
AcDbEntity
  8
1
  6
Continuous
 62
     7
100
AcDbLine
 10
698.6717830109271
 20
206.7379374782763
 30
0.0
 11
698.6717830109271
 21
202.6499801055366
 31
0.0
  0
LINE
  5
66
330
1F
100
AcDbEntity
  8
1
  6
Continuous
 62
     7
100
AcDbLine
 10
699.6717830109272
 20
227.2379374782763
 30
0.0
 11
699.6717830109271
 21
227.8258948510044
 31
0.0
  0
LINE
  5
67
330
1F
100
AcDbEntity
  8
1
  6
Continuous
 62
     7
100
AcDbLine
 10
695.1717830109271
 20
209.7379374782646
 30
0.0
 11
695.1717830109271
 21
204.7379374782646
 31
0.0
  0
LINE
  5
68
330
1F
100
AcDbEntity
  8
1
  6
Continuous
 62
     7
100
AcDbLine
 10
699.6717830109271
 20
206.7379374782763
 30
0.0
 11
699.6717830109272
 21
227.2379374782763
 31
0.0
  0
LINE
  5
69
330
1F
100
AcDbEntity
  8
1
  6
DASHED
 62
     2
100
AcDbLine
 10
666.6491831306316
 20
212.0854441139753
 30
0.0
 11
667.9432783561442
 21
207.25581498253
 31
0.0
  0
LINE
  5
6A
330
1F
100
AcDbEntity
  8
1
  6
DASHED
 62
     2
100
AcDbLine
 10
670.3927680989275
 20
205.8416014201569
 30
0.0
 11
671.4217830109267
 21
206.1173251348267
 31
0.0
  0
LINE
  5
6B
330
1F
100
AcDbEntity
  8
1
  6
DOT_CENTER
 62
     2
100
AcDbLine
 10
665.3915420603282
 20
209.1602697537941
 30
0.0
 11
705.2251822881434
 21
219.8336614844291
 31
0.0
  0
LINE
  5
6C
330
1F
100
AcDbEntity
  8
1
  6
Continuous
 62
     7
100
AcDbLine
 10
698.1717830109272
 20
211.3091120435371
 30
0.0
 11
698.1717830109272
 21
213.2849660323594
 31
0.0
  0
LINE
  5
6D
330
1F
100
AcDbEntity
  8
1
  6
Continuous
 62
     7
100
AcDbLine
 10
695.1717830109271
 20
209.7379374782646
 30
0.0
 11
697.4306020560298
 21
210.3431862172479
 31
0.0
  0
LINE
  5
6E
330
1F
100
AcDbEntity
  8
1
  6
Continuous
 62
     7
100
AcDbLine
 10
698.1717830109271
 20
222.6024516560501
 30
0.0
 11
694.458968683354
 21
221.6076060553302
 31
0.0
  0
LINE
  5
6F
330
1F
100
AcDbEntity
  8
1
  6
Continuous
 62
     7
100
AcDbLine
 10
698.1717830109271
 20
222.6024516560501
 30
0.0
 11
698.1717830109271
 21
223.7379374782646
 31
0.0
  0
LINE
  5
70
330
1F
100
AcDbEntity
  8
1
  6
Continuous
 62
     7
100
AcDbLine
 10
698.1717830109272
 20
213.2849660323594
 30
0.0
 11
698.1717830109271
 21
222.6024516560501
 31
0.0
  0
LINE
  5
71
330
1F
100
AcDbEntity
  8
1
  6
Continuous
 62
     7
100
AcDbLine
 10
698.6717830109272
 20
227.2379374782764
 30
0.0
 11
698.6717830109271
 21
206.7379374782763
 31
0.0
  0
LINE
  5
72
330
1F
100
AcDbEntity
  8
1
  6
Continuous
 62
     7
100
AcDbLine
 10
698.4552135620573
 20
228.2379374782763
 30
0.0
 11
699.614080093123
 21
228.2379374782763
 31
0.0
  0
LINE
  5
73
330
1F
100
AcDbEntity
  8
1
  6
DOT_CENTER
 62
     2
100
AcDbLine
 10
666.1717830109267
 20
193.4629374782647
 30
0.0
 11
666.1717830109267
 21
208.0129374782647
 31
0.0
  0
LINE
  5
74
330
1F
100
AcDbEntity
  8
1
  6
DOT_CENTER
 62
     2
100
AcDbLine
 10
673.4467830109268
 20
200.7379374782647
 30
0.0
 11
658.8967830109268
 21
200.737937478265
 31
0.0
  0
LINE
  5
75
330
1F
100
AcDbEntity
  8
1
  6
DOT_CENTER
 62
     2
100
AcDbLine
 10
621.6717830109267
 20
210.8379374782651
 30
0.0
 11
621.6717830109268
 21
222.6379374782651
 31
0.0
  0
LINE
  5
76
330
1F
100
AcDbEntity
  8
1
  6
DOT_CENTER
 62
     2
100
AcDbLine
 10
627.5717830109267
 20
216.737937478265
 30
0.0
 11
615.7717830109267
 21
216.7379374782649
 31
0.0
  0
LINE
  5
77
330
1F
100
AcDbEntity
  8
1
  6
Continuous
 62
     7
100
AcDbLine
 10
666.7487587464834
 20
222.2320295545734
 30
0.0
 11
669.5179770886392
 21
219.4628112124177
 31
0.0
  0
LINE
  5
78
330
1F
100
AcDbEntity
  8
1
  6
DASHED
 62
     2
100
AcDbLine
 10
657.6717830109274
 20
218.7477050228043
 30
0.0
 11
648.5948072753708
 21
222.2320295545736
 31
0.0
  0
LINE
  5
79
330
1F
100
AcDbEntity
  8
1
  6
Continuous
 62
     7
100
AcDbLine
 10
648.5948072753708
 20
222.2320295545736
 30
0.0
 11
645.7099564386094
 21
223.3394200372481
 31
0.0
  0
LINE
  5
7A
330
1F
100
AcDbEntity
  8
1
  6
Continuous
 62
     7
100
AcDbLine
 10
665.0189515654216
 20
210.5237229832424
 30
0.0
 11
671.421783010927
 21
203.158107971572
 31
0.0
  0
LINE
  5
7B
330
1F
100
AcDbEntity
  8
1
  6
Continuous
 62
     7
100
AcDbLine
 10
661.7065318485437
 20
217.1989100536425
 30
0.0
 11
657.6717830109274
 21
218.7477050228043
 31
0.0
  0
LINE
  5
7C
330
1F
100
AcDbEntity
  8
1
  6
Continuous
 62
     7
100
AcDbLine
 10
661.4531142678561
 20
203.0393859989074
 30
0.0
 11
664.6788753806899
 21
209.653176400568
 31
0.0
  0
LINE
  5
7D
330
1F
100
AcDbEntity
  8
1
  6
Continuous
 62
     7
100
AcDbLine
 10
671.4217830109268
 20
214.866617134705
 30
0.0
 11
671.4217830109267
 21
200.7379374782649
 31
0.0
  0
LINE
  5
7E
330
1F
100
AcDbEntity
  8
1
  6
DASHED
 62
     2
100
AcDbLine
 10
661.2073169168594
 20
227.7734713841974
 30
0.0
 11
666.7487587464834
 21
222.2320295545734
 31
0.0
  0
LINE
  5
7F
330
1F
100
AcDbEntity
  8
1
  6
Continuous
 62
     7
100
AcDbLine
 10
630.2073169168596
 20
228.237937478265
 30
0.0
 11
654.0662317354628
 21
228.237937478265
 31
0.0
  0
LINE
  5
80
330
1F
100
AcDbEntity
  8
1
  6
Continuous
 62
     7
100
AcDbLine
 10
618.8433558861808
 20
219.5663646030114
 30
0.0
 11
625.611122839147
 21
226.3341315559774
 31
0.0
  0
LINE
  5
81
330
1F
100
AcDbEntity
  8
1
  6
Continuous
 62
     7
100
AcDbLine
 10
625.8821485566554
 20
220.2411962428071
 30
0.0
 11
627.6215304792328
 21
221.9805781653845
 31
0.0
  0
LINE
  5
82
330
1F
100
AcDbEntity
  8
1
  6
Continuous
 62
     7
100
AcDbLine
 10
631.8641711663518
 20
223.7379374782648
 30
0.0
 11
643.5597487413377
 21
223.7379374782649
 31
0.0
  0
LINE
  5
83
330
1F
100
AcDbEntity
  8
1
  6
Continuous
 62
     7
100
AcDbLine
 10
634.6717830109266
 20
228.2379374782649
 30
0.0
 11
631.8047795679219
 21
223.7376435242339
 31
0.0
  0
LINE
  5
84
330
1F
100
AcDbEntity
  8
1
  6
DOT_CENTER
 62
     2
100
AcDbLine
 10
649.1717830109272
 20
208.0129374782645
 30
0.0
 11
649.1717830109272
 21
193.4629374782644
 31
0.0
  0
LINE
  5
85
330
1F
100
AcDbEntity
  8
1
  6
DOT_CENTER
 62
     2
100
AcDbLine
 10
656.4467830109271
 20
200.7379374782647
 30
0.0
 11
641.8967830109272
 21
200.7379374782645
 31
0.0
  0
LINE
  5
86
330
1F
100
AcDbEntity
  8
1
  6
DOT_CENTER
 62
     2
100
AcDbLine
 10
657.6717830109269
 20
231.2379374782645
 30
0.0
 11
657.6717830109274
 21
217.2379374782645
 31
0.0
  0
LINE
  5
87
330
1F
100
AcDbEntity
  8
1
  6
DOT_CENTER
 62
     2
100
AcDbLine
 10
664.6717830109274
 20
224.2379374782647
 30
0.0
 11
650.6717830109269
 21
224.2379374782647
 31
0.0
  0
LINE
  5
88
330
1F
100
AcDbEntity
  8
1
  6
DOT_CENTER
 62
     2
100
AcDbLine
 10
693.6717830109271
 20
222.6379374782648
 30
0.0
 11
693.6717830109272
 21
210.8379374782649
 31
0.0
  0
LINE
  5
89
330
1F
100
AcDbEntity
  8
1
  6
DOT_CENTER
 62
     2
100
AcDbLine
 10
699.5717830109272
 20
216.7379374782646
 30
0.0
 11
687.7717830109273
 21
216.7379374782647
 31
0.0
  0
LINE
  5
8A
330
1F
100
AcDbEntity
  8
1
  6
Continuous
 62
     7
100
AcDbLine
 10
669.6336095832445
 20
223.3394200372478
 30
0.0
 11
653.6370341733102
 21
217.1989100536422
 31
0.0
  0
LINE
  5
8B
330
1F
100
AcDbEntity
  8
1
  6
Continuous
 62
     7
100
AcDbLine
 10
650.664690641164
 20
209.6531764005678
 30
0.0
 11
653.8904517539978
 21
203.0393859989072
 31
0.0
  0
LINE
  5
8C
330
1F
100
AcDbEntity
  8
1
  6
Continuous
 62
     7
100
AcDbLine
 10
643.9217830109272
 20
200.7379374782646
 30
0.0
 11
643.9217830109271
 21
214.8666171347047
 31
0.0
  0
LINE
  5
8D
330
1F
100
AcDbEntity
  8
1
  6
Continuous
 62
     7
100
AcDbLine
 10
645.8255889332147
 20
219.4628112124174
 30
0.0
 11
654.1362491049945
 21
227.7734713841971
 31
0.0
  0
LINE
  5
8E
330
1F
100
AcDbEntity
  8
1
  6
Continuous
 62
     7
100
AcDbLine
 10
661.2773342863911
 20
228.2379374782647
 30
0.0
 11
685.1362491049944
 21
228.2379374782647
 31
0.0
  0
LINE
  5
8F
330
1F
100
AcDbEntity
  8
1
  6
Continuous
 62
     7
100
AcDbLine
 10
689.7324431827069
 20
226.3341315559771
 30
0.0
 11
696.5002101356731
 21
219.5663646030112
 31
0.0
  0
LINE
  5
90
330
1F
100
AcDbEntity
  8
1
  6
Continuous
 62
     7
100
AcDbLine
 10
687.7220355426211
 20
221.9805781653843
 30
0.0
 11
689.4614174651986
 21
220.2411962428068
 31
0.0
  0
LINE
  5
91
330
1F
100
AcDbEntity
  8
1
  6
Continuous
 62
     7
100
AcDbLine
 10
671.7838172805162
 20
223.7379374782646
 30
0.0
 11
683.4793948555022
 21
223.7379374782645
 31
0.0
  0
LINE
  5
92
330
1F
100
AcDbEntity
  8
1
  6
DASHED
 62
     2
100
AcDbLine
 10
683.5387864539321
 20
223.7376435242336
 30
0.0
 11
680.6717830109274
 21
228.2379374782646
 31
0.0
  0
LINE
  5
93
330
1F
100
AcDbEntity
  8
1
  6
DASHED
 62
     2
100
AcDbLine
 10
643.9460964178757
 20
215.4282960007604
 30
0.0
 11
647.7801693288495
 21
214.4009592605429
 31
0.0
  0
LINE
  5
94
330
1F
100
AcDbEntity
  8
1
  6
Continuous
 62
     7
100
AcDbLine
 10
643.9217830109272
 20
206.1173251348267
 30
0.0
 11
616.6717830109271
 21
213.4189406285749
 31
0.0
  0
LINE
  5
95
330
1F
100
AcDbEntity
  8
1
  6
DASHED
 62
     2
100
AcDbLine
 10
644.1717830109271
 20
199.1371564189074
 30
0.0
 11
644.1717830109269
 21
201.4879374782648
 31
0.0
  0
LINE
  5
96
330
1F
100
AcDbEntity
  8
1
  6
Continuous
 62
     7
100
AcDbLine
 10
655.1717830109271
 20
228.5680644971865
 30
0.0
 11
655.1717830109271
 21
229.4879374782647
 31
0.0
  0
LINE
  5
97
330
1F
100
AcDbEntity
  8
1
  6
Continuous
 62
     7
100
AcDbLine
 10
624.7649287614342
 20
225.4879374782646
 30
0.0
 11
618.6717830109271
 21
225.4879374782646
 31
0.0
  0
LINE
  5
98
330
1F
100
AcDbEntity
  8
1
  6
Continuous
 62
     7
100
AcDbLine
 10
625.9036951609265
 20
220.2627428470782
 30
0.0
 11
643.9460964178757
 21
215.4282960007604
 31
0.0
  0
LINE
  5
99
330
1F
100
AcDbEntity
  8
1
  6
DASHED
 62
     2
100
AcDbLine
 10
620.8845973384998
 20
221.6076060553303
 30
0.0
 11
625.9036951609265
 21
220.2627428470782
 31
0.0
  0
LINE
  5
9A
330
1F
100
AcDbEntity
  8
1
  6
Continuous
 62
     7
100
AcDbLine
 10
650.6717830109271
 20
230.2379374782647
 30
0.0
 11
651.3057576071426
 21
230.2379374782647
 31
0.0
  0
LINE
  5
9B
330
1F
100
AcDbEntity
  8
1
  6
Continuous
 62
     7
100
AcDbLine
 10
650.6717830109271
 20
231.2379374782647
 30
0.0
 11
653.1717830109271
 21
231.2379374782647
 31
0.0
  0
LINE
  5
9C
330
1F
100
AcDbEntity
  8
1
  6
Continuous
 62
     7
100
AcDbLine
 10
650.6717830109271
 20
230.2379374782647
 30
0.0
 11
650.6717830109271
 21
231.2379374782647
 31
0.0
  0
LINE
  5
9D
330
1F
100
AcDbEntity
  8
1
  6
Continuous
 62
     7
100
AcDbLine
 10
641.1717830109271
 20
194.2379374782646
 30
0.0
 11
609.171783010927
 21
194.2379374782646
 31
0.0
  0
LINE
  5
9E
330
1F
100
AcDbEntity
  8
1
  6
Continuous
 62
     7
100
AcDbLine
 10
641.1717830109271
 20
199.2379374782646
 30
0.0
 11
641.1717830109271
 21
194.2379374782646
 31
0.0
  0
LINE
  5
9F
330
1F
100
AcDbEntity
  8
1
  6
DASHED
 62
     2
100
AcDbLine
 10
651.1717830109271
 20
228.237937478265
 30
0.0
 11
651.1717830109271
 21
227.4879374782646
 31
0.0
  0
LINE
  5
A0
330
1F
100
AcDbEntity
  8
1
  6
DASHED
 62
     2
100
AcDbLine
 10
649.1717830109271
 20
225.4879374782646
 30
0.0
 11
624.7649287614342
 21
225.4879374782646
 31
0.0
  0
LINE
  5
A1
330
1F
100
AcDbEntity
  8
1
  6
Continuous
 62
     7
100
AcDbLine
 10
655.1717830109271
 20
194.2379374782646
 30
0.0
 11
655.1717830109271
 21
217.7880449352157
 31
0.0
  0
LINE
  5
A2
330
1F
100
AcDbEntity
  8
1
  6
Continuous
 62
     7
100
AcDbLine
 10
655.1717830109271
 20
195.4879374782646
 30
0.0
 11
653.4717830109272
 21
195.4879374782646
 31
0.0
  0
LINE
  5
A3
330
1F
100
AcDbEntity
  8
1
  6
Continuous
 62
     7
100
AcDbLine
 10
653.4717830109272
 20
195.4879374782646
 30
0.0
 11
644.1717830109274
 21
195.4879374782646
 31
0.0
  0
LINE
  5
A4
330
1F
100
AcDbEntity
  8
1
  6
Continuous
 62
     7
100
AcDbLine
 10
644.1717830109274
 20
195.4879374782646
 30
0.0
 11
644.1717830109271
 21
199.1371564189074
 31
0.0
  0
LINE
  5
A5
330
1F
100
AcDbEntity
  8
1
  6
Continuous
 62
     7
100
AcDbLine
 10
651.1717830109271
 20
229.4879374782647
 30
0.0
 11
651.1717830109271
 21
228.237937478265
 31
0.0
  0
LINE
  5
A6
330
1F
100
AcDbEntity
  8
1
  6
Continuous
 62
     7
100
AcDbLine
 10
609.171783010927
 20
194.2379374782646
 30
0.0
 11
609.171783010927
 21
186.2379374782646
 31
0.0
  0
LINE
  5
A7
330
1F
100
AcDbEntity
  8
1
  6
Continuous
 62
     7
100
AcDbLine
 10
642.1717830109271
 20
194.2379374782646
 30
0.0
 11
641.1717830109271
 21
194.2379374782646
 31
0.0
  0
LINE
  5
A8
330
1F
100
AcDbEntity
  8
1
  6
Continuous
 62
     7
100
AcDbLine
 10
655.1717830109271
 20
194.2379374782646
 30
0.0
 11
655.1717830109271
 21
186.2379374782646
 31
0.0
  0
LINE
  5
A9
330
1F
100
AcDbEntity
  8
1
  6
Continuous
 62
     7
100
AcDbLine
 10
642.1717830109271
 20
194.2379374782646
 30
0.0
 11
655.1717830109271
 21
194.2379374782646
 31
0.0
  0
LINE
  5
AA
330
1F
100
AcDbEntity
  8
1
  6
Continuous
 62
     7
100
AcDbLine
 10
655.1717830109271
 20
239.7379374782644
 30
0.0
 11
668.1717830109271
 21
239.7379374782644
 31
0.0
  0
LINE
  5
AB
330
1F
100
AcDbEntity
  8
1
  6
Continuous
 62
     7
100
AcDbLine
 10
656.1717830109271
 20
238.0058866706955
 30
0.0
 11
656.1717830109271
 21
238.7379374782644
 31
0.0
  0
LINE
  5
AC
330
1F
100
AcDbEntity
  8
1
  6
Continuous
 62
     7
100
AcDbLine
 10
657.4811840876855
 20
235.7379374782644
 30
0.0
 11
656.1717830109271
 21
238.0058866706955
 31
0.0
  0
LINE
  5
AD
330
1F
100
AcDbEntity
  8
1
  6
Continuous
 62
     7
100
AcDbLine
 10
665.8623819341685
 20
235.7379374782644
 30
0.0
 11
657.4811840876855
 21
235.7379374782644
 31
0.0
  0
LINE
  5
AE
330
1F
100
AcDbEntity
  8
1
  6
Continuous
 62
     7
100
AcDbLine
 10
667.1717830109271
 20
238.0058866706955
 30
0.0
 11
665.8623819341685
 21
235.7379374782644
 31
0.0
  0
LINE
  5
AF
330
1F
100
AcDbEntity
  8
1
  6
Continuous
 62
     7
100
AcDbLine
 10
667.1717830109271
 20
238.7379374782644
 30
0.0
 11
667.1717830109271
 21
238.0058866706955
 31
0.0
  0
LINE
  5
B0
330
1F
100
AcDbEntity
  8
1
  6
Continuous
 62
     7
100
AcDbLine
 10
656.1717830109271
 20
238.7379374782644
 30
0.0
 11
667.1717830109271
 21
238.7379374782644
 31
0.0
  0
LINE
  5
B1
330
1F
100
AcDbEntity
  8
1
  6
Continuous
 62
     7
100
AcDbLine
 10
668.1717830109271
 20
237.7379374782644
 30
0.0
 11
668.1717830109271
 21
239.7379374782644
 31
0.0
  0
LINE
  5
B2
330
1F
100
AcDbEntity
  8
1
  6
Continuous
 62
     7
100
AcDbLine
 10
666.4397322033583
 20
234.7379374782644
 30
0.0
 11
668.1717830109271
 21
237.7379374782644
 31
0.0
  0
LINE
  5
B3
330
1F
100
AcDbEntity
  8
1
  6
Continuous
 62
     7
100
AcDbLine
 10
656.9038338184959
 20
234.7379374782644
 30
0.0
 11
666.4397322033583
 21
234.7379374782644
 31
0.0
  0
LINE
  5
B4
330
1F
100
AcDbEntity
  8
1
  6
Continuous
 62
     7
100
AcDbLine
 10
655.1717830109271
 20
237.7379374782644
 30
0.0
 11
656.9038338184959
 21
234.7379374782644
 31
0.0
  0
LINE
  5
B5
330
1F
100
AcDbEntity
  8
1
  6
Continuous
 62
     7
100
AcDbLine
 10
655.1717830109271
 20
186.2379374782646
 30
0.0
 11
609.171783010927
 21
186.2379374782646
 31
0.0
  0
LINE
  5
B6
330
1F
100
AcDbEntity
  8
1
  6
Continuous
 62
     7
100
AcDbLine
 10
668.1717830109271
 20
239.7379374782644
 30
0.0
 11
668.1717830109271
 21
257.3034542425874
 31
0.0
  0
LINE
  5
B7
330
1F
100
AcDbEntity
  8
1
  6
Continuous
 62
     7
100
AcDbLine
 10
609.171783010927
 20
257.3034542425874
 30
0.0
 11
609.171783010927
 21
194.2379374782646
 31
0.0
  0
LINE
  5
B8
330
1F
100
AcDbEntity
  8
1
  6
DOT_CENTER
 62
     2
100
AcDbLine
 10
668.1717830109271
 20
257.3034542425874
 30
0.0
 11
609.171783010927
 21
257.3034542425874
 31
0.0
  0
LINE
  5
B9
330
1F
100
AcDbEntity
  8
1
  6
DOT_CENTER
 62
     2
100
AcDbLine
 10
609.171783010927
 20
257.3034542425874
 30
0.0
 11
604.7035144747019
 21
257.3034542425874
 31
0.0
  0
LINE
  5
BA
330
1F
100
AcDbEntity
  8
1
  6
DOT_CENTER
 62
     2
100
AcDbLine
 10
668.1717830109271
 20
257.3034542425874
 30
0.0
 11
675.186256228058
 21
257.3034542425874
 31
0.0
  0
LINE
  5
BB
330
1F
100
AcDbEntity
  8
1
  6
Continuous
 62
     7
100
AcDbLine
 10
655.1717830109271
 20
239.7379374782644
 30
0.0
 11
655.1717830109271
 21
231.2379374782647
 31
0.0
  0
LINE
  5
BC
330
1F
100
AcDbEntity
  8
1
  6
Continuous
 62
     7
100
AcDbLine
 10
655.1717830109271
 20
231.2379374782647
 30
0.0
 11
655.1717830109271
 21
229.4879374782647
 31
0.0
  0
LINE
  5
BD
330
1F
100
AcDbEntity
  8
1
  6
Continuous
 62
     7
100
AcDbLine
 10
614.1717830109271
 20
231.2379374782644
 30
0.0
 11
629.1717830109288
 21
231.2379374782646
 31
0.0
  0
LINE
  5
BE
330
1F
100
AcDbEntity
  8
1
  6
Continuous
 62
     7
100
AcDbLine
 10
642.1717830109269
 20
203.4879374782646
 30
0.0
 11
618.6717830109271
 21
203.4879374782646
 31
0.0
  0
LINE
  5
BF
330
1F
100
AcDbEntity
  8
1
  6
Continuous
 62
     7
100
AcDbLine
 10
641.1717830109271
 20
199.2379374782646
 30
0.0
 11
638.1717830109271
 21
199.2379374782646
 31
0.0
  0
LINE
  5
C0
330
1F
100
AcDbEntity
  8
1
  6
Continuous
 62
     7
100
AcDbLine
 10
614.1717830109271
 20
231.2379374782644
 30
0.0
 11
614.1717830109271
 21
227.8258948510042
 31
0.0
  0
LINE
  5
C1
330
1F
100
AcDbEntity
  8
1
  6
Continuous
 62
     7
100
AcDbLine
 10
629.2630496500517
 20
200.2349383611402
 30
0.0
 11
615.6021964604472
 21
202.154846071154
 31
0.0
  0
LINE
  5
C2
330
1F
100
AcDbEntity
  8
1
  6
Continuous
 62
     7
100
AcDbLine
 10
615.1717830109271
 20
202.6499801055248
 30
0.0
 11
615.1717830109271
 21
227.8258948510045
 31
0.0
  0
LINE
  5
C3
330
1F
100
AcDbEntity
  8
1
  6
Continuous
 62
     7
100
AcDbLine
 10
615.6021964604472
 20
228.3210288853753
 30
0.0
 11
629.2417098228696
 21
230.2379374782645
 31
0.0
  0
LINE
  5
C4
330
1F
100
AcDbEntity
  8
1
  6
Continuous
 62
     7
100
AcDbLine
 10
629.2417098228696
 20
230.2379374782645
 30
0.0
 11
650.6717830109271
 21
230.2379374782647
 31
0.0
  0
LINE
  5
C5
330
1F
100
AcDbEntity
  8
1
  6
Continuous
 62
     7
100
AcDbLine
 10
655.1717830109271
 20
229.4879374782647
 30
0.0
 11
651.1717830109271
 21
229.4879374782647
 31
0.0
  0
LINE
  5
C6
330
1F
100
AcDbEntity
  8
1
  6
Continuous
 62
     7
100
AcDbLine
 10
653.1717830109271
 20
231.2379374782647
 30
0.0
 11
653.1717830109271
 21
230.7379374782647
 31
0.0
  0
LINE
  5
C7
330
1F
100
AcDbEntity
  8
1
  6
Continuous
 62
     7
100
AcDbLine
 10
653.1717830109271
 20
231.2379374782647
 30
0.0
 11
655.1717830109271
 21
231.2379374782647
 31
0.0
  0
LINE
  5
C8
330
1F
100
AcDbEntity
  8
1
  6
Continuous
 62
     7
100
AcDbLine
 10
653.1717830109271
 20
230.7379374782647
 30
0.0
 11
651.3057576071426
 21
230.2379374782647
 31
0.0
  0
LINE
  5
C9
330
1F
100
AcDbEntity
  8
1
  6
Continuous
 62
     7
100
AcDbLine
 10
614.1717830109271
 20
227.8258948510042
 30
0.0
 11
614.1717830109271
 21
202.6499801055249
 31
0.0
  0
LINE
  5
CA
330
1F
100
AcDbEntity
  8
1
  6
Continuous
 62
     7
100
AcDbLine
 10
615.4630233594869
 20
229.3112969541165
 30
0.0
 11
629.1717830109288
 21
231.2379374782646
 31
0.0
  0
LINE
  5
CB
330
1F
100
AcDbEntity
  8
1
  6
Continuous
 62
     7
100
AcDbLine
 10
629.1717830109288
 20
231.2379374782646
 30
0.0
 11
650.6717830109271
 21
231.2379374782647
 31
0.0
  0
LINE
  5
CC
330
1F
100
AcDbEntity
  8
1
  6
Continuous
 62
     7
100
AcDbLine
 10
614.1717830109271
 20
202.6499801055249
 30
0.0
 11
614.1717830109271
 21
199.2379374782646
 31
0.0
  0
LINE
  5
CD
330
1F
100
AcDbEntity
  8
1
  6
Continuous
 62
     7
100
AcDbLine
 10
615.4630233594869
 20
201.1645780024125
 30
0.0
 11
629.1717830109271
 21
199.2379374782646
 31
0.0
  0
LINE
  5
CE
330
1F
100
AcDbEntity
  8
1
  6
Continuous
 62
     7
100
AcDbLine
 10
629.1717830109271
 20
199.2379374782646
 30
0.0
 11
614.1717830109271
 21
199.2379374782646
 31
0.0
  0
LINE
  5
CF
330
1F
100
AcDbEntity
  8
1
  6
Continuous
 62
     7
100
AcDbLine
 10
638.1717830109271
 20
199.2379374782646
 30
0.0
 11
638.1717830109271
 21
200.2371819527943
 31
0.0
  0
LINE
  5
D0
330
1F
100
AcDbEntity
  8
1
  6
Continuous
 62
     7
100
AcDbLine
 10
638.1717830109271
 20
199.2379374782646
 30
0.0
 11
629.1717830109271
 21
199.2379374782646
 31
0.0
  0
LINE
  5
D1
330
1F
100
AcDbEntity
  8
1
  6
Continuous
 62
     7
100
AcDbLine
 10
638.1717830109271
 20
200.2371819527943
 30
0.0
 11
629.2630496500517
 21
200.2349383611402
 31
0.0
  0
LINE
  5
D2
330
1F
100
AcDbEntity
  8
1
  6
Continuous
 62
     7
100
AcDbLine
 10
616.6717830109271
 20
205.4879374782646
 30
0.0
 11
616.6717830109271
 21
213.4189406285749
 31
0.0
  0
LINE
  5
D3
330
1F
100
AcDbEntity
  8
1
  6
Continuous
 62
     7
100
AcDbLine
 10
616.6717830109271
 20
222.7364262522657
 30
0.0
 11
620.8845973384998
 21
221.6076060553303
 31
0.0
  0
LINE
  5
D4
330
1F
100
AcDbEntity
  8
1
  6
DASHED
 62
     2
100
AcDbLine
 10
649.1943828912225
 20
211.9514695177598
 30
0.0
 11
647.9002876657099
 21
207.1218403863145
 31
0.0
  0
LINE
  5
D5
330
1F
100
AcDbEntity
  8
1
  6
DASHED
 62
     2
100
AcDbLine
 10
645.4507979229268
 20
205.7076268239413
 30
0.0
 11
643.9217830109272
 21
206.1173251348267
 31
0.0
  0
LINE
  5
D6
330
1F
100
AcDbEntity
  8
1
  6
DOT_CENTER
 62
     2
100
AcDbLine
 10
613.2227991232702
 20
219.0018358878259
 30
0.0
 11
650.497928575452
 21
209.0139950533481
 31
0.0
  0
LINE
  5
D7
330
1F
100
AcDbEntity
  8
1
  6
Continuous
 62
     7
100
AcDbLine
 10
616.6717830109271
 20
222.7364262522657
 30
0.0
 11
616.6717830109271
 21
223.4879374782646
 31
0.0
  0
LINE
  5
D8
330
1F
100
AcDbEntity
  8
1
  6
Continuous
 62
     7
100
AcDbLine
 10
616.6717830109271
 20
213.4189406285749
 30
0.0
 11
616.6717830109271
 21
222.7364262522657
 31
0.0
  0
ARC
  5
D9
330
1F
100
AcDbEntity
  8
1
  6
Continuous
 62
     7
100
AcDbCircle
 10
666.1717830109266
 20
200.7379374782646
 30
0.0
 40
5.249999999999903
100
AcDbArc
 50
153.9999999999978
 51
0.00000000000341
  0
ARC
  5
DA
330
1F
100
AcDbEntity
  8
1
  6
DASHED
 62
     2
100
AcDbCircle
 10
657.6717830109272
 20
224.2379374782644
 30
0.0
 40
4.999999999999799
100
AcDbArc
 50
45.00000000000645
 51
121.0027191338755
  0
ARC
  5
DB
330
1F
100
AcDbEntity
  8
1
  6
Continuous
 62
     7
100
AcDbCircle
 10
621.6717830109267
 20
216.7379374782652
 30
0.0
 40
3.999999999999791
100
AcDbArc
 50
134.9999999999965
 51
20.37568164783313
  0
ARC
  5
DC
330
1F
100
AcDbEntity
  8
1
  6
Continuous
 62
     7
100
AcDbCircle
 10
649.1717830109271
 20
200.7379374782646
 30
0.0
 40
5.249999999999886
100
AcDbArc
 50
180.0
 51
25.99999999999914
  0
ARC
  5
DD
330
1F
100
AcDbEntity
  8
1
  6
Continuous
 62
     7
100
AcDbCircle
 10
657.6717830109272
 20
224.2379374782644
 30
0.0
 40
5.000000000000336
100
AcDbArc
 50
58.99728086612892
 51
135.0000000000005
  0
ARC
  5
DE
330
1F
100
AcDbEntity
  8
1
  6
Continuous
 62
     7
100
AcDbCircle
 10
693.6717830109272
 20
216.7379374782649
 30
0.0
 40
3.999999999999701
100
AcDbArc
 50
159.6243183521657
 51
45.00000000000432
  0
ARC
  5
DF
330
1F
100
AcDbEntity
  8
1
  6
Continuous
 62
     7
100
AcDbCircle
 10
615.6717830109271
 20
227.8258948510042
 30
0.0
 40
1.49999999999997
100
AcDbArc
 50
98.00000000000533
 51
180.0
  0
ARC
  5
E0
330
1F
100
AcDbEntity
  8
1
  6
Continuous
 62
     7
100
AcDbCircle
 10
615.6717830109271
 20
202.6499801055248
 30
0.0
 40
1.5
100
AcDbArc
 50
179.9999999999967
 51
-98.00000000000533
  0
CIRCLE
  5
E1
330
1F
100
AcDbEntity
  8
1
  6
Continuous
 62
     7
100
AcDbCircle
 10
621.6717830109267
 20
216.7379374782652
 30
0.0
 40
2.499999999999929
  0
CIRCLE
  5
E2
330
1F
100
AcDbEntity
  8
1
  6
Continuous
 62
     7
100
AcDbCircle
 10
666.1717830109266
 20
200.7379374782646
 30
0.0
 40
2.749999999999435
  0
CIRCLE
  5
E3
330
1F
100
AcDbEntity
  8
1
  6
Continuous
 62
     7
100
AcDbCircle
 10
693.6717830109272
 20
216.7379374782649
 30
0.0
 40
2.499999999999929
  0
CIRCLE
  5
E4
330
1F
100
AcDbEntity
  8
1
  6
Continuous
 62
     7
100
AcDbCircle
 10
657.6717830109272
 20
224.2379374782644
 30
0.0
 40
2.4999999999997
  0
CIRCLE
  5
E5
330
1F
100
AcDbEntity
  8
1
  6
Continuous
 62
     7
100
AcDbCircle
 10
649.1717830109271
 20
200.7379374782646
 30
0.0
 40
2.749999999999792
  0
CIRCLE
  5
E6
330
1F
100
AcDbEntity
  8
1
  6
Continuous
 62
     2
100
AcDbCircle
 10
621.40339769184
 20
190.617935948132
 30
0.0
 40
0.5
  0
CIRCLE
  5
E7
330
1F
100
AcDbEntity
  8
1
  6
Continuous
 62
     2
100
AcDbCircle
 10
618.640403190157
 20
189.4849189830439
 30
0.0
 40
0.5
  0
CIRCLE
  5
E8
330
1F
100
AcDbEntity
  8
1
  6
Continuous
 62
     2
100
AcDbCircle
 10
618.40339769184
 20
192.617935948132
 30
0.0
 40
0.5
  0
CIRCLE
  5
E9
330
1F
100
AcDbEntity
  8
1
  6
Continuous
 62
     2
100
AcDbCircle
 10
616.40339769184
 20
190.617935948132
 30
0.0
 40
0.5
  0
CIRCLE
  5
EA
330
1F
100
AcDbEntity
  8
1
  6
Continuous
 62
     2
100
AcDbCircle
 10
616.40339769184
 20
187.617935948132
 30
0.0
 40
0.5
  0
CIRCLE
  5
EB
330
1F
100
AcDbEntity
  8
1
  6
Continuous
 62
     2
100
AcDbCircle
 10
613.40339769184
 20
192.617935948132
 30
0.0
 40
0.5
  0
CIRCLE
  5
EC
330
1F
100
AcDbEntity
  8
1
  6
Continuous
 62
     2
100
AcDbCircle
 10
611.40339769184
 20
193.617935948132
 30
0.0
 40
0.5
  0
CIRCLE
  5
ED
330
1F
100
AcDbEntity
  8
1
  6
Continuous
 62
     2
100
AcDbCircle
 10
610.40339769184
 20
190.617935948132
 30
0.0
 40
0.5
  0
CIRCLE
  5
EE
330
1F
100
AcDbEntity
  8
1
  6
Continuous
 62
     2
100
AcDbCircle
 10
611.40339769184
 20
187.617935948132
 30
0.0
 40
0.5
  0
CIRCLE
  5
EF
330
1F
100
AcDbEntity
  8
1
  6
Continuous
 62
     2
100
AcDbCircle
 10
612.40339769184
 20
189.617935948132
 30
0.0
 40
0.5
  0
CIRCLE
  5
F0
330
1F
100
AcDbEntity
  8
1
  6
Continuous
 62
     2
100
AcDbCircle
 10
622.40339769184
 20
192.617935948132
 30
0.0
 40
0.5
  0
CIRCLE
  5
F1
330
1F
100
AcDbEntity
  8
1
  6
Continuous
 62
     2
100
AcDbCircle
 10
621.40339769184
 20
187.617935948132
 30
0.0
 40
0.5
  0
CIRCLE
  5
F2
330
1F
100
AcDbEntity
  8
1
  6
Continuous
 62
     2
100
AcDbCircle
 10
625.40339769184
 20
192.617935948132
 30
0.0
 40
0.5
  0
CIRCLE
  5
F3
330
1F
100
AcDbEntity
  8
1
  6
Continuous
 62
     2
100
AcDbCircle
 10
623.40339769184
 20
190.617935948132
 30
0.0
 40
0.5
  0
CIRCLE
  5
F4
330
1F
100
AcDbEntity
  8
1
  6
Continuous
 62
     2
100
AcDbCircle
 10
624.40339769184
 20
187.617935948132
 30
0.0
 40
0.5
  0
CIRCLE
  5
F5
330
1F
100
AcDbEntity
  8
1
  6
Continuous
 62
     2
100
AcDbCircle
 10
628.40339769184
 20
189.617935948132
 30
0.0
 40
0.5
  0
CIRCLE
  5
F6
330
1F
100
AcDbEntity
  8
1
  6
Continuous
 62
     2
100
AcDbCircle
 10
628.40339769184
 20
192.617935948132
 30
0.0
 40
0.5
  0
CIRCLE
  5
F7
330
1F
100
AcDbEntity
  8
1
  6
Continuous
 62
     2
100
AcDbCircle
 10
626.40339769184
 20
190.617935948132
 30
0.0
 40
0.5
  0
CIRCLE
  5
F8
330
1F
100
AcDbEntity
  8
1
  6
Continuous
 62
     2
100
AcDbCircle
 10
627.40339769184
 20
187.617935948132
 30
0.0
 40
0.5
  0
CIRCLE
  5
F9
330
1F
100
AcDbEntity
  8
1
  6
Continuous
 62
     2
100
AcDbCircle
 10
631.40339769184
 20
192.617935948132
 30
0.0
 40
0.5
  0
CIRCLE
  5
FA
330
1F
100
AcDbEntity
  8
1
  6
Continuous
 62
     2
100
AcDbCircle
 10
632.40339769184
 20
189.617935948132
 30
0.0
 40
0.5
  0
CIRCLE
  5
FB
330
1F
100
AcDbEntity
  8
1
  6
Continuous
 62
     2
100
AcDbCircle
 10
637.40339769184
 20
192.617935948132
 30
0.0
 40
0.5
  0
CIRCLE
  5
FC
330
1F
100
AcDbEntity
  8
1
  6
Continuous
 62
     2
100
AcDbCircle
 10
634.40339769184
 20
192.617935948132
 30
0.0
 40
0.5
  0
CIRCLE
  5
FD
330
1F
100
AcDbEntity
  8
1
  6
Continuous
 62
     2
100
AcDbCircle
 10
635.40339769184
 20
190.617935948132
 30
0.0
 40
0.5
  0
CIRCLE
  5
FE
330
1F
100
AcDbEntity
  8
1
  6
Continuous
 62
     2
100
AcDbCircle
 10
635.40339769184
 20
187.617935948132
 30
0.0
 40
0.5
  0
CIRCLE
  5
FF
330
1F
100
AcDbEntity
  8
1
  6
Continuous
 62
     2
100
AcDbCircle
 10
630.40339769184
 20
187.617935948132
 30
0.0
 40
0.5
  0
CIRCLE
  5
100
330
1F
100
AcDbEntity
  8
1
  6
Continuous
 62
     2
100
AcDbCircle
 10
640.40339769184
 20
192.617935948132
 30
0.0
 40
0.5
  0
CIRCLE
  5
101
330
1F
100
AcDbEntity
  8
1
  6
Continuous
 62
     2
100
AcDbCircle
 10
638.40339769184
 20
190.617935948132
 30
0.0
 40
0.5
  0
CIRCLE
  5
102
330
1F
100
AcDbEntity
  8
1
  6
Continuous
 62
     2
100
AcDbCircle
 10
638.40339769184
 20
187.617935948132
 30
0.0
 40
0.5
  0
CIRCLE
  5
103
330
1F
100
AcDbEntity
  8
1
  6
Continuous
 62
     2
100
AcDbCircle
 10
643.40339769184
 20
192.617935948132
 30
0.0
 40
0.5
  0
CIRCLE
  5
104
330
1F
100
AcDbEntity
  8
1
  6
Continuous
 62
     2
100
AcDbCircle
 10
646.40339769184
 20
192.617935948132
 30
0.0
 40
0.5
  0
CIRCLE
  5
105
330
1F
100
AcDbEntity
  8
1
  6
Continuous
 62
     2
100
AcDbCircle
 10
643.40339769184
 20
189.617935948132
 30
0.0
 40
0.5
  0
CIRCLE
  5
106
330
1F
100
AcDbEntity
  8
1
  6
Continuous
 62
     2
100
AcDbCircle
 10
641.40339769184
 20
190.617935948132
 30
0.0
 40
0.5
  0
CIRCLE
  5
107
330
1F
100
AcDbEntity
  8
1
  6
Continuous
 62
     2
100
AcDbCircle
 10
641.40339769184
 20
188.617935948132
 30
0.0
 40
0.5
  0
CIRCLE
  5
108
330
1F
100
AcDbEntity
  8
1
  6
Continuous
 62
     2
100
AcDbCircle
 10
648.40339769184
 20
188.617935948132
 30
0.0
 40
0.5
  0
CIRCLE
  5
109
330
1F
100
AcDbEntity
  8
1
  6
Continuous
 62
     2
100
AcDbCircle
 10
651.40339769184
 20
189.617935948132
 30
0.0
 40
0.5
  0
CIRCLE
  5
10A
330
1F
100
AcDbEntity
  8
1
  6
Continuous
 62
     2
100
AcDbCircle
 10
652.40339769184
 20
192.617935948132
 30
0.0
 40
0.5
  0
CIRCLE
  5
10B
330
1F
100
AcDbEntity
  8
1
  6
Continuous
 62
     2
100
AcDbCircle
 10
649.40339769184
 20
191.617935948132
 30
0.0
 40
0.5
  0
CIRCLE
  5
10C
330
1F
100
AcDbEntity
  8
1
  6
Continuous
 62
     2
100
AcDbCircle
 10
646.40339769184
 20
190.617935948132
 30
0.0
 40
0.5
  0
CIRCLE
  5
10D
330
1F
100
AcDbEntity
  8
1
  6
Continuous
 62
     2
100
AcDbCircle
 10
645.40339769184
 20
187.617935948132
 30
0.0
 40
0.5
  0
CIRCLE
  5
10E
330
1F
100
AcDbEntity
  8
1
  6
Continuous
 62
     2
100
AcDbCircle
 10
652.40339769184
 20
188.617935948132
 30
0.0
 40
0.5
  0
CIRCLE
  5
10F
330
1F
100
AcDbEntity
  8
1
  6
Continuous
 62
     2
100
AcDbCircle
 10
615.40339769184
 20
192.617935948132
 30
0.0
 40
0.5
  0
CIRCLE
  5
110
330
1F
100
AcDbEntity
  8
1
  6
Continuous
 62
     2
100
AcDbCircle
 10
650.40339769184
 20
187.617935948132
 30
0.0
 40
0.5
  0
CIRCLE
  5
111
330
1F
100
AcDbEntity
  8
1
  6
Continuous
 62
     2
100
AcDbCircle
 10
654.40339769184
 20
187.617935948132
 30
0.0
 40
0.5
  0
CIRCLE
  5
112
330
1F
100
AcDbEntity
  8
1
  6
Continuous
 62
     2
100
AcDbCircle
 10
653.40339769184
 20
190.617935948132
 30
0.0
 40
0.5
  0
CIRCLE
  5
113
330
1F
100
AcDbEntity
  8
1
  6
Continuous
 62
     2
100
AcDbCircle
 10
661.40339769184
 20
192.617935948132
 30
0.0
 40
0.5
  0
CIRCLE
  5
114
330
1F
100
AcDbEntity
  8
1
  6
Continuous
 62
     2
100
AcDbCircle
 10
660.40339769184
 20
189.617935948132
 30
0.0
 40
0.5
  0
CIRCLE
  5
115
330
1F
100
AcDbEntity
  8
1
  6
Continuous
 62
     2
100
AcDbCircle
 10
660.40339769184
 20
187.617935948132
 30
0.0
 40
0.5
  0
CIRCLE
  5
116
330
1F
100
AcDbEntity
  8
1
  6
Continuous
 62
     2
100
AcDbCircle
 10
663.40339769184
 20
187.617935948132
 30
0.0
 40
0.5
  0
CIRCLE
  5
117
330
1F
100
AcDbEntity
  8
1
  6
Continuous
 62
     2
100
AcDbCircle
 10
663.40339769184
 20
190.617935948132
 30
0.0
 40
0.5
  0
CIRCLE
  5
118
330
1F
100
AcDbEntity
  8
1
  6
Continuous
 62
     2
100
AcDbCircle
 10
665.40339769184
 20
191.617935948132
 30
0.0
 40
0.5
  0
CIRCLE
  5
119
330
1F
100
AcDbEntity
  8
1
  6
Continuous
 62
     2
100
AcDbCircle
 10
668.40339769184
 20
192.617935948132
 30
0.0
 40
0.5
  0
CIRCLE
  5
11A
330
1F
100
AcDbEntity
  8
1
  6
Continuous
 62
     2
100
AcDbCircle
 10
668.40339769184
 20
190.617935948132
 30
0.0
 40
0.5
  0
CIRCLE
  5
11B
330
1F
100
AcDbEntity
  8
1
  6
Continuous
 62
     2
100
AcDbCircle
 10
665.40339769184
 20
189.617935948132
 30
0.0
 40
0.5
  0
CIRCLE
  5
11C
330
1F
100
AcDbEntity
  8
1
  6
Continuous
 62
     2
100
AcDbCircle
 10
666.40339769184
 20
187.617935948132
 30
0.0
 40
0.5
  0
CIRCLE
  5
11D
330
1F
100
AcDbEntity
  8
1
  6
Continuous
 62
     2
100
AcDbCircle
 10
671.40339769184
 20
192.617935948132
 30
0.0
 40
0.5
  0
CIRCLE
  5
11E
330
1F
100
AcDbEntity
  8
1
  6
Continuous
 62
     2
100
AcDbCircle
 10
671.40339769184
 20
190.617935948132
 30
0.0
 40
0.5
  0
CIRCLE
  5
11F
330
1F
100
AcDbEntity
  8
1
  6
Continuous
 62
     2
100
AcDbCircle
 10
669.40339769184
 20
187.617935948132
 30
0.0
 40
0.5
  0
CIRCLE
  5
120
330
1F
100
AcDbEntity
  8
1
  6
Continuous
 62
     2
100
AcDbCircle
 10
673.40339769184
 20
191.617935948132
 30
0.0
 40
0.5
  0
CIRCLE
  5
121
330
1F
100
AcDbEntity
  8
1
  6
Continuous
 62
     2
100
AcDbCircle
 10
673.40339769184
 20
188.617935948132
 30
0.0
 40
0.5
  0
CIRCLE
  5
122
330
1F
100
AcDbEntity
  8
1
  6
Continuous
 62
     2
100
AcDbCircle
 10
672.40339769184
 20
187.617935948132
 30
0.0
 40
0.5
  0
CIRCLE
  5
123
330
1F
100
AcDbEntity
  8
1
  6
Continuous
 62
     2
100
AcDbCircle
 10
676.40339769184
 20
192.617935948132
 30
0.0
 40
0.5
  0
CIRCLE
  5
124
330
1F
100
AcDbEntity
  8
1
  6
Continuous
 62
     2
100
AcDbCircle
 10
680.40339769184
 20
192.617935948132
 30
0.0
 40
0.5
  0
CIRCLE
  5
125
330
1F
100
AcDbEntity
  8
1
  6
Continuous
 62
     2
100
AcDbCircle
 10
682.40339769184
 20
192.617935948132
 30
0.0
 40
0.5
  0
CIRCLE
  5
126
330
1F
100
AcDbEntity
  8
1
  6
Continuous
 62
     2
100
AcDbCircle
 10
678.40339769184
 20
191.617935948132
 30
0.0
 40
0.5
  0
CIRCLE
  5
127
330
1F
100
AcDbEntity
  8
1
  6
Continuous
 62
     2
100
AcDbCircle
 10
676.40339769184
 20
189.617935948132
 30
0.0
 40
0.5
  0
CIRCLE
  5
128
330
1F
100
AcDbEntity
  8
1
  6
Continuous
 62
     2
100
AcDbCircle
 10
676.40339769184
 20
187.617935948132
 30
0.0
 40
0.5
  0
CIRCLE
  5
129
330
1F
100
AcDbEntity
  8
1
  6
Continuous
 62
     2
100
AcDbCircle
 10
680.40339769184
 20
187.617935948132
 30
0.0
 40
0.5
  0
CIRCLE
  5
12A
330
1F
100
AcDbEntity
  8
1
  6
Continuous
 62
     2
100
AcDbCircle
 10
679.40339769184
 20
189.617935948132
 30
0.0
 40
0.5
  0
CIRCLE
  5
12B
330
1F
100
AcDbEntity
  8
1
  6
Continuous
 62
     2
100
AcDbCircle
 10
681.40339769184
 20
190.617935948132
 30
0.0
 40
0.5
  0
CIRCLE
  5
12C
330
1F
100
AcDbEntity
  8
1
  6
Continuous
 62
     2
100
AcDbCircle
 10
685.40339769184
 20
192.617935948132
 30
0.0
 40
0.5
  0
CIRCLE
  5
12D
330
1F
100
AcDbEntity
  8
1
  6
Continuous
 62
     2
100
AcDbCircle
 10
685.40339769184
 20
189.617935948132
 30
0.0
 40
0.5
  0
CIRCLE
  5
12E
330
1F
100
AcDbEntity
  8
1
  6
Continuous
 62
     2
100
AcDbCircle
 10
693.40339769184
 20
192.617935948132
 30
0.0
 40
0.5
  0
CIRCLE
  5
12F
330
1F
100
AcDbEntity
  8
1
  6
Continuous
 62
     2
100
AcDbCircle
 10
690.40339769184
 20
192.617935948132
 30
0.0
 40
0.5
  0
CIRCLE
  5
130
330
1F
100
AcDbEntity
  8
1
  6
Continuous
 62
     2
100
AcDbCircle
 10
687.40339769184
 20
190.617935948132
 30
0.0
 40
0.5
  0
CIRCLE
  5
131
330
1F
100
AcDbEntity
  8
1
  6
Continuous
 62
     2
100
AcDbCircle
 10
684.40339769184
 20
190.617935948132
 30
0.0
 40
0.5
  0
CIRCLE
  5
132
330
1F
100
AcDbEntity
  8
1
  6
Continuous
 62
     2
100
AcDbCircle
 10
683.40339769184
 20
187.617935948132
 30
0.0
 40
0.5
  0
CIRCLE
  5
133
330
1F
100
AcDbEntity
  8
1
  6
Continuous
 62
     2
100
AcDbCircle
 10
687.40339769184
 20
187.617935948132
 30
0.0
 40
0.5
  0
CIRCLE
  5
134
330
1F
100
AcDbEntity
  8
1
  6
Continuous
 62
     2
100
AcDbCircle
 10
692.40339769184
 20
189.617935948132
 30
0.0
 40
0.5
  0
CIRCLE
  5
135
330
1F
100
AcDbEntity
  8
1
  6
Continuous
 62
     2
100
AcDbCircle
 10
690.40339769184
 20
190.617935948132
 30
0.0
 40
0.5
  0
CIRCLE
  5
136
330
1F
100
AcDbEntity
  8
1
  6
Continuous
 62
     2
100
AcDbCircle
 10
690.40339769184
 20
188.617935948132
 30
0.0
 40
0.5
  0
CIRCLE
  5
137
330
1F
100
AcDbEntity
  8
1
  6
Continuous
 62
     2
100
AcDbCircle
 10
696.40339769184
 20
191.617935948132
 30
0.0
 40
0.5
  0
CIRCLE
  5
138
330
1F
100
AcDbEntity
  8
1
  6
Continuous
 62
     2
100
AcDbCircle
 10
696.40339769184
 20
188.617935948132
 30
0.0
 40
0.5
  0
CIRCLE
  5
139
330
1F
100
AcDbEntity
  8
1
  6
Continuous
 62
     2
100
AcDbCircle
 10
693.40339769184
 20
187.617935948132
 30
0.0
 40
0.5
  0
CIRCLE
  5
13A
330
1F
100
AcDbEntity
  8
1
  6
Continuous
 62
     2
100
AcDbCircle
 10
698.40339769184
 20
192.617935948132
 30
0.0
 40
0.5
  0
CIRCLE
  5
13B
330
1F
100
AcDbEntity
  8
1
  6
Continuous
 62
     2
100
AcDbCircle
 10
698.40339769184
 20
187.617935948132
 30
0.0
 40
0.5
  0
CIRCLE
  5
13C
330
1F
100
AcDbEntity
  8
1
  6
Continuous
 62
     2
100
AcDbCircle
 10
700.40339769184
 20
192.617935948132
 30
0.0
 40
0.5
  0
CIRCLE
  5
13D
330
1F
100
AcDbEntity
  8
1
  6
Continuous
 62
     2
100
AcDbCircle
 10
701.40339769184
 20
188.617935948132
 30
0.0
 40
0.5
  0
CIRCLE
  5
13E
330
1F
100
AcDbEntity
  8
1
  6
Continuous
 62
     2
100
AcDbCircle
 10
704.40339769184
 20
191.617935948132
 30
0.0
 40
0.5
  0
CIRCLE
  5
13F
330
1F
100
AcDbEntity
  8
1
  6
Continuous
 62
     2
100
AcDbCircle
 10
704.40339769184
 20
188.617935948132
 30
0.0
 40
0.5
  0
CIRCLE
  5
140
330
1F
100
AcDbEntity
  8
1
  6
Continuous
 62
     2
100
AcDbCircle
 10
707.40339769184
 20
187.617935948132
 30
0.0
 40
0.5
  0
CIRCLE
  5
141
330
1F
100
AcDbEntity
  8
1
  6
Continuous
 62
     2
100
AcDbCircle
 10
709.40339769184
 20
190.617935948132
 30
0.0
 40
0.5
  0
CIRCLE
  5
142
330
1F
100
AcDbEntity
  8
1
  6
Continuous
 62
     2
100
AcDbCircle
 10
712.40339769184
 20
193.617935948132
 30
0.0
 40
0.5
  0
CIRCLE
  5
143
330
1F
100
AcDbEntity
  8
1
  6
Continuous
 62
     2
100
AcDbCircle
 10
707.40339769184
 20
192.617935948132
 30
0.0
 40
0.5
  0
CIRCLE
  5
144
330
1F
100
AcDbEntity
  8
1
  6
Continuous
 62
     2
100
AcDbCircle
 10
710.40339769184
 20
187.617935948132
 30
0.0
 40
0.5
  0
CIRCLE
  5
145
330
1F
100
AcDbEntity
  8
1
  6
Continuous
 62
     2
100
AcDbCircle
 10
712.40339769184
 20
190.617935948132
 30
0.0
 40
0.5
  0
CIRCLE
  5
146
330
1F
100
AcDbEntity
  8
1
  6
Continuous
 62
     2
100
AcDbCircle
 10
712.40339769184
 20
187.617935948132
 30
0.0
 40
0.5
  0
CIRCLE
  5
147
330
1F
100
AcDbEntity
  8
1
  6
Continuous
 62
     2
100
AcDbCircle
 10
706.40339769184
 20
190.617935948132
 30
0.0
 40
0.5
  0
CIRCLE
  5
148
330
1F
100
AcDbEntity
  8
1
  6
Continuous
 62
     2
100
AcDbCircle
 10
703.40339769184
 20
193.617935948132
 30
0.0
 40
0.5
  0
CIRCLE
  5
149
330
1F
100
AcDbEntity
  8
1
  6
Continuous
 62
     2
100
AcDbCircle
 10
710.40339769184
 20
192.617935948132
 30
0.0
 40
0.5
  0
CIRCLE
  5
14A
330
1F
100
AcDbEntity
  8
1
  6
Continuous
 62
     2
100
AcDbCircle
 10
700.40339769184
 20
190.617935948132
 30
0.0
 40
0.5
  0
CIRCLE
  5
14B
330
1F
100
AcDbEntity
  8
1
  6
Continuous
 62
     2
100
AcDbCircle
 10
698.40339769184
 20
190.617935948132
 30
0.0
 40
0.5
  0
CIRCLE
  5
14C
330
1F
100
AcDbEntity
  8
1
  6
Continuous
 62
     2
100
AcDbCircle
 10
694.40339769184
 20
190.617935948132
 30
0.0
 40
0.5
  0
ARC
  5
14D
330
1F
100
AcDbEntity
  8
1
  6
Continuous
 62
     7
100
AcDbCircle
 10
672.1717830109271
 20
202.7379374782646
 30
0.0
 40
1.0
100
AcDbArc
 50
89.99999999999349
 51
138.5903778907658
  0
ARC
  5
14E
330
1F
100
AcDbEntity
  8
1
  6
DASHED
 62
     2
100
AcDbCircle
 10
672.1717830109271
 20
202.7379374782646
 30
0.0
 40
1.000000000000042
100
AcDbArc
 50
138.5903778907658
 51
180.0
  0
ARC
  5
14F
330
1F
100
AcDbEntity
  8
1
  6
Continuous
 62
     7
100
AcDbCircle
 10
694.1717830109271
 20
204.7379374782646
 30
0.0
 40
1.0
100
AcDbArc
 50
-90.0
 51
0.0
  0
ARC
  5
150
330
1F
100
AcDbEntity
  8
1
  6
DASHED
 62
     2
100
AcDbCircle
 10
665.1717830109271
 20
227.7379374782647
 30
0.0
 40
2.0
100
AcDbArc
 50
-179.9999999999967
 51
-90.0
  0
ARC
  5
151
330
1F
100
AcDbEntity
  8
1
  6
Continuous
 62
     7
100
AcDbCircle
 10
698.1717830109271
 20
227.8260307865536
 30
0.0
 40
0.49999999999993
100
AcDbArc
 50
55.46837036532131
 51
81.98225263598243
  0
ARC
  5
152
330
1F
100
AcDbEntity
  8
1
  6
Continuous
 62
     7
100
AcDbCircle
 10
698.1717830109271
 20
202.6499801055366
 30
0.0
 40
0.5000000000001068
100
AcDbArc
 50
-82.00000000000094
 51
0.0
  0
ARC
  5
153
330
1F
100
AcDbEntity
  8
1
  6
Continuous
 62
     7
100
AcDbCircle
 10
698.1717830109271
 20
202.6499801055366
 30
0.0
 40
1.500000000000055
100
AcDbArc
 50
-81.99999999999513
 51
-0.00000000000326
  0
ARC
  5
154
330
1F
100
AcDbEntity
  8
1
  6
Continuous
 62
     7
100
AcDbCircle
 10
698.1717830109271
 20
227.8258948510044
 30
0.0
 40
1.499999999999949
100
AcDbArc
 50
15.9438440404123
 51
81.99999999999469
  0
ARC
  5
155
330
1F
100
AcDbEntity
  8
1
  6
DASHED
 62
     2
100
AcDbCircle
 10
669.8751300087224
 20
207.7734530727351
 30
0.0
 40
2.000000000000061
100
AcDbArc
 50
-164.9999999999993
 51
-74.99999999999926
  0
ARC
  5
156
330
1F
100
AcDbEntity
  8
1
  6
DASHED
 62
     2
100
AcDbCircle
 10
668.5810347832098
 20
212.6030822041804
 30
0.0
 40
1.999999999999979
100
AcDbArc
 50
105.0000000000014
 51
-164.9999999999993
  0
ARC
  5
157
330
1F
100
AcDbEntity
  8
1
  6
Continuous
 62
     7
100
AcDbCircle
 10
696.1717830109271
 20
223.7379374782646
 30
0.0
 40
2.0
100
AcDbArc
 50
0.0
 51
90.0
  0
ARC
  5
158
330
1F
100
AcDbEntity
  8
1
  6
Continuous
 62
     7
100
AcDbCircle
 10
697.1717830109272
 20
211.309112043537
 30
0.0
 40
1.00000000000003
100
AcDbArc
 50
-74.99999999999926
 51
0.00000000000651
  0
ARC
  5
159
330
1F
100
AcDbEntity
  8
1
  6
Continuous
 62
     7
100
AcDbCircle
 10
698.1717830109271
 20
227.8260307865536
 30
0.0
 40
0.5
100
AcDbArc
 50
0.0
 51
55.46837036532131
  0
ARC
  5
15A
330
1F
100
AcDbEntity
  8
1
  6
Continuous
 62
     7
100
AcDbCircle
 10
698.1717830109271
 20
227.8258948510044
 30
0.0
 40
1.5
100
AcDbArc
 50
0.0
 51
15.9438440404123
  0
ARC
  5
15B
330
1F
100
AcDbEntity
  8
1
  6
Continuous
 62
     7
100
AcDbCircle
 10
630.2073169168597
 20
221.737937478265
 30
0.0
 40
6.5
100
AcDbArc
 50
90.00000000000101
 51
135.0000000000016
  0
ARC
  5
15C
330
1F
100
AcDbEntity
  8
1
  6
Continuous
 62
     7
100
AcDbCircle
 10
654.0662317354628
 20
230.237937478265
 30
0.0
 40
2.0
100
AcDbArc
 50
-90.0
 51
-58.99728086612727
  0
ARC
  5
15D
330
1F
100
AcDbEntity
  8
1
  6
Continuous
 62
     7
100
AcDbCircle
 10
664.9217830109268
 20
214.866617134705
 30
0.0
 40
6.5
100
AcDbArc
 50
0.0
 51
45.00000000000178
  0
ARC
  5
15E
330
1F
100
AcDbEntity
  8
1
  6
Continuous
 62
     7
100
AcDbCircle
 10
627.296362119028
 20
218.8269826804338
 30
0.0
 40
1.999999999999835
100
AcDbArc
 50
134.9999999999868
 51
-159.6243183521655
  0
ARC
  5
15F
330
1F
100
AcDbEntity
  8
1
  6
Continuous
 62
     7
100
AcDbCircle
 10
631.8641711663516
 20
217.737937478265
 30
0.0
 40
5.999999999999801
100
AcDbArc
 50
89.99999999999892
 51
134.9999999999958
  0
ARC
  5
160
330
1F
100
AcDbEntity
  8
1
  6
Continuous
 62
     7
100
AcDbCircle
 10
659.7355081260447
 20
212.0642177079079
 30
0.0
 40
5.499999999999776
100
AcDbArc
 50
-26.00000000000084
 51
69.00000000000135
  0
ARC
  5
161
330
1F
100
AcDbEntity
  8
1
  6
Continuous
 62
     7
100
AcDbCircle
 10
643.5597487413377
 20
217.7379374782649
 30
0.0
 40
5.999999999999953
100
AcDbArc
 50
69.00000000000033
 51
90.0
  0
ARC
  5
162
330
1F
100
AcDbEntity
  8
1
  6
Continuous
 62
     7
100
AcDbCircle
 10
685.1362491049942
 20
221.7379374782647
 30
0.0
 40
6.499999999999952
100
AcDbArc
 50
44.99999999999841
 51
89.999999999999
  0
ARC
  5
163
330
1F
100
AcDbEntity
  8
1
  6
Continuous
 62
     7
100
AcDbCircle
 10
661.2773342863911
 20
230.2379374782647
 30
0.0
 40
1.999999999999877
100
AcDbArc
 50
-121.002719133874
 51
-90.0
  0
ARC
  5
164
330
1F
100
AcDbEntity
  8
1
  6
Continuous
 62
     7
100
AcDbCircle
 10
650.4217830109271
 20
214.8666171347047
 30
0.0
 40
6.499999999999992
100
AcDbArc
 50
134.9999999999984
 51
180.0
  0
ARC
  5
165
330
1F
100
AcDbEntity
  8
1
  6
Continuous
 62
     7
100
AcDbCircle
 10
688.0472039028259
 20
218.8269826804335
 30
0.0
 40
1.999999999999762
100
AcDbArc
 50
-20.37568164783217
 51
45.00000000001324
  0
ARC
  5
166
330
1F
100
AcDbEntity
  8
1
  6
Continuous
 62
     7
100
AcDbCircle
 10
683.4793948555023
 20
217.7379374782647
 30
0.0
 40
5.999999999999908
100
AcDbArc
 50
45.0000000000048
 51
90.0000000000011
  0
ARC
  5
167
330
1F
100
AcDbEntity
  8
1
  6
Continuous
 62
     7
100
AcDbCircle
 10
655.6080578958092
 20
212.0642177079076
 30
0.0
 40
5.499999999999948
100
AcDbArc
 50
110.9999999999987
 51
-154.0
  0
ARC
  5
168
330
1F
100
AcDbEntity
  8
1
  6
Continuous
 62
     7
100
AcDbCircle
 10
671.7838172805162
 20
217.7379374782646
 30
0.0
 40
6.0
100
AcDbArc
 50
90.0
 51
110.9999999999996
  0
ARC
  5
169
330
1F
100
AcDbEntity
  8
1
  6
DASHED
 62
     2
100
AcDbCircle
 10
642.1717830109269
 20
201.4879374782646
 30
0.0
 40
2.0
100
AcDbArc
 50
0.0000000000057
 51
28.95502437184097
  0
ARC
  5
16A
330
1F
100
AcDbEntity
  8
1
  6
Continuous
 62
     7
100
AcDbCircle
 10
642.1717830109269
 20
201.4879374782646
 30
0.0
 40
2.000000000000025
100
AcDbArc
 50
28.95502437184097
 51
90.0
  0
ARC
  5
16B
330
1F
100
AcDbEntity
  8
1
  6
Continuous
 62
     7
100
AcDbCircle
 10
618.6717830109271
 20
223.4879374782646
 30
0.0
 40
2.0
100
AcDbArc
 50
90.0
 51
180.0
  0
ARC
  5
16C
330
1F
100
AcDbEntity
  8
1
  6
DASHED
 62
     2
100
AcDbCircle
 10
649.1717830109271
 20
227.4879374782646
 30
0.0
 40
2.0
100
AcDbArc
 50
-90.0
 51
0.0
  0
ARC
  5
16D
330
1F
100
AcDbEntity
  8
1
  6
Continuous
 62
     7
100
AcDbCircle
 10
618.6717830109271
 20
205.4879374782646
 30
0.0
 40
2.0
100
AcDbArc
 50
180.0
 51
-90.0
  0
ARC
  5
16E
330
1F
100
AcDbEntity
  8
1
  6
Continuous
 62
     7
100
AcDbCircle
 10
615.6717830109271
 20
227.8258948510042
 30
0.0
 40
0.5000000000003161
100
AcDbArc
 50
97.99999999998255
 51
179.9999999999642
  0
ARC
  5
16F
330
1F
100
AcDbEntity
  8
1
  6
Continuous
 62
     7
100
AcDbCircle
 10
615.6717830109271
 20
202.6499801055248
 30
0.0
 40
0.5
100
AcDbArc
 50
180.0
 51
-97.99999999998752
  0
ARC
  5
170
330
1F
100
AcDbEntity
  8
1
  6
DASHED
 62
     2
100
AcDbCircle
 10
647.2625312386444
 20
212.4691076079648
 30
0.0
 40
1.999999999999929
100
AcDbArc
 50
-14.99999999999923
 51
74.99999999999864
  0
ARC
  5
171
330
1F
100
AcDbEntity
  8
1
  6
DASHED
 62
     2
100
AcDbCircle
 10
645.9684360131318
 20
207.6394784765194
 30
0.0
 40
1.999999999999979
100
AcDbArc
 50
-105.0000000000014
 51
-14.99999999999687
  0
DIMENSION
  5
17D
330
1F
100
AcDbEntity
  8
1
100
AcDbDimension
  2
*D1
 10
721.135640717242
 20
231.2379374782647
 30
0.0
 11
717.385640717242
 21
217.616694681453
 31
0.0
 70
    32
  1
<>
 71
     5
 42
-1.0
 53
90.0
  3
ME10_DIM_10
100
AcDbAlignedDimension
 13
702.1717830109272
 23
199.2379374782763
 33
0.0
 14
702.1717830109272
 24
231.2379374782647
 34
0.0
 50
90.0
100
AcDbRotatedDimension
  0
DIMENSION
  5
188
330
1F
100
AcDbEntity
  8
1
100
AcDbDimension
  2
*D2
 10
601.649832921375
 20
231.2379374782644
 30
0.0
 11
597.899832921375
 21
216.749625550312
 31
0.0
 70
    32
  1
<>
 71
     5
 42
-1.0
 53
90.0
  3
ME10_DIM_11
100
AcDbAlignedDimension
 13
614.1717830109271
 23
199.2379374782646
 33
0.0
 14
614.1717830109271
 24
231.2379374782644
 34
0.0
 50
90.0
100
AcDbRotatedDimension
  0
DIMENSION
  5
193
330
1F
100
AcDbEntity
  8
1
100
AcDbDimension
  2
*D3
 10
658.6717830109271
 20
175.540233742051
 30
0.0
 11
679.4660056049398
 21
179.290233742051
 31
0.0
 70
    32
  1
<>
 71
     5
 42
-1.0
 53
0.00013888888889
  3
ME10_DIM_12
100
AcDbAlignedDimension
 13
699.6717830109271
 23
202.6499801055365
 33
0.0
 14
658.6717830109271
 24
186.2379374782644
 34
0.0
100
AcDbRotatedDimension
  0
DIMENSION
  5
19E
330
1F
100
AcDbEntity
  8
1
100
AcDbDimension
  2
*D4
 10
614.1717830109271
 20
175.540233742051
 30
0.0
 11
630.829572891007
 21
179.290233742051
 31
0.0
 70
    32
  1
<>
 71
     5
 42
-1.0
 53
0.00013888888889
  3
ME10_DIM_13
100
AcDbAlignedDimension
 13
655.1717830109271
 23
186.2379374782646
 33
0.0
 14
614.1717830109271
 24
199.2379374782646
 34
0.0
100
AcDbRotatedDimension
  0
DIMENSION
  5
1A9
330
1F
100
AcDbEntity
  8
1
100
AcDbDimension
  2
*D5
 10
658.6717830109271
 20
162.540233742051
 30
0.0
 11
679.4217830109271
 21
166.290233742051
 31
0.0
 70
    32
  1
<>
 71
     5
 42
-1.0
 53
0.00013888888889
  3
ME10_DIM_14
100
AcDbAlignedDimension
 13
702.1717830109272
 23
199.2379374782763
 33
0.0
 14
658.6717830109271
 24
186.2379374782644
 34
0.0
100
AcDbRotatedDimension
  0
DIMENSION
  5
1B6
330
1F
100
AcDbEntity
  8
1
100
AcDbDimension
  2
*D6
 10
655.1717830109271
 20
175.540233742051
 30
0.0
 11
654.498046819926
 21
170.464548090692
 31
0.0
 70
    32
  1
<>
 71
     5
 42
-1.0
 53
0.00013888888889
  3
ME10_DIM_15
100
AcDbAlignedDimension
 13
658.6717830109271
 23
186.2379374782644
 33
0.0
 14
655.1717830109271
 24
186.2379374782646
 34
0.0
100
AcDbRotatedDimension
  0
DIMENSION
  5
1C3
330
1F
100
AcDbEntity
  8
1
100
AcDbDimension
  2
*D7
 10
730.644599640976
 20
186.2379374782644
 30
0.0
 11
726.894599640976
 21
190.580896689886
 31
0.0
 70
    32
  1
<>
 71
     5
 42
-1.0
 53
90.0
  3
ME10_DIM_16
100
AcDbAlignedDimension
 13
713.6717830109271
 23
194.2379374782646
 33
0.0
 14
713.6717830109271
 24
186.2379374782644
 34
0.0
 50
90.0
100
AcDbRotatedDimension
  0
DIMENSION
  5
1CE
330
1F
100
AcDbEntity
  8
1
100
AcDbDimension
  2
*D8
 10
730.644599640976
 20
194.2379374782647
 30
0.0
 11
726.894599640976
 21
212.7379374782647
 31
0.0
 70
    32
  1
<>
 71
     5
 42
-1.0
 53
90.0
  3
ME10_DIM_17
100
AcDbAlignedDimension
 13
702.1717830109272
 23
231.2379374782647
 33
0.0
 14
713.6717830109271
 24
194.2379374782646
 34
0.0
 50
90.0
100
AcDbRotatedDimension
  0
DIMENSION
  5
1D9
330
1F
100
AcDbEntity
  8
1
100
AcDbDimension
  2
*D9
 10
591.669094479899
 20
231.2379374782644
 30
0.0
 11
587.919094479899
 21
212.011423284715
 31
0.0
 70
    32
  1
<>
 71
     5
 42
-1.0
 53
90.0
  3
ME10_DIM_18
100
AcDbAlignedDimension
 13
609.171783010927
 23
194.2379374782646
 33
0.0
 14
614.1717830109271
 24
231.2379374782644
 34
0.0
 50
90.0
100
AcDbRotatedDimension
  0
DIMENSION
  5
1E6
330
1F
100
AcDbEntity
  8
1
100
AcDbDimension
  2
*D10
 10
591.669094479899
 20
194.2379374782646
 30
0.0
 11
587.919094479899
 21
190.413185904791
 31
0.0
 70
    32
  1
<>
 71
     5
 42
-1.0
 53
90.0
  3
ME10_DIM_19
100
AcDbAlignedDimension
 13
609.171783010927
 23
186.2379374782646
 33
0.0
 14
609.171783010927
 24
194.2379374782646
 34
0.0
 50
90.0
100
AcDbRotatedDimension
  0
ENDSEC
  0
SECTION
  2
OBJECTS
  0
DICTIONARY
  5
C
330
0
100
AcDbDictionary
281
     1
  3
ACAD_GROUP
350
D
  3
ACAD_LAYOUT
350
1A
  3
ACAD_MLINESTYLE
350
17
  3
ACAD_PLOTSETTINGS
350
19
  3
ACAD_PLOTSTYLENAME
350
E
  0
DICTIONARY
  5
D
102
{ACAD_REACTORS
330
C
102
}
330
C
100
AcDbDictionary
281
     1
  0
DICTIONARY
  5
1A
102
{ACAD_REACTORS
330
C
102
}
330
C
100
AcDbDictionary
281
     1
  3
Layout1
350
1E
  3
Layout2
350
26
  3
Model
350
22
  0
DICTIONARY
  5
17
102
{ACAD_REACTORS
330
C
102
}
330
C
100
AcDbDictionary
281
     1
  3
Standard
350
18
  0
DICTIONARY
  5
19
102
{ACAD_REACTORS
330
C
102
}
330
C
100
AcDbDictionary
281
     1
  0
ACDBDICTIONARYWDFLT
  5
E
102
{ACAD_REACTORS
330
C
102
}
330
C
100
AcDbDictionary
281
     1
  3
Normal
350
F
100
AcDbDictionaryWithDefault
340
F
  0
LAYOUT
  5
1E
102
{ACAD_REACTORS
330
1A
102
}
330
1A
100
AcDbPlotSettings
  1

  2

  4

  6

 40
0.0
 41
0.0
 42
0.0
 43
0.0
 44
0.0
 45
0.0
 46
0.0
 47
0.0
 48
0.0
 49
0.0
140
0.0
141
0.0
142
1.0
143
1.0
 70
   688
 72
     0
 73
     0
 74
     5
  7

 75
    16
 76
     0
 77
     2
 78
   300
147
1.0
148
0.0
149
0.0
100
AcDbLayout
  1
Layout1
 70
     1
 71
     1
 10
0.0
 20
0.0
 11
0.0
 21
0.0
 12
0.0
 22
0.0
 32
0.0
 14
0.0
 24
0.0
 34
0.0
 15
0.0
 25
0.0
 35
0.0
146
0.0
 13
0.0
 23
0.0
 33
0.0
 16
1.0
 26
0.0
 36
0.0
 17
0.0
 27
1.0
 37
0.0
 76
     0
330
1B
  0
LAYOUT
  5
26
102
{ACAD_REACTORS
330
1A
102
}
330
1A
100
AcDbPlotSettings
  1

  2

  4

  6

 40
0.0
 41
0.0
 42
0.0
 43
0.0
 44
0.0
 45
0.0
 46
0.0
 47
0.0
 48
0.0
 49
0.0
140
0.0
141
0.0
142
1.0
143
1.0
 70
   688
 72
     0
 73
     0
 74
     5
  7

 75
    16
 76
     0
 77
     2
 78
   300
147
1.0
148
0.0
149
0.0
100
AcDbLayout
  1
Layout2
 70
     1
 71
     2
 10
0.0
 20
0.0
 11
0.0
 21
0.0
 12
0.0
 22
0.0
 32
0.0
 14
0.0
 24
0.0
 34
0.0
 15
0.0
 25
0.0
 35
0.0
146
0.0
 13
0.0
 23
0.0
 33
0.0
 16
1.0
 26
0.0
 36
0.0
 17
0.0
 27
1.0
 37
0.0
 76
     0
330
23
  0
LAYOUT
  5
22
102
{ACAD_REACTORS
330
1A
102
}
330
1A
100
AcDbPlotSettings
  1

  2

  4

  6

 40
0.0
 41
0.0
 42
0.0
 43
0.0
 44
0.0
 45
0.0
 46
0.0
 47
0.0
 48
0.0
 49
0.0
140
0.0
141
0.0
142
1.0
143
1.0
 70
  1712
 72
     0
 73
     0
 74
     0
  7

 75
     0
 76
     0
 77
     2
 78
   300
147
1.0
148
0.0
149
0.0
100
AcDbLayout
  1
Model
 70
     1
 71
     0
 10
0.0
 20
0.0
 11
0.0
 21
0.0
 12
0.0
 22
0.0
 32
0.0
 14
586.169094479899
 24
160.540233742051
 34
0.0
 15
732.644599640976
 25
257.3034542425874
 35
0.0
146
0.0
 13
0.0
 23
0.0
 33
0.0
 16
1.0
 26
0.0
 36
0.0
 17
0.0
 27
1.0
 37
0.0
 76
     0
330
1F
  0
MLINESTYLE
  5
18
102
{ACAD_REACTORS
330
17
102
}
330
17
100
AcDbMlineStyle
  2
Standard
 70
     0
  3

 62
   256
 51
90.0
 52
90.0
 71
     2
 49
0.5
 62
   256
  6
BYLAYER
 49
-0.5
 62
   256
  6
BYLAYER
  0
ACDBPLACEHOLDER
  5
F
102
{ACAD_REACTORS
330
E
102
}
330
E
  0
ENDSEC
  0
EOF
